osu file format v14

[General]
AudioFilename: pochiko.mp3
AudioLeadIn: 0
PreviewTime: 42230
Countdown: 0
SampleSet: Normal
StackLeniency: 0.4
Mode: 0
LetterboxInBreaks: 0
WidescreenStoryboard: 0

[Editor]
Bookmarks: 62855,72698,84730,85667
DistanceSpacing: 1
BeatDivisor: 4
GridSize: 4
TimelineZoom: 2.1

[Metadata]
Title:Pochiko no Shiawase na Nichijou
TitleUnicode:ポチコの幸せな日常
Artist:NU-KO
ArtistUnicode:NU-KO
Creator:Yauxo
Version:Extra
Source:pop'n music Sunny Park
Tags:Kinshara Chewin Okoratu Priti captin1 わんわんコア PUPCORE PON Daichi Watanabe jubeat saucer fulfill REFLEC BEAT groovin'!! Upper
BeatmapID:704161
BeatmapSetID:232273

[Difficulty]
HPDrainRate:6
CircleSize:4.1
OverallDifficulty:8
ApproachRate:9.2
SliderMultiplier:1.7
SliderTickRate:1

[Events]
//Background and Video events
0,0,"pochikobg.jpg",0,0
//Break Periods
2,63054,69160
//Storyboard Layer 0 (Background)
//Storyboard Layer 1 (Fail)
//Storyboard Layer 2 (Pass)
//Storyboard Layer 3 (Foreground)
//Storyboard Sound Samples

[TimingPoints]
355,312.5,4,1,1,50,1,0
355,-100,4,1,1,50,0,1
6605,-125,4,1,1,50,0,1
7073,-166.666666666667,4,1,1,50,0,1
7698,-100,4,1,1,5,0,1
7855,-125,4,2,1,50,0,0
12230,-100,4,1,1,50,0,0
17542,-166.666666666667,4,1,1,50,0,0
17776,-166.666666666667,4,1,1,20,0,0
17855,-100,4,1,1,50,0,0
28714,-100,4,1,1,5,0,0
28792,-83.3333333333333,4,1,1,50,0,0
29026,-83.3333333333333,4,1,1,5,0,0
29105,-100,4,1,1,50,0,0
33480,-83.3333333333333,4,1,1,50,0,0
34105,-100,4,1,1,50,0,0
42230,-100,4,1,1,50,0,0
43167,-100,4,1,1,50,0,1
46448,-100,4,1,1,50,0,0
48167,-100,4,1,1,50,0,1
52855,-100,4,1,1,50,0,0
55355,-100,4,1,1,50,0,1
61605,-125,4,1,1,50,0,1
62073,-166.666666666667,4,1,1,50,0,1
62855,-100,4,2,1,50,0,0
70511,-166.666666666667,4,2,1,50,0,0
70980,-100,4,2,1,50,0,0
71136,-166.666666666667,4,2,1,50,0,0
71605,-100,4,2,1,50,0,0
72698,-100,4,1,1,50,0,0
84730,-125,4,1,1,50,0,0
85511,-125,4,1,1,20,0,0
85667,-125,4,1,1,50,0,0
94105,-100,4,1,1,50,0,1
97698,-100,4,1,1,50,0,0
99417,-100,4,1,1,50,0,1
107542,-100,4,1,1,50,0,0
107855,-100,4,1,1,50,0,1
115823,-100,4,1,1,50,0,0

[Colours]
Combo1 : 190,241,120
Combo2 : 251,164,234
Combo3 : 255,210,128
Combo4 : 255,128,131
Combo5 : 154,239,190
Combo6 : 199,171,243
Combo7 : 244,199,179
Combo8 : 152,208,250

[HitObjects]
120,232,355,6,0,L|128:136,1,85,4|0,3:0|0:0,0:0:0:0:
164,72,589,1,0,0:0:0:0:
164,72,667,2,0,P|120:64|76:80,1,85,2|0,3:0|0:0,0:0:0:0:
208,236,980,2,0,P|252:244|296:228,1,85,4|0,3:0|0:0,0:0:0:0:
368,200,1214,1,0,0:0:0:0:
368,200,1292,2,0,L|375:284,1,85,2|0,3:0|0:0,0:0:0:0:
384,364,1526,1,0,0:0:0:0:
384,364,1605,6,0,L|296:352,1,85,4|0,3:0|0:0,0:0:0:0:
123,247,1917,2,0,L|211:235,1,85,2|0,3:0|0:0,0:0:0:0:
384,130,2230,1,4,3:0:0:0:
384,130,2308,1,0,0:0:0:0:
384,130,2386,1,0,0:0:0:0:
340,256,2542,1,2,3:0:0:0:
340,256,2620,1,0,0:0:0:0:
340,256,2698,6,0,L|159:229,1,170,0|0,0:0|0:0,0:0:0:0:
96,192,3089,1,0,0:0:0:0:
96,192,3167,2,0,P|88:236|104:280,1,85,2|0,3:0|0:0,0:0:0:0:
176,144,3480,1,4,3:0:0:0:
176,144,3636,1,4,3:0:0:0:
232,324,3792,1,2,3:0:0:0:
292,80,3948,1,4,3:0:0:0:
292,80,4261,5,2,3:0:0:0:
262,75,4339,1,0,0:0:0:0:
233,71,4417,1,4,3:0:0:0:
118,153,4573,1,4,3:0:0:0:
147,148,4651,1,0,0:0:0:0:
176,144,4729,1,4,3:0:0:0:
124,52,4886,1,4,3:0:0:0:
292,80,5042,1,4,3:0:0:0:
118,153,5198,1,4,3:0:0:0:
220,8,5355,6,0,B|204:80|204:80|224:132|224:132|224:200,2,170,4|4|4,3:0|3:0|3:0,0:0:0:0:
292,80,6136,1,2,3:0:0:0:
118,153,6292,2,0,L|64:140,2,42.5,4|0|0,3:0|0:0|0:0,0:0:0:0:
224,172,6605,6,0,L|308:152,2,68,4|4|4,3:0|3:0|3:0,0:0:0:0:
118,153,7073,2,0,L|70:369,1,203.999993774414,4|0,3:0|0:0,0:0:0:0:
208,248,7855,6,0,P|216:296|236:328,1,68,4|0,3:0|0:0,0:0:0:0:
292,260,8167,2,0,P|328:291|364:303,1,68,0|0,0:0|0:0,0:0:0:0:
364,215,8480,2,0,P|412:215|447:201,2,68,0|0|0,0:0|0:0|0:0,0:0:0:0:
364,215,9105,6,0,P|298:198|230:190,1,136,2|0,0:0|0:0,0:0:0:0:
84,124,9573,2,0,P|152:116|240:92,1,136,2|0,0:0|0:0,0:0:0:0:
400,56,10042,2,0,L|388:128,1,68,2|2,0:0|0:0,0:0:0:0:
312,200,10355,6,0,L|304:132,2,68,2|0|0,0:0|0:0|0:0,0:0:0:0:
368,276,10823,1,0,0:0:0:0:
460,252,10980,2,0,L|442:317,2,68,2|0|2,0:0|0:0|0:0,0:0:0:0:
480,152,11448,6,0,P|414:169|344:164,1,136,2|0,0:0|0:0,0:0:0:0:
260,144,11917,1,0,0:0:0:0:
376,68,12073,1,2,0:0:0:0:
460,252,12230,5,4,3:0:0:0:
461,268,12308,1,0,0:0:0:0:
463,285,12386,1,0,0:0:0:0:
464,302,12464,1,0,0:0:0:0:
466,319,12542,1,4,3:0:0:0:
429,296,12620,1,0,0:0:0:0:
389,285,12698,1,0,0:0:0:0:
346,286,12776,1,0,0:0:0:0:
306,298,12855,6,0,P|268:308|220:308,1,85,4|0,3:0|0:0,0:0:0:0:
124,292,13167,1,2,3:0:0:0:
192,216,13323,1,0,0:0:0:0:
80,108,13480,2,0,P|80:151|92:192,1,85,4|0,3:0|0:0,0:0:0:0:
260,140,13792,2,0,P|271:99|271:56,1,85,2|0,3:0|0:0,0:0:0:0:
156,12,14105,5,4,3:0:0:0:
192,216,14261,1,0,0:0:0:0:
192,216,14339,1,0,0:0:0:0:
192,216,14417,2,0,L|280:224,1,85,2|0,3:0|0:0,0:0:0:0:
376,152,14730,1,4,3:0:0:0:
340,356,14886,1,0,0:0:0:0:
340,356,14964,1,0,0:0:0:0:
340,356,15042,2,0,L|252:364,1,85,2|0,3:0|0:0,0:0:0:0:
184,376,15276,1,0,0:0:0:0:
184,376,15355,6,0,P|172:335|172:292,1,85,4|0,3:0|0:0,0:0:0:0:
192,192,15667,1,2,3:0:0:0:
284,280,15823,1,0,0:0:0:0:
88,296,15980,2,0,P|76:248|86:176,1,85,4|0,3:0|0:0,0:0:0:0:
75,127,16292,2,0,P|70:189|33:240,1,127.5,2|0,3:0|0:0,0:0:0:0:
8,264,16605,5,4,3:0:0:0:
192,192,16761,1,4,3:0:0:0:
75,127,16917,1,4,3:0:0:0:
60,352,17073,1,4,3:0:0:0:
68,360,17386,5,4,3:0:0:0:
75,127,17542,2,0,L|88:216,1,76.4999976654053,4|0,3:0|0:0,0:0:0:0:
92,236,17855,6,0,P|136:224|180:228,1,85,4|0,3:0|0:0,0:0:0:0:
184,136,18167,2,0,P|225:155|256:186,1,85,2|0,3:0|0:0,0:0:0:0:
318,118,18480,2,0,P|337:159|341:203,2,85,4|0|2,3:0|0:0|3:0,0:0:0:0:
208,40,18948,6,0,P|186:102|214:202,1,170,0|0,0:0|0:0,0:0:0:0:
248,268,19339,1,0,0:0:0:0:
248,268,19417,2,0,L|312:256,1,42.5,2|0,3:0|0:0,0:0:0:0:
412,224,19573,2,0,L|348:212,1,42.5,0|0,0:0|0:0,0:0:0:0:
288,152,19730,1,4,3:0:0:0:
368,316,19886,1,0,0:0:0:0:
400,96,20042,1,2,3:0:0:0:
248,268,20198,1,0,0:0:0:0:
248,268,20276,1,0,0:0:0:0:
248,268,20355,6,0,L|160:260,1,85,4|0,3:0|0:0,0:0:0:0:
16,168,20667,2,0,L|104:160,1,85,2|0,3:0|0:0,0:0:0:0:
204,148,20980,1,4,3:0:0:0:
163,260,21136,1,0,0:0:0:0:
96,72,21292,1,2,3:0:0:0:
204,148,21448,1,0,0:0:0:0:
16,168,21605,5,4,3:0:0:0:
16,168,21761,1,4,3:0:0:0:
96,72,21917,1,4,3:0:0:0:
163,260,22073,2,0,L|232:276,2,42.5,4|0|4,3:0|0:0|3:0,0:0:0:0:
32,188,22386,1,4,3:0:0:0:
32,188,22542,1,4,3:0:0:0:
112,92,22698,1,4,3:0:0:0:
179,280,22855,6,0,P|219:291|262:292,1,85,4|0,3:0|0:0,0:0:0:0:
436,232,23167,2,0,P|395:220|352:219,1,85,2|0,3:0|0:0,0:0:0:0:
256,160,23480,1,4,3:0:0:0:
262,292,23636,1,0,0:0:0:0:
352,219,23792,1,2,3:0:0:0:
165,232,23948,1,0,0:0:0:0:
165,232,24026,1,0,0:0:0:0:
165,232,24105,6,0,L|156:324,1,85,4|0,3:0|0:0,0:0:0:0:
256,160,24417,2,0,L|247:75,1,85,2|0,3:0|0:0,0:0:0:0:
352,219,24730,1,4,3:0:0:0:
432,104,24886,1,0,0:0:0:0:
256,160,25042,1,2,3:0:0:0:
456,200,25198,1,0,0:0:0:0:
456,200,25276,1,0,0:0:0:0:
456,200,25355,6,0,L|447:292,1,85,4|0,3:0|0:0,0:0:0:0:
272,348,25667,2,0,L|263:263,1,85,2|0,3:0|0:0,0:0:0:0:
256,160,25980,1,4,3:0:0:0:
165,232,26136,1,0,0:0:0:0:
352,219,26292,2,0,P|372:160|344:92,1,127.5,2|0,3:0|0:0,0:0:0:0:
328,76,26605,5,4,3:0:0:0:
328,76,26761,1,0,0:0:0:0:
328,76,26917,2,0,L|232:64,1,85,2|0,3:0|0:0,0:0:0:0:
112,116,27230,1,4,3:0:0:0:
112,116,27386,1,0,0:0:0:0:
112,116,27542,2,0,L|100:20,1,85,2|0,3:0|0:0,0:0:0:0:
224,180,27855,1,4,3:0:0:0:
224,180,27933,1,0,0:0:0:0:
224,180,28011,1,0,0:0:0:0:
224,180,28089,1,0,0:0:0:0:
224,180,28167,2,0,L|308:190,1,85,2|0,3:0|0:0,0:0:0:0:
397,227,28480,6,0,P|335:240|286:280,1,127.5,4|0,3:0|0:0,0:0:0:0:
287,281,28792,6,0,P|328:219|326:143,1,152.999995330811,2|0,3:0|0:0,0:0:0:0:
327,144,29105,6,0,L|425:165,2,85,4|0|2,3:0|0:0|3:0,0:0:0:0:
212,88,29573,1,0,0:0:0:0:
212,88,29651,1,0,0:0:0:0:
212,88,29730,2,0,L|114:108,2,85,4|0|2,3:0|0:0|3:0,0:0:0:0:
220,216,30198,1,0,0:0:0:0:
220,216,30276,1,0,0:0:0:0:
220,216,30355,2,0,L|240:313,2,85,4|0|2,3:0|0:0|3:0,0:0:0:0:
326,143,30823,1,0,0:0:0:0:
326,143,30901,1,0,0:0:0:0:
326,143,30980,6,0,L|343:59,1,85,4|0,3:0|0:0,0:0:0:0:
420,24,31292,1,2,3:0:0:0:
251,76,31448,1,0,0:0:0:0:
429,219,31605,6,0,L|411:135,2,85,4|0|2,3:0|0:0|3:0,0:0:0:0:
355,322,32073,1,0,0:0:0:0:
355,322,32151,1,0,0:0:0:0:
355,322,32230,2,0,L|439:340,2,85,4|0|2,3:0|0:0|3:0,0:0:0:0:
244,258,32698,1,0,0:0:0:0:
244,258,32776,1,0,0:0:0:0:
244,258,32855,2,0,L|160:276,2,85,4|0|2,3:0|0:0|3:0,0:0:0:0:
319,155,33323,1,0,0:0:0:0:
195,75,33480,6,0,P|210:123|244:159,1,101.999996887207,4|0,3:0|0:0,0:0:0:0:
319,155,33714,1,0,0:0:0:0:
319,155,33792,2,0,P|270:170|234:204,1,101.999996887207,2|0,3:0|0:0,0:0:0:0:
188,272,34026,1,0,0:0:0:0:
188,272,34105,6,0,L|218:380,2,85,4|0|2,3:0|0:0|3:0,0:0:0:0:
126,160,34573,1,0,0:0:0:0:
126,160,34651,1,0,0:0:0:0:
126,160,34730,2,0,L|51:224,2,85,4|0|2,3:0|0:0|3:0,0:0:0:0:
253,164,35198,1,0,0:0:0:0:
253,164,35276,1,0,0:0:0:0:
253,164,35355,2,0,L|275:68,2,85,4|0|2,3:0|0:0|3:0,0:0:0:0:
188,272,35823,1,0,0:0:0:0:
188,272,35901,1,0,0:0:0:0:
188,272,35980,6,0,L|206:354,1,85,4|0,3:0|0:0,0:0:0:0:
328,292,36292,2,0,L|346:208,1,85,2|0,3:0|0:0,0:0:0:0:
467,276,36605,1,4,3:0:0:0:
467,276,37230,6,0,L|448:193,1,85,0|0,3:0|3:0,0:0:0:0:
474,124,37464,1,0,0:0:0:0:
474,124,37542,2,0,L|402:114,1,42.5,0|0,3:0|0:0,0:0:0:0:
348,136,37698,2,0,L|276:126,1,42.5,0|0,3:0|0:0,0:0:0:0:
220,144,37855,6,0,P|138:139|36:112,1,170,4|2,3:0|3:0,0:0:0:0:
205,52,38323,1,0,0:0:0:0:
234,236,38480,2,0,P|152:231|50:204,1,170,4|2,3:0|3:0,0:0:0:0:
220,144,38948,1,0,0:0:0:0:
248,328,39105,6,0,P|192:328|146:318,1,85,4|0,3:0|0:0,0:0:0:0:
234,236,39417,1,2,3:0:0:0:
316,175,39573,2,0,P|372:175|418:185,1,85,0|4,0:0|3:0,0:0:0:0:
234,235,39886,1,0,0:0:0:0:
234,235,39964,1,0,0:0:0:0:
234,235,40042,1,2,3:0:0:0:
264,100,40198,1,0,0:0:0:0:
355,260,40355,5,4,3:0:0:0:
334,286,40433,1,0,0:0:0:0:
306,306,40511,1,0,0:0:0:0:
274,316,40589,1,0,0:0:0:0:
240,317,40667,1,2,3:0:0:0:
247,275,40745,1,0,0:0:0:0:
234,235,40823,1,0,0:0:0:0:
203,206,40901,1,0,0:0:0:0:
163,192,40980,6,0,L|115:176,3,42.5,4|0|0|0,3:0|0:0|0:0|0:0,0:0:0:0:
221,106,41292,2,0,L|263:99,3,42.5,2|0|0|0,3:0|0:0|0:0|0:0,0:0:0:0:
336,168,41605,5,4,3:0:0:0:
240,0,41761,1,4,3:0:0:0:
112,272,41917,1,4,3:0:0:0:
111,290,42230,5,4,3:0:0:0:
83,90,42386,1,4,3:0:0:0:
33,254,42542,1,4,3:0:0:0:
161,126,42698,2,0,P|167:74|59:6,1,170,4|0,3:0|0:0,0:0:0:0:
83,90,43089,1,0,0:0:0:0:
83,90,43167,6,0,L|143:78,1,42.5,4|0,3:0|0:0,0:0:0:0:
210,88,43323,2,0,L|270:76,1,42.5,0|0,0:0|0:0,0:0:0:0:
337,86,43480,5,4,3:0:0:0:
171,7,43636,1,0,0:0:0:0:
376,5,43792,1,2,3:0:0:0:
210,88,43948,2,0,L|154:181,1,85,0|4,0:0|3:0,0:0:0:0:
269,284,44261,2,0,L|252:195,1,85,0|2,0:0|3:0,0:0:0:0:
87,131,44573,2,0,P|102:215|178:244,1,170,0|0,0:0|0:0,0:0:0:0:
240,203,44964,1,0,0:0:0:0:
240,203,45042,1,2,3:0:0:0:
87,303,45198,1,0,0:0:0:0:
167,160,45355,6,0,L|186:71,1,85,4|0,3:0|0:0,0:0:0:0:
343,18,45667,2,0,L|362:101,1,85,2|0,3:0|0:0,0:0:0:0:
391,198,45980,1,4,3:0:0:0:
184,76,46136,1,0,0:0:0:0:
361,100,46292,1,2,3:0:0:0:
154,222,46448,5,4,3:0:0:0:
369,120,46761,1,4,3:0:0:0:
192,96,47073,1,4,3:0:0:0:
399,218,47386,1,4,3:0:0:0:
289,29,47698,2,0,P|283:81|391:149,1,170,4|0,3:0|0:0,0:0:0:0:
367,65,48089,1,0,0:0:0:0:
367,65,48167,6,0,L|307:77,1,42.5,4|0,3:0|0:0,0:0:0:0:
240,67,48323,2,0,L|180:79,1,42.5,0|0,0:0|0:0,0:0:0:0:
113,69,48480,6,0,L|72:164,1,85,4|0,3:0|0:0,0:0:0:0:
167,330,48792,1,2,3:0:0:0:
193,233,48948,2,0,P|150:229|113:247,1,85,0|4,0:0|3:0,0:0:0:0:
276,338,49261,2,0,P|318:330|349:303,1,85,0|2,0:0|3:0,0:0:0:0:
320,223,49573,2,0,P|346:300|425:321,1,170,0|0,0:0|0:0,0:0:0:0:
495,286,49964,1,0,0:0:0:0:
495,286,50042,1,2,3:0:0:0:
276,338,50198,1,0,0:0:0:0:
404,237,50355,6,0,L|431:146,1,85,4|0,3:0|0:0,0:0:0:0:
185,155,50667,2,0,L|210:237,1,85,2|0,3:0|0:0,0:0:0:0:
235,318,50980,1,4,3:0:0:0:
307,162,51136,1,0,0:0:0:0:
377,318,51292,1,2,3:0:0:0:
383,82,51605,6,0,B|343:90|307:118|307:118|271:90|231:82,1,170,4|2,3:0|3:0,0:0:0:0:
307,22,52073,2,0,L|307:194,1,170,0|0,0:0|0:0,0:0:0:0:
271,270,52542,1,2,3:0:0:0:
395,158,52698,1,0,0:0:0:0:
231,106,52855,5,4,3:0:0:0:
363,246,53011,1,4,3:0:0:0:
231,106,53480,5,4,3:0:0:0:
363,246,53636,1,4,3:0:0:0:
231,106,53792,2,0,P|243:170|219:222,1,85,0|0,0:0|0:0,0:0:0:0:
75,278,54105,6,0,B|115:270|151:242|151:242|187:270|227:278,1,170,4|0,3:0|0:0,0:0:0:0:
151,338,54573,2,0,L|151:166,1,170,0|0,0:0|0:0,0:0:0:0:
99,110,54964,1,4,3:0:0:0:
99,110,55042,6,0,L|163:86,1,42.5,0|0,0:0|0:0,0:0:0:0:
262,99,55198,2,0,L|223:114,1,42.5,4|0,3:0|0:0,0:0:0:0:
24,148,55355,6,0,P|16:104|32:60,1,85,4|0,3:0|0:0,0:0:0:0:
103,114,55589,1,0,0:0:0:0:
103,114,55667,2,0,P|115:154|106:195,1,85,2|0,3:0|0:0,0:0:0:0:
232,344,55980,6,0,P|276:352|320:336,1,85,4|0,3:0|0:0,0:0:0:0:
266,265,56214,1,0,0:0:0:0:
266,265,56292,2,0,P|225:252|184:261,1,85,2|0,3:0|0:0,0:0:0:0:
104,284,56526,1,0,0:0:0:0:
104,284,56605,6,0,L|96:199,1,85,4|0,3:0|0:0,0:0:0:0:
284,48,56917,2,0,L|272:132,1,85,2|0,3:0|0:0,0:0:0:0:
424,280,57230,1,4,3:0:0:0:
424,280,57308,1,0,0:0:0:0:
424,280,57386,1,0,0:0:0:0:
260,308,57542,1,2,3:0:0:0:
260,308,57620,1,0,0:0:0:0:
260,308,57698,6,0,L|287:127,1,170,4|0,3:0|0:0,0:0:0:0:
324,64,58089,1,0,0:0:0:0:
324,64,58167,2,0,P|280:56|236:72,1,85,2|0,3:0|0:0,0:0:0:0:
372,144,58480,1,4,3:0:0:0:
372,144,58636,1,0,0:0:0:0:
192,200,58792,1,2,3:0:0:0:
436,260,58948,1,4,3:0:0:0:
436,260,59261,5,4,3:0:0:0:
441,230,59339,1,0,0:0:0:0:
445,201,59417,1,0,0:0:0:0:
328,312,59573,1,0,0:0:0:0:
323,282,59651,1,0,0:0:0:0:
319,253,59729,1,4,3:0:0:0:
416,348,59886,1,4,3:0:0:0:
445,201,60042,1,4,3:0:0:0:
316,336,60198,1,4,3:0:0:0:
232,196,60355,6,0,B|248:268|248:268|228:320|228:320|228:388,2,170,4|4|4,3:0|3:0|3:0,0:0:0:0:
152,260,61136,1,2,3:0:0:0:
316,336,61292,2,0,L|370:323,2,42.5,4|0|0,3:0|0:0|0:0,0:0:0:0:
464,276,61605,6,0,L|444:360,2,68,4|4|4,3:0|3:0|3:0,0:0:0:0:
480,168,62073,2,0,L|232:224,1,254.999992218018,4|4,3:0|3:0,0:0:0:0:
292,138,69730,5,8,3:0:0:0:
508,198,69964,1,8,3:0:0:0:
421,274,70198,1,8,3:0:0:0:
421,274,70276,1,0,0:0:0:0:
421,274,70355,6,0,L|379:267,1,42.5,4|0,3:0|0:0,0:0:0:0:
260,330,70511,2,0,L|228:346,5,25.4999992218018,0|0|0|0|0|0,0:0|0:0|0:0|0:0|0:0|0:0,0:0:0:0:
260,330,70980,6,0,L|253:288,1,42.5,4|0,3:0|0:0,0:0:0:0:
184,186,71136,2,0,L|152:170,5,25.4999992218018,0|0|0|0|0|0,0:0|0:0|0:0|0:0|0:0|0:0,0:0:0:0:
184,186,71605,6,0,L|177:227,1,42.5,4|0,3:0|0:0,0:0:0:0:
124,294,71761,1,0,0:0:0:0:
328,126,71917,6,0,L|321:167,1,42.5,4|0,3:0|0:0,0:0:0:0:
268,234,72073,1,0,0:0:0:0:
472,66,72230,5,4,3:0:0:0:
412,174,72386,1,4,3:0:0:0:
472,66,72542,1,4,3:0:0:0:
328,126,72698,6,0,P|316:190|396:270,1,170,4|0,3:0|0:0,0:0:0:0:
448,314,73167,2,0,P|399:298|356:296,1,85,4|0,3:0|0:0,0:0:0:0:
264,312,73480,2,0,P|221:308|181:294,1,85,2|0,3:0|0:0,0:0:0:0:
88,256,73792,1,4,3:0:0:0:
276,202,73948,1,0,0:0:0:0:
204,132,74105,6,0,P|180:170|177:212,1,85,2|0,3:0|0:0,0:0:0:0:
276,202,74417,1,4,3:0:0:0:
236,54,74573,2,0,B|193:40|153:67|153:67|112:98|74:79,1,170,0|0,0:0|0:0,0:0:0:0:
100,10,74964,1,0,0:0:0:0:
100,10,75042,1,4,3:0:0:0:
199,222,75198,1,4,3:0:0:0:
199,222,75511,5,4,3:0:0:0:
315,137,75667,1,4,3:0:0:0:
332,280,75823,1,0,0:0:0:0:
230,143,75980,1,4,3:0:0:0:
367,203,76136,1,0,0:0:0:0:
247,291,76292,1,2,3:0:0:0:
367,203,76448,1,0,0:0:0:0:
199,222,76605,6,0,P|167:260|165:304,2,85,4|0|2,3:0|0:0|3:0,0:0:0:0:
414,319,77073,2,0,L|247:291,1,170,0|0,0:0|0:0,0:0:0:0:
199,222,77464,1,0,0:0:0:0:
199,222,77542,1,2,3:0:0:0:
367,203,77698,1,0,0:0:0:0:
173,334,77855,6,0,B|114:345|114:345|67:339,2,85,4|0|2,3:0|0:0|3:0,0:0:0:0:
317,227,78323,1,0,0:0:0:0:
233,149,78480,2,0,P|205:179|198:220,1,85,4|0,3:0|0:0,0:0:0:0:
370,159,78792,1,2,3:0:0:0:
242,293,78948,2,0,P|193:305|115:209,1,170,0|0,0:0|0:0,0:0:0:0:
173,73,79417,5,2,3:0:0:0:
198,221,79573,1,0,0:0:0:0:
76,128,79730,1,4,3:0:0:0:
251,152,79886,1,0,0:0:0:0:
76,128,80042,1,2,3:0:0:0:
178,305,80198,1,0,0:0:0:0:
76,128,80355,6,0,L|-18:73,1,85,4|0,3:0|0:0,0:0:0:0:
77,220,80667,2,0,P|118:213|149:185,1,85,2|0,3:0|0:0,0:0:0:0:
236,38,80980,1,4,3:0:0:0:
336,175,81136,1,0,0:0:0:0:
197,114,81292,1,2,3:0:0:0:
375,99,81448,6,0,P|407:125|420:165,1,85,0|4,0:0|3:0,0:0:0:0:
344,340,81761,2,0,P|327:301|335:260,1,85,0|2,0:0|3:0,0:0:0:0:
236,144,82073,2,0,P|222:183|188:209,1,85,0|4,0:0|3:0,0:0:0:0:
88,204,82386,1,0,0:0:0:0:
164,88,82542,1,2,3:0:0:0:
200,300,82698,1,0,0:0:0:0:
88,204,82855,5,4,3:0:0:0:
126,186,82933,1,0,0:0:0:0:
168,184,83011,1,0,0:0:0:0:
208,198,83089,1,0,0:0:0:0:
241,224,83167,1,4,3:0:0:0:
273,250,83245,1,0,0:0:0:0:
313,264,83323,1,0,0:0:0:0:
355,262,83401,1,0,0:0:0:0:
396,252,83480,6,0,L|444:237,3,42.5,4|0|0|0,3:0|0:0|0:0|0:0,0:0:0:0:
328,176,83792,2,0,L|280:144,3,42.5,4|0|0|0,3:0|0:0|0:0|0:0,0:0:0:0:
432,152,84105,5,4,3:0:0:0:
336,320,84261,1,4,3:0:0:0:
208,48,84417,1,4,3:0:0:0:
208,48,84730,6,0,P|187:112|142:162,1,136,0|0,0:0|0:0,0:0:0:0:
82,95,85198,2,0,P|148:121|246:98,1,170,0|0,0:0|0:0,0:0:0:0:
242,100,85667,5,4,3:0:0:0:
221,225,85875,1,0,0:0:0:0:
221,225,85980,2,0,P|253:268|329:314,2,136,4|0|4,3:0|0:0|3:0,0:0:0:0:
325,152,86813,5,0,0:0:0:0:
325,152,86917,2,0,L|424:136,1,90.6666666666667,0|0,0:0|0:0,0:0:0:0:
452,164,87230,2,0,L|312:188,1,136,4|0,3:0|0:0,0:0:0:0:
144,256,87855,6,0,L|240:280,1,90.6666666666667,4|0,3:0|0:0,0:0:0:0:
264,312,88167,1,0,0:0:0:0:
128,164,88375,1,0,0:0:0:0:
128,164,88480,6,0,L|264:200,2,136,4|0|4,3:0|0:0|3:0,0:0:0:0:
264,312,89417,1,0,0:0:0:0:
396,192,89730,5,8,3:0:0:0:
400,164,89834,1,8,3:0:0:0:
404,136,89938,1,8,3:0:0:0:
408,108,90042,1,8,3:0:0:0:
464,280,90250,1,0,0:0:0:0:
464,280,90355,6,0,P|398:296|332:279,1,136,4|0,3:0|0:0,0:0:0:0:
156,212,90980,1,2,3:0:0:0:
288,76,91292,6,0,L|260:168,1,90.6666666666667,0|0,0:0|0:0,0:0:0:0:
280,204,91605,2,0,L|327:50,1,136,4|0,3:0|0:0,0:0:0:0:
156,212,92230,1,2,3:0:0:0:
331,285,92542,6,0,L|224:316,1,90.6666666666667,0|0,0:0|0:0,0:0:0:0:
201,293,92855,1,4,3:0:0:0:
201,293,93167,1,2,2:0:0:0:
201,293,93480,5,8,3:0:0:0:
220,287,93558,1,8,3:0:0:0:
240,281,93636,1,8,3:0:0:0:
259,275,93714,1,8,3:0:0:0:
279,270,93792,1,8,3:0:0:0:
298,264,93870,1,8,3:0:0:0:
318,258,93948,1,8,3:0:0:0:
338,253,94026,1,8,3:0:0:0:
357,247,94105,6,0,P|389:273|402:313,1,85,4|0,3:0|0:0,0:0:0:0:
317,320,94339,1,0,0:0:0:0:
317,320,94417,6,0,L|305:260,1,42.5,2|0,3:0|0:0,0:0:0:0:
315,193,94573,2,0,L|303:133,1,42.5,0|0,0:0|0:0,0:0:0:0:
313,66,94730,5,4,3:0:0:0:
217,195,94886,1,0,0:0:0:0:
397,110,95042,1,2,3:0:0:0:
133,149,95198,2,0,P|120:190|129:231,1,85,0|4,0:0|3:0,0:0:0:0:
221,349,95511,2,0,P|233:308|224:267,1,85,0|2,0:0|3:0,0:0:0:0:
56,334,95823,2,0,P|137:358|220:349,1,170,0|0,0:0|0:0,0:0:0:0:
300,364,96214,1,0,0:0:0:0:
300,364,96292,1,2,3:0:0:0:
229,171,96448,1,0,0:0:0:0:
176,280,96605,6,0,L|280:259,1,85,4|0,3:0|0:0,0:0:0:0:
445,312,96917,2,0,L|341:291,1,85,2|0,3:0|0:0,0:0:0:0:
259,263,97230,1,4,3:0:0:0:
259,263,97386,1,4,3:0:0:0:
416,156,97542,1,0,0:0:0:0:
174,203,97698,5,4,3:0:0:0:
439,254,98011,1,4,3:0:0:0:
259,263,98323,1,4,3:0:0:0:
416,156,98636,1,4,3:0:0:0:
174,203,98948,2,0,P|129:174|144:48,1,170,4|4,3:0|3:0,0:0:0:0:
194,120,99339,1,4,3:0:0:0:
194,120,99417,6,0,L|146:159,1,42.5,4|0,3:0|0:0,0:0:0:0:
112,217,99573,2,0,L|64:256,1,42.5,0|0,0:0|0:0,0:0:0:0:
31,314,99730,6,0,P|82:340|117:342,1,85,4|0,3:0|0:0,0:0:0:0:
208,320,100042,1,2,3:0:0:0:
308,300,100198,2,0,P|349:306|385:328,1,85,0|4,0:0|3:0,0:0:0:0:
208,320,100511,2,0,L|184:227,1,85,0|2,0:0|3:0,0:0:0:0:
126,89,100823,2,0,L|83:253,1,170,0|0,0:0|0:0,0:0:0:0:
24,315,101214,1,0,0:0:0:0:
24,315,101292,1,2,3:0:0:0:
83,254,101448,6,0,L|185:235,1,85,4|0,3:0|0:0,0:0:0:0:
308,125,101761,1,0,0:0:0:0:
215,98,101917,2,0,L|231:182,1,85,2|0,3:0|0:0,0:0:0:0:
217,266,102230,1,4,3:0:0:0:
308,125,102386,1,0,0:0:0:0:
308,125,102464,1,0,0:0:0:0:
308,125,102542,1,2,3:0:0:0:
387,274,102698,6,0,L|285:255,1,85,4|0,3:0|0:0,0:0:0:0:
162,145,103011,1,0,0:0:0:0:
254,118,103167,2,0,L|238:201,1,85,2|0,3:0|0:0,0:0:0:0:
253,286,103480,1,4,3:0:0:0:
162,145,103636,1,0,0:0:0:0:
162,145,103714,1,0,0:0:0:0:
162,145,103792,1,2,3:0:0:0:
83,294,103948,6,0,P|54:235|62:130,1,170,4|4,3:0|3:0,0:0:0:0:
115,67,104417,2,0,P|71:91|29:97,1,85,2|0,3:0|0:0,0:0:0:0:
194,28,104730,1,4,3:0:0:0:
162,145,104886,1,0,0:0:0:0:
115,67,105042,1,2,3:0:0:0:
247,179,105198,1,0,0:0:0:0:
83,189,105355,5,4,3:0:0:0:
83,189,105511,1,2,3:0:0:0:
327,134,105667,1,4,3:0:0:0:
162,145,105823,1,2,3:0:0:0:
406,200,105979,1,4,3:0:0:0:
247,179,106136,1,2,3:0:0:0:
491,124,106292,1,4,3:0:0:0:
327,134,106448,1,2,3:0:0:0:
485,266,106605,5,4,3:0:0:0:
452,274,106683,1,8,3:0:0:0:
419,283,106761,1,8,3:0:0:0:
386,291,106839,1,8,3:0:0:0:
353,300,106917,1,8,3:0:0:0:
123,303,107073,5,4,3:0:0:0:
156,311,107151,1,8,3:0:0:0:
189,320,107229,1,8,3:0:0:0:
222,329,107307,1,8,3:0:0:0:
254,337,107385,1,8,3:0:0:0:
304,88,107542,5,4,3:0:0:0:
296,124,107620,1,8,3:0:0:0:
288,160,107698,1,8,3:0:0:0:
280,196,107776,1,8,3:0:0:0:
272,235,107855,6,0,L|347:195,1,85,4|0,3:0|0:0,0:0:0:0:
416,156,108089,1,0,0:0:0:0:
416,156,108167,2,0,P|424:200|408:244,1,85,2|0,3:0|0:0,0:0:0:0:
200,280,108480,2,0,P|187:239|196:198,1,85,4|0,3:0|0:0,0:0:0:0:
232,128,108714,1,0,0:0:0:0:
232,128,108792,2,0,L|148:116,1,85,2|0,3:0|0:0,0:0:0:0:
68,108,109026,1,0,0:0:0:0:
68,108,109105,6,0,L|80:192,1,85,4|0,3:0|0:0,0:0:0:0:
248,344,109417,2,0,L|260:260,1,85,2|0,3:0|0:0,0:0:0:0:
428,108,109730,1,4,3:0:0:0:
428,108,109808,1,0,0:0:0:0:
428,108,109886,1,0,0:0:0:0:
304,160,110042,1,2,3:0:0:0:
304,160,110120,1,0,0:0:0:0:
304,160,110198,6,0,P|261:131|134:119,1,170,4|0,3:0|0:0,0:0:0:0:
78,85,110589,1,0,0:0:0:0:
78,85,110667,1,2,3:0:0:0:
171,231,110823,1,0,0:0:0:0:
43,169,110980,1,2,3:0:0:0:
136,315,111136,1,0,0:0:0:0:
136,315,111448,6,0,L|263:192,1,170,4|0,3:0|0:0,0:0:0:0:
267,124,111839,1,0,0:0:0:0:
267,124,111917,1,2,3:0:0:0:
313,308,112073,1,0,0:0:0:0:
328,53,112230,1,2,3:0:0:0:
374,237,112386,1,0,0:0:0:0:
374,237,112698,6,0,P|301:205|194:203,1,170,4|4,3:0|3:0,0:0:0:0:
150,244,113089,1,0,0:0:0:0:
150,244,113167,1,2,3:0:0:0:
331,122,113323,1,0,0:0:0:0:
234,296,113480,1,4,3:0:0:0:
240,78,113636,1,4,3:0:0:0:
234,296,113792,1,4,3:0:0:0:
331,122,113948,1,4,3:0:0:0:
335,126,114261,5,4,3:1:0:0:
94,90,114417,1,4,3:1:0:0:
338,130,114730,5,4,3:1:0:0:
74,178,114886,1,4,3:1:0:0:
342,134,115198,5,4,3:1:0:0:
54,266,115355,1,4,3:1:0:0:
346,138,115667,5,4,3:1:0:0:
38,350,115823,1,4,3:1:0:0:
