osu file format v14

[General]
AudioFilename: pochi.mp3
AudioLeadIn: 0
PreviewTime: 42225
Countdown: 0
SampleSet: Soft
StackLeniency: 0.7
Mode: 3
LetterboxInBreaks: 0
SpecialStyle: 0
WidescreenStoryboard: 1

[Editor]
DistanceSpacing: 1
BeatDivisor: 4
GridSize: 4
TimelineZoom: 1.400002

[Metadata]
Title:Pochiko no Shiawase na Nichijou
TitleUnicode:ポチコの幸せな日常
Artist:NU-KO
ArtistUnicode:NU-KO
Creator:RuberusuScarlet
Version:Normal
Source:pop'n music Sunny Park
Tags:pon jubeat REFLEC BEAT kyousuke-
BeatmapID:659612
BeatmapSetID:293130

[Difficulty]
HPDrainRate:7
CircleSize:4
OverallDifficulty:7
ApproachRate:5
SliderMultiplier:1.4
SliderTickRate:1

[Events]
//Background and Video events
0,0,"46219593_p0.jpg",0,0
//Break Periods
//Storyboard Layer 0 (Background)
//Storyboard Layer 1 (Fail)
//Storyboard Layer 2 (Pass)
//Storyboard Layer 3 (Foreground)
//Storyboard Sound Samples

[TimingPoints]
350,312.5,4,2,1,40,1,0
43162,-100,4,2,1,40,0,1
55350,-100,4,2,1,40,0,0
84725,-100,4,2,1,20,0,0
93475,-100,4,2,1,40,0,0
94100,-100,4,2,1,40,0,1
107850,-100,4,2,1,40,0,0

[HitObjects]
64,192,350,5,4,0:0:0:0:
448,192,350,1,8,0:0:0:0:
320,192,662,1,8,0:0:0:0:
64,192,975,1,8,0:0:0:0:
192,192,1287,1,8,0:0:0:0:
64,192,1600,1,4,0:0:0:0:
448,192,1600,1,8,0:0:0:0:
320,192,1756,1,0,0:0:0:0:
192,192,1912,1,0,0:0:0:0:
320,192,2068,1,0,0:0:0:0:
448,192,2225,1,0,0:0:0:0:
320,192,2381,1,0,0:0:0:0:
64,192,2693,1,4,0:0:0:0:
320,192,2693,1,0,0:0:0:0:
192,192,3162,1,8,0:0:0:0:
320,192,3162,1,0,0:0:0:0:
448,192,3475,1,12,0:0:0:0:
448,192,3631,1,12,0:0:0:0:
64,192,3943,1,8,0:0:0:0:
320,192,3943,1,4,0:0:0:0:
448,192,4256,1,2,0:0:0:0:
64,192,4412,1,2,0:0:0:0:
448,192,4568,1,2,0:0:0:0:
64,192,4725,1,12,0:0:0:0:
192,192,4881,1,12,0:0:0:0:
320,192,5037,1,12,0:0:0:0:
448,192,5193,1,12,0:0:0:0:
64,192,5350,1,8,0:0:0:0:
320,192,5350,1,4,0:0:0:0:
192,192,5662,1,8,0:0:0:0:
448,192,5662,1,2,0:0:0:0:
64,192,5975,1,8,0:0:0:0:
320,192,5975,1,2,0:0:0:0:
192,192,6131,1,2,0:0:0:0:
448,192,6287,1,0,0:0:0:0:
320,192,6365,1,0,0:0:0:0:
192,192,6443,1,0,0:0:0:0:
64,192,6600,1,12,0:0:0:0:
192,192,6756,1,12,0:0:0:0:
320,192,6912,1,12,0:0:0:0:
192,192,7068,128,12,7693:0:0:0:0:
64,192,7850,1,8,0:0:0:0:
448,192,7850,1,4,0:0:0:0:
320,192,8475,1,0,0:0:0:0:
448,192,9100,128,0,9568:0:0:0:0:
192,192,9100,1,0,0:0:0:0:
320,192,9568,128,0,10037:0:0:0:0:
64,192,9725,1,0,0:0:0:0:
192,192,10037,128,0,10193:0:0:0:0:
64,192,10193,128,0,11600:0:0:0:0:
448,192,10350,1,0,0:0:0:0:
320,192,10975,1,0,0:0:0:0:
320,192,11600,128,0,12225:0:0:0:0:
448,192,11600,1,0,0:0:0:0:
64,192,12225,1,8,0:0:0:0:
192,192,12537,1,8,0:0:0:0:
64,192,12850,1,4,0:0:0:0:
320,192,12850,1,8,0:0:0:0:
448,192,13162,1,8,0:0:0:0:
192,192,13475,1,8,0:0:0:0:
320,192,13787,1,8,0:0:0:0:
448,192,14100,1,8,0:0:0:0:
192,192,14100,1,4,0:0:0:0:
64,192,14412,1,8,0:0:0:0:
192,192,14725,1,8,0:0:0:0:
320,192,15037,1,8,0:0:0:0:
64,192,15350,1,4,0:0:0:0:
448,192,15350,1,8,0:0:0:0:
192,192,15662,1,8,0:0:0:0:
448,192,15975,1,8,0:0:0:0:
320,192,16287,1,8,0:0:0:0:
64,192,16600,1,12,0:0:0:0:
192,192,16756,1,12,0:0:0:0:
320,192,16912,1,12,0:0:0:0:
448,192,17068,1,12,0:0:0:0:
192,192,17381,1,12,0:0:0:0:
320,192,17537,1,12,0:0:0:0:
64,192,17850,1,4,0:0:0:0:
448,192,17850,1,8,0:0:0:0:
320,192,18162,1,8,0:0:0:0:
64,192,18475,1,8,0:0:0:0:
320,192,18787,1,8,0:0:0:0:
64,192,18943,1,0,0:0:0:0:
320,192,19256,1,0,0:0:0:0:
448,192,19412,1,0,0:0:0:0:
192,192,19568,1,0,0:0:0:0:
64,192,19725,1,0,0:0:0:0:
320,192,19881,1,0,0:0:0:0:
448,192,20037,1,0,0:0:0:0:
320,192,20350,1,8,0:0:0:0:
192,192,20662,1,8,0:0:0:0:
64,192,20975,1,8,0:0:0:0:
448,192,21287,1,8,0:0:0:0:
192,192,21600,1,8,0:0:0:0:
320,192,21756,1,12,0:0:0:0:
448,192,21912,1,12,0:0:0:0:
64,192,22225,1,12,0:0:0:0:
192,192,22381,1,12,0:0:0:0:
320,192,22537,1,12,0:0:0:0:
448,192,22850,1,4,0:0:0:0:
192,192,22850,1,8,0:0:0:0:
320,192,23162,1,8,0:0:0:0:
64,192,23475,1,8,0:0:0:0:
320,192,23787,1,8,0:0:0:0:
192,192,24100,1,8,0:0:0:0:
448,192,24412,1,8,0:0:0:0:
64,192,24725,1,8,0:0:0:0:
320,192,25037,1,8,0:0:0:0:
192,192,25350,1,8,0:0:0:0:
448,192,25506,1,2,0:0:0:0:
192,192,25662,1,8,0:0:0:0:
320,192,25818,1,2,0:0:0:0:
448,192,25975,1,8,0:0:0:0:
192,192,26131,1,2,0:0:0:0:
320,192,26287,1,8,0:0:0:0:
64,192,26600,1,8,0:0:0:0:
320,192,26756,1,4,0:0:0:0:
64,192,26912,1,12,0:0:0:0:
448,192,27225,1,8,0:0:0:0:
192,192,27381,1,4,0:0:0:0:
448,192,27537,1,12,0:0:0:0:
64,192,27850,1,8,0:0:0:0:
320,192,28006,1,4,0:0:0:0:
64,192,28162,1,12,0:0:0:0:
448,192,28475,1,8,0:0:0:0:
192,192,28787,1,8,0:0:0:0:
64,192,29100,128,4,30975:0:0:0:0:
320,192,29100,1,8,0:0:0:0:
448,192,29412,1,8,0:0:0:0:
192,192,29725,1,8,0:0:0:0:
320,192,30037,1,8,0:0:0:0:
192,192,30350,1,8,0:0:0:0:
448,192,30662,1,8,0:0:0:0:
448,192,30975,1,10,0:0:0:0:
192,192,31131,1,2,0:0:0:0:
320,192,31287,1,10,0:0:0:0:
64,192,31443,1,2,0:0:0:0:
448,192,31600,128,4,33475:0:0:0:0:
192,192,31600,1,8,0:0:0:0:
64,192,31912,1,8,0:0:0:0:
320,192,32225,1,8,0:0:0:0:
64,192,32537,1,8,0:0:0:0:
192,192,32850,1,8,0:0:0:0:
64,192,33162,1,8,0:0:0:0:
64,192,33475,1,10,0:0:0:0:
320,192,33631,1,2,0:0:0:0:
192,192,33787,1,10,0:0:0:0:
448,192,33943,1,2,0:0:0:0:
192,192,34100,128,4,35975:0:0:0:0:
320,192,34100,1,8,0:0:0:0:
448,192,34412,1,8,0:0:0:0:
320,192,34725,1,8,0:0:0:0:
64,192,35037,1,8,0:0:0:0:
320,192,35350,1,8,0:0:0:0:
448,192,35662,1,8,0:0:0:0:
448,192,35975,1,10,0:0:0:0:
320,192,36131,1,2,0:0:0:0:
64,192,36287,1,10,0:0:0:0:
192,192,36443,1,2,0:0:0:0:
448,192,36600,128,0,37225:0:0:0:0:
192,192,37225,128,0,37850:0:0:0:0:
320,192,37537,128,0,37850:0:0:0:0:
448,192,37850,1,8,0:0:0:0:
64,192,37850,1,4,0:0:0:0:
320,192,38162,1,8,0:0:0:0:
64,192,38475,1,8,0:0:0:0:
192,192,38787,1,8,0:0:0:0:
448,192,39100,1,8,0:0:0:0:
64,192,39412,1,8,0:0:0:0:
192,192,39725,1,8,0:0:0:0:
320,192,40037,1,8,0:0:0:0:
192,192,40350,1,4,0:0:0:0:
448,192,40350,1,8,0:0:0:0:
320,192,40662,1,8,0:0:0:0:
64,192,40662,1,0,0:0:0:0:
320,192,40975,1,8,0:0:0:0:
192,192,40975,1,0,0:0:0:0:
192,192,41287,1,0,0:0:0:0:
448,192,41287,1,8,0:0:0:0:
64,192,41600,1,12,0:0:0:0:
192,192,41756,1,12,0:0:0:0:
320,192,41912,1,12,0:0:0:0:
448,192,42225,1,8,0:0:0:0:
320,192,42381,1,8,0:0:0:0:
64,192,42537,1,8,0:0:0:0:
192,192,42693,128,8,43006:0:0:0:0:
448,192,43006,1,8,0:0:0:0:
64,192,43162,1,4,0:0:0:0:
320,192,43162,1,8,0:0:0:0:
448,192,43475,1,8,0:0:0:0:
64,192,43787,1,8,0:0:0:0:
192,192,44100,1,4,0:0:0:0:
448,192,44100,1,8,0:0:0:0:
320,192,44412,1,8,0:0:0:0:
64,192,44725,1,8,0:0:0:0:
192,192,45037,1,8,0:0:0:0:
64,192,45350,1,8,0:0:0:0:
448,192,45350,1,4,0:0:0:0:
320,192,45662,1,8,0:0:0:0:
64,192,45975,1,8,0:0:0:0:
448,192,46287,1,8,0:0:0:0:
64,192,46443,1,4,0:0:0:0:
320,192,46443,1,8,0:0:0:0:
192,192,46756,1,4,0:0:0:0:
448,192,46756,1,8,0:0:0:0:
320,192,47068,1,8,0:0:0:0:
192,192,47068,1,4,0:0:0:0:
64,192,47381,1,4,0:0:0:0:
320,192,47381,1,8,0:0:0:0:
64,192,47693,1,8,0:0:0:0:
448,192,47693,1,4,0:0:0:0:
64,192,48006,1,8,0:0:0:0:
192,192,48162,1,8,0:0:0:0:
448,192,48162,1,4,0:0:0:0:
320,192,48475,1,8,0:0:0:0:
64,192,48787,1,8,0:0:0:0:
448,192,49100,1,4,0:0:0:0:
320,192,49100,1,8,0:0:0:0:
192,192,49412,1,8,0:0:0:0:
64,192,49725,1,8,0:0:0:0:
320,192,50037,1,8,0:0:0:0:
64,192,50350,1,8,0:0:0:0:
448,192,50350,1,4,0:0:0:0:
320,192,50662,1,8,0:0:0:0:
192,192,50975,1,8,0:0:0:0:
320,192,51287,1,8,0:0:0:0:
64,192,51600,1,8,0:0:0:0:
448,192,51600,1,4,0:0:0:0:
320,192,51912,1,8,0:0:0:0:
64,192,52225,1,8,0:0:0:0:
320,192,52537,1,8,0:0:0:0:
448,192,52850,1,8,0:0:0:0:
192,192,52850,1,4,0:0:0:0:
448,192,53006,1,8,0:0:0:0:
192,192,53006,1,4,0:0:0:0:
64,192,53475,1,8,0:0:0:0:
320,192,53475,1,4,0:0:0:0:
64,192,53631,1,8,0:0:0:0:
320,192,53631,1,4,0:0:0:0:
448,192,54100,128,0,54412:0:0:0:0:
64,192,54412,1,0,0:0:0:0:
192,192,54568,128,0,55193:0:0:0:0:
64,192,55350,1,4,0:0:0:0:
448,192,55350,1,8,0:0:0:0:
192,192,55662,1,8,0:0:0:0:
448,192,55975,1,8,0:0:0:0:
192,192,56287,1,8,0:0:0:0:
448,192,56600,1,4,0:0:0:0:
64,192,56600,1,8,0:0:0:0:
320,192,56756,1,0,0:0:0:0:
192,192,56912,1,0,0:0:0:0:
64,192,57068,1,0,0:0:0:0:
320,192,57225,1,0,0:0:0:0:
192,192,57381,1,0,0:0:0:0:
320,192,57693,1,8,0:0:0:0:
448,192,57693,1,4,0:0:0:0:
192,192,58006,1,8,0:0:0:0:
448,192,58162,1,8,0:0:0:0:
192,192,58475,1,12,0:0:0:0:
64,192,58631,1,12,0:0:0:0:
320,192,58787,1,8,0:0:0:0:
64,192,58943,1,4,0:0:0:0:
448,192,58943,1,8,0:0:0:0:
320,192,59256,1,2,0:0:0:0:
320,192,59412,1,2,0:0:0:0:
320,192,59568,1,2,0:0:0:0:
64,192,59725,1,12,0:0:0:0:
192,192,59881,1,12,0:0:0:0:
320,192,60037,1,12,0:0:0:0:
448,192,60193,1,12,0:0:0:0:
64,192,60350,1,4,0:0:0:0:
320,192,60350,1,8,0:0:0:0:
192,192,60662,1,2,0:0:0:0:
448,192,60662,1,8,0:0:0:0:
64,192,60975,1,10,0:0:0:0:
320,192,61131,1,2,0:0:0:0:
64,192,61287,1,0,0:0:0:0:
192,192,61365,1,0,0:0:0:0:
320,192,61443,1,2,0:0:0:0:
448,192,61600,1,12,0:0:0:0:
320,192,61756,1,12,0:0:0:0:
192,192,61912,1,12,0:0:0:0:
320,192,62068,128,12,62693:0:0:0:0:
64,192,62850,1,8,0:0:0:0:
448,192,62850,1,4,0:0:0:0:
192,192,63943,1,2,0:0:0:0:
448,192,64881,1,2,0:0:0:0:
64,192,65193,1,2,0:0:0:0:
192,192,65271,1,2,0:0:0:0:
320,192,65350,1,8,0:0:0:0:
320,192,66443,1,8,0:0:0:0:
320,192,67225,1,2,0:0:0:0:
320,192,67459,1,2,0:0:0:0:
320,192,67693,1,2,0:0:0:0:
64,192,67850,1,4,0:0:0:0:
448,192,67850,1,8,0:0:0:0:
192,192,68318,1,2,0:0:0:0:
192,192,69725,1,2,0:0:0:0:
192,192,69959,1,2,0:0:0:0:
192,192,70193,1,2,0:0:0:0:
64,192,70350,1,8,0:0:0:0:
448,192,70350,1,4,0:0:0:0:
320,192,70506,1,2,0:0:0:0:
192,192,70662,1,2,0:0:0:0:
64,192,70818,1,2,0:0:0:0:
448,192,70975,1,4,0:0:0:0:
320,192,71131,1,2,0:0:0:0:
64,192,71287,1,2,0:0:0:0:
192,192,71443,1,2,0:0:0:0:
448,192,71600,1,4,0:0:0:0:
320,192,71756,1,2,0:0:0:0:
64,192,71912,1,6,0:0:0:0:
192,192,72068,1,2,0:0:0:0:
448,192,72225,1,12,0:0:0:0:
192,192,72381,1,8,0:0:0:0:
320,192,72537,1,12,0:0:0:0:
448,192,72693,1,12,0:0:0:0:
64,192,73162,1,8,0:0:0:0:
320,192,73475,1,8,0:0:0:0:
64,192,73787,1,8,0:0:0:0:
448,192,74100,1,8,0:0:0:0:
192,192,74412,1,8,0:0:0:0:
320,192,74725,1,8,0:0:0:0:
64,192,75037,1,8,0:0:0:0:
448,192,75193,1,4,0:0:0:0:
192,192,75193,1,8,0:0:0:0:
320,192,75506,1,8,0:0:0:0:
64,192,75662,1,8,0:0:0:0:
192,192,75975,1,8,0:0:0:0:
448,192,76287,1,8,0:0:0:0:
320,192,76600,1,8,0:0:0:0:
64,192,76912,1,8,0:0:0:0:
448,192,77225,1,8,0:0:0:0:
320,192,77381,1,2,0:0:0:0:
192,192,77537,1,10,0:0:0:0:
448,192,77693,1,2,0:0:0:0:
64,192,77850,1,4,0:0:0:0:
320,192,77850,1,8,0:0:0:0:
192,192,78162,1,8,0:0:0:0:
448,192,78475,1,8,0:0:0:0:
64,192,78787,1,8,0:0:0:0:
192,192,79100,1,8,0:0:0:0:
64,192,79412,1,8,0:0:0:0:
448,192,79725,1,8,0:0:0:0:
192,192,80037,1,8,0:0:0:0:
320,192,80350,1,4,0:0:0:0:
64,192,80350,1,8,0:0:0:0:
192,192,80662,1,8,0:0:0:0:
448,192,80975,1,8,0:0:0:0:
64,192,81287,1,8,0:0:0:0:
192,192,81600,1,8,0:0:0:0:
448,192,81600,1,4,0:0:0:0:
320,192,81912,1,8,0:0:0:0:
64,192,82225,1,8,0:0:0:0:
448,192,82537,1,8,0:0:0:0:
192,192,82850,1,4,0:0:0:0:
320,192,82850,1,8,0:0:0:0:
64,192,83162,1,4,0:0:0:0:
320,192,83162,1,8,0:0:0:0:
192,192,83475,1,4,0:0:0:0:
448,192,83475,1,8,0:0:0:0:
64,192,83787,1,4,0:0:0:0:
448,192,83787,1,8,0:0:0:0:
192,192,84100,1,12,0:0:0:0:
320,192,84256,1,12,0:0:0:0:
192,192,84412,1,12,0:0:0:0:
320,192,84725,128,0,85662:0:0:0:0:
192,192,85662,1,4,0:0:0:0:
448,192,85662,1,8,0:0:0:0:
64,192,85975,1,4,0:0:0:0:
320,192,85975,1,8,0:0:0:0:
192,192,86287,1,0,0:0:0:0:
320,192,86600,1,8,0:0:0:0:
64,192,86912,1,0,0:0:0:0:
448,192,87225,1,8,0:0:0:0:
320,192,87537,1,0,0:0:0:0:
64,192,87850,1,8,0:0:0:0:
320,192,88162,1,0,0:0:0:0:
192,192,88475,1,8,0:0:0:0:
448,192,88787,1,0,0:0:0:0:
64,192,89100,1,8,0:0:0:0:
192,192,89412,1,0,0:0:0:0:
320,192,89725,128,10,90350:0:0:0:0:
64,192,90350,1,4,0:0:0:0:
448,192,90350,1,8,0:0:0:0:
192,192,90662,1,0,0:0:0:0:
448,192,90975,1,8,0:0:0:0:
64,192,91287,1,0,0:0:0:0:
192,192,91600,1,8,0:0:0:0:
320,192,91912,1,0,0:0:0:0:
64,192,92225,1,8,0:0:0:0:
448,192,92537,1,0,0:0:0:0:
64,192,92850,1,8,0:0:0:0:
320,192,92850,1,4,0:0:0:0:
192,192,93475,128,8,94100:0:0:0:0:
64,192,94100,1,4,0:0:0:0:
448,192,94100,1,8,0:0:0:0:
192,192,94412,1,8,0:0:0:0:
320,192,94725,1,8,0:0:0:0:
448,192,95037,1,8,0:0:0:0:
320,192,95350,1,8,0:0:0:0:
64,192,95350,1,4,0:0:0:0:
192,192,95662,1,8,0:0:0:0:
448,192,95975,1,8,0:0:0:0:
320,192,96287,1,8,0:0:0:0:
192,192,96600,1,8,0:0:0:0:
448,192,96600,1,4,0:0:0:0:
64,192,96912,1,8,0:0:0:0:
320,192,97225,1,8,0:0:0:0:
192,192,97381,1,0,0:0:0:0:
448,192,97537,1,8,0:0:0:0:
320,192,97693,1,8,0:0:0:0:
64,192,97693,1,0,0:0:0:0:
192,192,98006,1,4,0:0:0:0:
448,192,98006,1,8,0:0:0:0:
192,192,98318,1,4,0:0:0:0:
320,192,98318,1,8,0:0:0:0:
64,192,98631,1,4,0:0:0:0:
448,192,98631,1,8,0:0:0:0:
64,192,98943,1,4,0:0:0:0:
320,192,98943,1,8,0:0:0:0:
192,192,99256,1,8,0:0:0:0:
64,192,99412,1,8,0:0:0:0:
448,192,99412,1,4,0:0:0:0:
320,192,99725,1,8,0:0:0:0:
64,192,100037,1,8,0:0:0:0:
448,192,100350,1,4,0:0:0:0:
192,192,100350,1,8,0:0:0:0:
320,192,100662,1,8,0:0:0:0:
64,192,100975,1,8,0:0:0:0:
448,192,101287,1,8,0:0:0:0:
64,192,101443,1,4,0:0:0:0:
320,192,101443,1,8,0:0:0:0:
320,192,101912,1,8,0:0:0:0:
192,192,102225,1,8,0:0:0:0:
320,192,102537,1,8,0:0:0:0:
64,192,102693,1,4,0:0:0:0:
192,192,102693,1,8,0:0:0:0:
320,192,103162,1,8,0:0:0:0:
64,192,103475,1,8,0:0:0:0:
448,192,103787,1,8,0:0:0:0:
192,192,103943,1,4,0:0:0:0:
320,192,103943,1,8,0:0:0:0:
64,192,104412,1,8,0:0:0:0:
448,192,104725,1,8,0:0:0:0:
192,192,105037,1,8,0:0:0:0:
64,192,105350,1,4,0:0:0:0:
320,192,105350,1,8,0:0:0:0:
192,192,105506,1,2,0:0:0:0:
448,192,105662,1,10,0:0:0:0:
320,192,105818,1,2,0:0:0:0:
64,192,105975,1,10,0:0:0:0:
192,192,106131,1,2,0:0:0:0:
320,192,106287,1,10,0:0:0:0:
448,192,106443,1,2,0:0:0:0:
320,192,106600,1,10,0:0:0:0:
192,192,106756,1,8,0:0:0:0:
448,192,106912,1,8,0:0:0:0:
64,192,107068,1,10,0:0:0:0:
320,192,107225,1,8,0:0:0:0:
64,192,107381,1,8,0:0:0:0:
320,192,107537,1,2,0:0:0:0:
192,192,107693,1,8,0:0:0:0:
64,192,107850,1,8,0:0:0:0:
448,192,107850,1,4,0:0:0:0:
320,192,108162,1,8,0:0:0:0:
64,192,108475,1,8,0:0:0:0:
192,192,108787,1,8,0:0:0:0:
64,192,109100,1,8,0:0:0:0:
448,192,109100,1,4,0:0:0:0:
320,192,109256,1,0,0:0:0:0:
192,192,109412,1,0,0:0:0:0:
64,192,109568,1,0,0:0:0:0:
192,192,109725,1,0,0:0:0:0:
320,192,109881,1,0,0:0:0:0:
192,192,110037,1,8,0:0:0:0:
320,192,110193,1,4,0:0:0:0:
448,192,110193,1,8,0:0:0:0:
192,192,110506,1,0,0:0:0:0:
64,192,110662,1,0,0:0:0:0:
320,192,110818,1,0,0:0:0:0:
192,192,110975,1,0,0:0:0:0:
448,192,111131,1,0,0:0:0:0:
64,192,111443,1,8,0:0:0:0:
320,192,111443,1,4,0:0:0:0:
192,192,111756,1,0,0:0:0:0:
448,192,111912,1,0,0:0:0:0:
192,192,112068,1,0,0:0:0:0:
64,192,112225,1,0,0:0:0:0:
192,192,112381,1,0,0:0:0:0:
64,192,112693,1,8,0:0:0:0:
448,192,112693,1,4,0:0:0:0:
320,192,113006,1,0,0:0:0:0:
192,192,113162,1,0,0:0:0:0:
448,192,113318,1,0,0:0:0:0:
320,192,113475,1,0,0:0:0:0:
192,192,113631,1,0,0:0:0:0:
448,192,113787,1,0,0:0:0:0:
320,192,113943,1,4,0:0:0:0:
64,192,113943,1,8,0:0:0:0:
448,192,114256,1,12,0:0:0:0:
448,192,114412,1,12,0:0:0:0:
192,192,114725,1,12,0:0:0:0:
192,192,114881,1,12,0:0:0:0:
320,192,115193,1,12,0:0:0:0:
320,192,115350,1,12,0:0:0:0:
64,192,115662,1,12,0:0:0:0:
64,192,115818,1,12,0:0:0:0:
