osu file format v12

[General]
AudioFilename: pochiko.mp3
AudioLeadIn: 0
PreviewTime: 42225
Countdown: 0
SampleSet: Soft
StackLeniency: 0.7
Mode: 0
LetterboxInBreaks: 1
WidescreenStoryboard: 1

[Editor]
Bookmarks: 350,7850,17850,29100,37850,42693,55350,62850,72693,77850,85350,94100
DistanceSpacing: 1.2
BeatDivisor: 4
GridSize: 4
TimelineZoom: 1.8

[Metadata]
Title:Pochiko no Shiawase na Nichijou
TitleUnicode:ポチコの幸せな日常
Artist:NU-KO
ArtistUnicode:NU-KO
Creator:MineC24
Version:EX
Source:pop'n music Sunny Park
Tags:PON
BeatmapID:432092
BeatmapSetID:179753

[Difficulty]
HPDrainRate:7
CircleSize:4
OverallDifficulty:7
ApproachRate:9
SliderMultiplier:1.7
SliderTickRate:2

[Events]
//Background and Video events
//Break Periods
//Storyboard Layer 0 (Background)
//Storyboard Layer 1 (Fail)
//Storyboard Layer 2 (Pass)
//Storyboard Layer 3 (Foreground)
//Storyboard Sound Samples
//Background Colour Transformations
3,100,193,255,255

[TimingPoints]
350,312.5,4,2,1,60,1,0
2771,-100,4,2,2,60,0,0
2928,-100,4,2,1,60,0,0
4256,-100,4,1,1,60,0,0
7850,-100,4,2,1,25,0,0
7928,-100,4,2,1,50,0,0
9256,-100,4,2,1,5,0,0
9334,-100,4,2,1,50,0,0
12225,-100,4,2,1,60,0,0
16600,-66.6666666666667,4,2,1,60,0,0
17850,-100,4,2,1,60,0,0
19100,-100,4,2,2,60,0,0
19178,-100,4,2,1,60,0,0
21600,-100,4,2,2,60,0,0
21678,-100,4,2,1,60,0,0
26756,-100,4,2,1,40,0,0
28475,-100,4,2,1,60,0,0
28787,-50,4,2,1,60,0,0
29100,-100,4,2,1,60,0,0
30975,-66.6666666666667,4,2,1,40,0,0
31600,-100,4,2,1,60,0,0
33475,-50,4,2,1,60,0,0
34100,-100,4,2,1,60,0,0
35975,-66.6666666666667,4,2,1,60,0,0
36600,-100,4,2,1,5,0,0
37537,-100,4,2,1,60,0,0
41600,-100,4,1,1,75,0,0
42225,-100,4,1,1,50,0,0
43631,-100,4,2,1,65,0,0
45350,-100,4,2,2,65,0,0
45428,-100,4,2,1,65,0,0
46443,-100,4,1,1,70,0,0
47693,-100,4,1,1,50,0,0
48631,-100,4,2,1,65,0,0
50350,-100,4,2,2,65,0,0
50428,-100,4,2,1,65,0,0
52850,-100,4,1,1,50,0,0
55350,-100,4,2,1,65,0,0
59256,-100,4,1,1,60,0,0
62850,-100,4,2,1,60,0,1
72693,-100,4,2,1,60,0,0
73787,-100,4,2,2,60,0,0
73865,-100,4,2,1,60,0,0
84100,-100,4,2,1,75,0,0
84725,-100,4,2,1,55,0,0
85193,-133.333333333333,4,2,1,40,0,0
86600,-133.333333333333,4,2,2,40,0,0
86678,-133.333333333333,4,2,1,40,0,0
87850,-133.333333333333,4,2,2,40,0,0
87928,-133.333333333333,4,2,1,40,0,0
89100,-133.333333333333,4,2,2,40,0,0
89178,-133.333333333333,4,2,1,40,0,0
89725,-133.333333333333,4,1,1,40,0,0
90271,-133.333333333333,4,2,1,40,0,0
90350,-133.333333333333,4,2,2,40,0,0
90428,-133.333333333333,4,2,1,40,0,0
91600,-133.333333333333,4,2,2,40,0,0
91678,-133.333333333333,4,2,1,40,0,0
92225,-133.333333333333,4,2,2,40,0,0
92303,-133.333333333333,4,2,1,40,0,0
92850,-133.333333333333,4,2,2,40,0,0
92928,-133.333333333333,4,2,1,40,0,0
93475,-100,4,1,1,60,0,0
94100,-100,4,2,1,65,0,0
94412,-100,4,1,1,60,0,0

[Colours]
Combo1 : 255,0,0
Combo2 : 240,185,81
Combo3 : 255,128,192

[HitObjects]
64,112,350,6,0,P|104:100|176:144,1,127.5,0|0,1:0|0:0,0:0:0:0:
168,176,662,2,0,P|208:188|260:124,1,127.5,0|0,1:0|0:0,0:0:0:0:
256,96,975,2,0,P|292:72|336:76,1,85,0|0,1:0|0:0,0:0:0:0:
364,88,1209,1,0,0:0:0:0:
380,120,1287,2,0,P|421:121|456:98,1,85,0|0,1:0|0:0,0:0:0:0:
456,228,1600,5,0,1:0:0:0:
440,236,1678,1,0,0:0:0:0:
424,240,1756,1,0,0:0:0:0:
408,240,1834,1,0,0:0:0:0:
392,236,1912,2,0,P|348:248|316:276,1,85,0|0,1:0|0:0,0:0:0:0:
320,360,2225,1,0,1:0:0:0:
288,352,2303,1,0,0:0:0:0:
260,336,2381,1,0,0:0:0:0:
240,308,2459,1,0,0:0:0:0:
232,276,2537,1,0,1:0:0:0:
296,80,2693,22,0,P|252:72|200:168,1,170
272,216,3084,2,0,L|288:172,1,42.5,0|0,0:0|1:0,0:0:0:0:
404,172,3318,1,0,0:0:0:0:
296,80,3475,2,0,B|244:84|264:96|208:100,1,85,0|0,1:0|1:0,0:0:0:0:
272,216,3787,2,0,B|324:220|304:232|360:236,1,85,0|0,1:0|1:0,0:0:0:0:
354,235,4256,5,0,0:0:0:0:
354,235,4412,1,0,0:0:0:0:
354,235,4568,1,0,0:0:0:0:
354,235,4725,2,0,P|344:276|312:304,1,85,0|0,0:0|0:0,0:0:0:0:
320,148,5037,2,0,P|330:107|362:79,1,85,0|0,0:0|0:0,0:0:0:0:
396,152,5350,21,0,0:0:0:0:
116,232,5662,1,0,0:0:0:0:
92,92,5975,2,0,P|51:96|24:128,2,85
100,172,6365,2,0,P|124:166|145:154,1,42.5
216,52,6600,5,0,0:0:0:0:
312,152,6756,1,0,0:0:0:0:
200,232,6912,1,0,0:0:0:0:
296,332,7068,1,0,0:0:0:0:
296,332,7850,22,0,P|316:344|380:344,2,85,0|0|0,1:0|0:0|0:0,0:0:0:0:
232,352,8318,1,0,0:0:0:0:
176,312,8475,2,0,P|152:312|97:280,2,85,0|0|0,0:0|0:0|0:0,0:0:0:0:
232,352,8943,1,0,0:0:0:0:
263,199,9100,2,0,P|188:231|176:312,1,170
175,311,9568,1,0,0:0:0:0:
175,311,9725,1,0,0:0:0:0:
116,188,10037,2,0,P|104:228|72:260,1,85
80,104,10350,6,0,P|92:64|124:32,1,85
176,76,10662,2,0,P|216:86|257:76,1,85
320,108,10975,2,0,P|349:138|361:178,2,85
344,44,11443,22,0,P|408:96|432:180,1,170,0|0,0:0|0:0,0:0:0:0:
324,252,11912,2,0,P|294:221|282:181,1,85
188,108,12225,2,0,P|164:108|144:116,3,42.5,0|0|0|0,1:0|0:0|0:0|0:0,0:0:0:0:
152,148,12537,1,0,1:0:0:0:
159,183,12616,1,0,0:0:0:0:
154,214,12694,1,0,0:0:0:0:
138,243,12772,1,0,0:0:0:0:
112,265,12850,6,0,L|136:352,1,85,0|0,1:0|0:0,0:0:0:0:
244,344,13162,1,0,1:0:0:0:
243,235,13318,2,0,P|281:252|324:252,1,85,0|0,0:0|1:0,0:0:0:0:
452,128,13631,2,0,P|413:110|371:111,1,85,0|0,0:0|1:0,0:0:0:0:
324,252,13943,2,0,L|268:240,1,42.5
172,190,14100,22,0,P|198:158|240:152,1,85,0|0,1:0|0:0,0:0:0:0:
315,149,14412,2,0,P|330:110|316:72,1,85,0|0,1:0|0:0,0:0:0:0:
346,255,14725,2,0,P|304:248|278:215,1,85,0|0,1:0|0:0,0:0:0:0:
448,256,15037,1,0,1:0:0:0:
436,340,15193,1,0,0:0:0:0:
352,356,15350,6,0,L|268:368,1,85,0|0,1:0|0:0,0:0:0:0:
128,268,15662,2,0,L|212:280,1,85,0|0,1:0|0:0,0:0:0:0:
352,356,15975,1,0,1:0:0:0:
396,180,16131,1,0,0:0:0:0:
221,229,16287,2,0,P|200:228|144:256,1,85,0|0,1:0|0:0,0:0:0:0:
410,238,16600,6,0,B|394:190|394:190|398:158|398:158|384:116,1,127.500004863739,0|0,1:0|1:0,0:0:0:0:
101,145,16912,2,0,B|117:193|117:193|113:225|113:225|128:268,1,127.500004863739,0|0,1:0|1:0,0:0:0:0:
164,272,17381,1,0,1:0:0:0:
348,112,17537,1,0,1:0:0:0:
192,48,17850,6,0,P|168:40|112:60,1,85,0|0,1:0|0:0,0:0:0:0:
72,212,18162,2,0,P|96:220|152:200,1,85,0|0,1:0|0:0,0:0:0:0:
164,116,18475,1,0,1:0:0:0:
216,256,18631,1,0,0:0:0:0:
228,172,18787,1,0,1:0:0:0:
294,224,18943,6,0,P|300:276|192:344,1,170
184,344,19334,1,0,0:0:0:0:
152,328,19412,1,0,1:0:0:0:
132,304,19490,1,0,0:0:0:0:
120,272,19568,1,0,0:0:0:0:
116,240,19646,1,0,0:0:0:0:
168,188,19725,2,0,P|152:172|128:168,1,42.5,0|0,1:0|0:0,0:0:0:0:
48,204,19881,2,0,P|40:160|56:120,2,85,0|0|0,0:0|1:0|0:0,0:0:0:0:
120,64,20350,22,0,P|160:44|203:49,1,85,0|0,1:0|0:0,0:0:0:0:
320,168,20662,2,0,P|279:187|236:182,1,85,0|0,1:0|0:0,0:0:0:0:
208,244,20975,1,0,1:0:0:0:
224,312,21131,1,0,0:0:0:0:
280,352,21287,1,0,1:0:0:0:
349,344,21443,6,0,P|298:283|224:312,1,170
168,104,21912,1,0,1:0:0:0:
375,159,22068,1,0,0:0:0:0:
196,180,22225,2,0,P|232:156|247:117,1,85,0|0,1:0|0:0,0:0:0:0:
140,28,22537,1,0,1:0:0:0:
120,36,22615,1,0,0:0:0:0:
104,50,22693,1,0,0:0:0:0:
94,69,22771,1,0,0:0:0:0:
89,89,22850,22,0,L|100:176,1,85,0|0,1:0|0:0,0:0:0:0:
196,180,23162,2,0,L|236:257,1,85,0|0,1:0|0:0,0:0:0:0:
412,280,23475,2,0,L|349:222,2,85,0|0|0,1:0|0:0|1:0,0:0:0:0:
344,80,23943,2,0,L|352:24,1,42.5
423,89,24100,6,0,L|412:176,1,85,0|0,1:0|0:0,0:0:0:0:
316,180,24412,2,0,L|275:257,1,85,0|0,1:0|0:0,0:0:0:0:
100,280,24725,2,0,L|162:222,2,85,0|0|0,1:0|0:0|1:0,0:0:0:0:
56,104,25193,2,0,L|44:64,1,42.5
128,76,25350,22,0,B|160:104|160:104|156:148,1,85,0|0,1:0|0:0,0:0:0:0:
264,232,25662,2,0,B|232:204|232:204|236:160,1,85,0|0,1:0|0:0,0:0:0:0:
272,28,25975,1,0,1:0:0:0:
272,28,26131,1,0,0:0:0:0:
272,28,26287,1,0,1:0:0:0:
416,120,26600,5,0,1:0:0:0:
376,228,26756,2,0,L|428:224,1,42.5,4|0,0:0|0:0,0:0:0:0:
371,221,26912,2,0,L|452:196,2,85,4|0|0,1:2|0:0|1:0,0:0:0:0:
272,288,27381,2,0,L|249:335,1,42.5,4|0,0:0|0:0,0:0:0:0:
280,288,27537,2,0,L|261:370,2,85,4|0|0,1:2|0:0|1:0,0:0:0:0:
272,167,28006,2,0,L|242:123,1,42.5,4|0,0:0|0:0,0:0:0:0:
268,174,28162,2,0,L|205:116,1,85,0|0,1:0|0:0,0:0:0:0:
205,116,28396,1,0,0:0:0:0:
120,92,28475,2,0,P|140:48|180:36,1,85,0|0,1:0|0:0,0:0:0:0:
284,88,28787,6,0,P|268:176|200:204,1,170,0|0,1:0|0:0,0:0:0:0:
156,276,29100,5,0,1:0:0:0:
168,288,29178,1,0,0:0:0:0:
184,296,29256,1,0,0:0:0:0:
200,300,29334,1,0,0:0:0:0:
216,300,29412,2,0,P|236:296|256:280,3,42.5,0|0|0|0,1:0|0:0|0:0|0:0,0:0:0:0:
212,216,29725,5,0,1:0:0:0:
216,199,29803,1,0,0:0:0:0:
226,184,29881,1,0,0:0:0:0:
238,173,29959,1,0,0:0:0:0:
251,165,30037,2,0,P|270:158|295:162,3,42.5,0|0|0|0,1:0|0:0|0:0|0:0,0:0:0:0:
364,192,30350,22,0,L|404:172,1,42.5,0|0,1:0|0:0,0:0:0:0:
372,164,30506,2,0,L|410:144,1,42.5
380,136,30662,2,0,L|418:116,1,42.5,0|0,1:0|0:0,0:0:0:0:
388,108,30818,2,0,L|426:88,1,42.5
396,80,30975,22,0,B|328:72|328:72|272:100,1,127.500004863739,4|0,1:1|0:0,0:0:0:0:
172,316,31287,2,0,B|240:324|240:324|296:296,1,127.500004863739,4|0,1:1|0:0,0:0:0:0:
216,224,31600,5,0,1:0:0:0:
200,216,31678,1,0,0:0:0:0:
184,212,31756,1,0,0:0:0:0:
168,212,31834,1,0,0:0:0:0:
152,216,31912,2,0,P|128:224|112:240,3,42.5,0|0|0|0,1:0|0:0|0:0|0:0,0:0:0:0:
64,176,32225,5,0,1:0:0:0:
78,166,32303,1,0,0:0:0:0:
90,154,32381,1,0,0:0:0:0:
98,140,32459,1,0,0:0:0:0:
102,124,32537,2,0,P|107:99|101:77,3,42.5,0|0|0|0,1:0|0:0|0:0|0:0,0:0:0:0:
181,68,32850,21,0,1:0:0:0:
183,85,32928,1,0,0:0:0:0:
187,101,33006,1,0,0:0:0:0:
195,115,33084,1,0,0:0:0:0:
207,127,33162,2,0,P|225:143|247:149,3,42.5,0|0|0|0,1:0|0:0|0:0|0:0,0:0:0:0:
260,152,33475,22,0,P|344:124|340:48,1,170
260,214,33787,2,0,P|317:160|284:88,1,170
260,278,34100,5,0,1:0:0:0:
272,288,34178,1,0,0:0:0:0:
288,296,34256,1,0,0:0:0:0:
304,300,34334,1,0,0:0:0:0:
320,300,34412,1,0,1:0:0:0:
336,296,34490,1,0,0:0:0:0:
352,288,34568,1,0,0:0:0:0:
364,276,34646,1,0,0:0:0:0:
452,284,34725,5,0,1:0:0:0:
453,268,34803,1,0,0:0:0:0:
452,250,34881,1,0,0:0:0:0:
448,234,34959,1,0,0:0:0:0:
440,221,35037,1,0,1:0:0:0:
429,209,35115,1,0,0:0:0:0:
414,199,35193,1,0,0:0:0:0:
397,194,35271,1,0,0:0:0:0:
360,116,35350,21,0,1:0:0:0:
345,121,35428,1,0,0:0:0:0:
330,131,35506,1,0,0:0:0:0:
318,143,35584,1,0,0:0:0:0:
310,156,35662,1,0,1:0:0:0:
306,172,35740,1,0,0:0:0:0:
305,190,35818,1,0,0:0:0:0:
309,207,35896,1,0,0:0:0:0:
364,276,35975,22,0,B|316:316|316:316|252:328,1,127.500004863739,0|0,1:0|0:0,0:0:0:0:
88,140,36287,2,0,B|136:100|136:100|200:88,1,127.500004863739,0|0,1:0|0:0,0:0:0:0:
256,192,36600,12,0,37537,1:0:0:0:
284,76,37850,6,0,L|368:84,1,85,0|0,1:0|0:0,0:0:0:0:
392,108,38084,1,0,0:0:0:0:
404,140,38162,1,0,1:0:0:0:
408,172,38240,1,0,0:0:0:0:
400,204,38318,1,0,0:0:0:0:
384,232,38396,1,0,0:0:0:0:
352,248,38475,2,0,L|268:240,1,85,0|0,1:0|0:0,0:0:0:0:
240,260,38709,1,0,0:0:0:0:
208,272,38787,1,0,1:0:0:0:
176,276,38865,1,0,0:0:0:0:
144,268,38943,1,0,0:0:0:0:
116,252,39021,1,0,0:0:0:0:
96,224,39100,6,0,L|84:184,3,42.5,0|0|0|0,1:0|0:0|0:0|0:0,0:0:0:0:
164,184,39412,2,0,L|152:144,3,42.5,0|0|0|0,1:0|0:0|0:0|0:0,0:0:0:0:
232,144,39725,2,0,L|220:104,3,42.5,0|0|0|0,1:0|0:0|0:0|0:0,0:0:0:0:
300,104,40037,2,0,L|288:64,3,42.5,0|0|0|0,1:0|0:0|0:0|0:0,0:0:0:0:
368,64,40350,22,0,L|412:72,1,42.5,0|0,1:0|0:0,0:0:0:0:
378,96,40506,2,0,L|420:104,1,42.5
386,128,40662,2,0,L|427:135,1,42.5,0|0,1:0|0:0,0:0:0:0:
398,160,40818,2,0,L|439:167,1,42.5
406,192,40974,2,0,L|447:199,1,42.5,0|0,1:0|0:0,0:0:0:0:
415,223,41131,2,0,L|456:230,1,42.5
427,255,41287,2,0,L|468:262,1,42.5,0|0,1:0|0:0,0:0:0:0:
435,287,41443,2,0,L|476:294,1,42.5
444,320,41600,5,0,0:0:0:0:
192,368,41756,1,0,0:0:0:0:
276,125,41912,1,0,0:0:0:0:
276,125,42225,1,0,0:0:0:0:
200,88,42381,1,0,0:0:0:0:
116,96,42537,1,0,0:0:0:0:
68,164,42693,22,0,P|56:212|124:304,1,170
156,312,43084,1,0,0:0:0:0:
188,312,43162,1,0,0:0:0:0:
220,304,43240,1,0,0:0:0:0:
248,288,43318,2,0,L|260:248,2,42.5
320,332,43631,1,0,0:0:0:0:
412,216,43787,2,0,P|448:240|464:280,1,85,0|0,1:0|0:0,0:0:0:0:
328,176,44100,6,0,P|350:140|389:124,1,85,0|0,1:0|0:0,0:0:0:0:
472,144,44412,1,0,1:0:0:0:
427,284,44568,1,0,0:0:0:0:
328,176,44725,1,0,1:0:0:0:
184,144,44881,1,0,0:0:0:0:
180,152,44959,1,0,0:0:0:0:
176,160,45037,1,0,1:0:0:0:
144,60,45193,22,0,P|228:48|272:116,1,170
240,273,45662,2,0,P|232:316|248:352,1,85,0|0,1:0|0:0,0:0:0:0:
392,308,45975,2,0,P|400:265|384:229,2,85,0|0|0,1:0|0:0|0:0,0:0:0:0:
356,116,46443,5,0,0:0:0:0:
130,194,46756,1,0,0:0:0:0:
359,263,47068,1,0,0:0:0:0:
214,73,47381,1,0,0:0:0:0:
219,312,47693,22,0,P|180:336|92:272,1,170
88,236,48084,1,0,0:0:0:0:
88,204,48162,1,0,0:0:0:0:
92,172,48240,1,0,0:0:0:0:
100,140,48318,2,0,L|116:100,2,42.5,0|0|0,0:0|0:0|0:0,0:0:0:0:
224,168,48631,1,0,0:0:0:0:
328,96,48787,2,0,P|368:84|412:96,1,85,0|0,1:0|0:0,0:0:0:0:
464,248,49100,6,0,P|424:260|380:248,2,85,0|0|0,1:0|0:0|1:0,0:0:0:0:
476,164,49568,1,0,0:0:0:0:
452,332,49725,2,0,B|416:356|416:356|372:360,1,85,0|0,1:0|0:0,0:0:0:0:
296,296,49959,2,0,L|356:288,1,42.5,0|0,0:0|1:0,0:0:0:0:
268,192,50193,22,0,P|204:144|136:192,1,170
203,214,50662,2,0,L|203:126,1,85,0|0,1:0|0:0,0:0:0:0:
352,56,50975,2,0,L|352:144,2,85,0|0|0,1:0|0:0|1:0,0:0:0:0:
352,56,51443,1,0,0:0:0:0:
160,44,51600,6,0,P|136:80|96:92,1,85,0|0,1:0|0:0,0:0:0:0:
68,172,51912,2,0,P|81:211|116:234,1,85,0|0,1:0|0:0,0:0:0:0:
252,247,52225,1,0,1:0:0:0:
148,157,52381,1,0,0:0:0:0:
179,290,52537,1,0,1:0:0:0:
233,164,52693,1,0,0:0:0:0:
400,196,52850,21,0,0:0:0:0:
400,196,53006,1,0,0:0:0:0:
343,35,53475,1,0,0:0:0:0:
343,35,53632,1,0,0:0:0:0:
292,284,54100,6,0,P|256:328|188:320,2,127.5
196,168,54725,2,0,P|232:124|300:132,1,127.5
264,188,55037,1,0,0:0:0:0:
240,224,55115,1,0,0:0:0:0:
200,240,55193,1,0,0:0:0:0:
160,232,55271,1,0,0:0:0:0:
128,200,55350,22,0,P|120:156|136:120,1,85,0|0,1:0|0:0,0:0:0:0:
164,100,55584,1,0,0:0:0:0:
196,92,55662,2,0,P|237:86|268:58,1,85,0|0,1:0|0:0,0:0:0:0:
300,52,55896,1,0,0:0:0:0:
332,60,55975,2,0,B|364:88|364:88|376:132,1,85,0|0,1:0|0:0,0:0:0:0:
384,164,56209,1,0,0:0:0:0:
392,196,56287,2,0,B|403:236|403:236|435:264,1,85,0|0,1:0|0:0,0:0:0:0:
304,328,56600,5,0,1:0:0:0:
288,332,56678,1,0,0:0:0:0:
272,336,56756,1,0,0:0:0:0:
256,340,56834,1,0,0:0:0:0:
240,344,56912,2,0,L|152:332,1,85,0|0,1:0|0:0,0:0:0:0:
264,228,57225,1,0,1:0:0:0:
296,220,57303,1,0,0:0:0:0:
328,212,57381,1,0,0:0:0:0:
360,204,57459,1,0,0:0:0:0:
392,196,57537,2,0,L|448:180,1,42.5,0|0,1:0|0:0,0:0:0:0:
416,76,57693,22,0,B|368:64|368:64|340:128|264:112,1,170
292,36,58084,2,0,P|270:36|248:40,1,42.5,0|0,0:0|1:0,0:0:0:0:
416,76,58318,1,0,0:0:0:0:
480,196,58475,2,0,B|484:240|484:240|460:280,1,85,0|0,1:0|0:0,0:0:0:0:
296,188,58787,2,0,B|292:144|292:144|316:104,1,85,0|0,1:0|1:0,0:0:0:0:
313,108,59256,5,0,0:0:0:0:
313,108,59412,1,0,0:0:0:0:
313,108,59568,1,0,0:0:0:0:
313,108,59725,2,0,L|228:116,1,85
284,264,60037,2,0,L|369:256,1,85
216,312,60350,21,0,0:0:0:0:
380,60,60662,1,0,0:0:0:0:
284,264,60975,2,0,P|300:308|292:348,2,85
216,312,61365,1,0,0:0:0:0:
216,312,61443,1,0,0:0:0:0:
144,268,61600,5,0,0:0:0:0:
180,80,61756,1,0,0:0:0:0:
368,116,61912,1,0,0:0:0:0:
332,304,62068,1,0,0:0:0:0:
332,304,62850,21,2,0:0:0:0:
372,296,62928,1,0,0:0:0:0:
408,272,63006,1,0,0:0:0:0:
420,232,63084,1,0,0:0:0:0:
416,188,63162,1,0,0:0:0:0:
388,156,63240,1,0,0:0:0:0:
348,140,63318,1,0,0:0:0:0:
304,144,63396,1,0,0:0:0:0:
272,172,63475,1,2,0:0:0:0:
232,180,63553,1,0,0:0:0:0:
192,172,63631,1,0,0:0:0:0:
160,144,63709,1,0,0:0:0:0:
152,104,63787,2,0,P|152:88|164:64,3,42.5,0|0|0|0,0:0|0:0|0:0|0:0,0:0:0:0:
196,40,64100,6,0,P|209:32|236:30,1,42.5,2|0,0:0|0:0,0:0:0:0:
280,104,64256,2,0,P|266:112|239:113,1,42.5,0|0,0:0|0:0,0:0:0:0:
196,40,64412,2,0,P|209:32|236:30,1,42.5,0|0,0:0|0:0,0:0:0:0:
280,104,64568,2,0,P|266:112|239:113,1,42.5,0|0,0:0|0:0,0:0:0:0:
196,108,64725,1,2,0:0:0:0:
152,104,64803,1,0,0:0:0:0:
116,124,64881,1,0,0:0:0:0:
100,164,64959,1,0,0:0:0:0:
108,204,65037,1,0,0:0:0:0:
140,232,65115,1,0,0:0:0:0:
184,236,65193,1,0,0:0:0:0:
220,216,65271,1,0,0:0:0:0:
236,176,65350,22,0,L|252:136,7,42.5,2|0|0|0|0|0|0|0,0:0|0:0|0:0|0:0|0:0|0:0|0:0|0:0,0:0:0:0:
348,128,65975,2,0,L|332:168,3,42.5,2|0|0|0,0:0|0:0|0:0|0:0,0:0:0:0:
328,208,66287,1,0,0:0:0:0:
348,248,66365,1,0,0:0:0:0:
388,260,66443,1,0,0:0:0:0:
428,248,66521,1,0,0:0:0:0:
444,208,66600,5,2,0:0:0:0:
436,168,66678,1,0,0:0:0:0:
436,124,66756,1,0,0:0:0:0:
444,84,66834,1,0,0:0:0:0:
468,48,66912,2,0,L|508:64,3,42.5
288,36,67225,2,0,L|328:52,3,42.5,2|0|0|0,0:0|0:0|0:0|0:0,0:0:0:0:
332,96,67537,1,0,0:0:0:0:
308,132,67615,1,0,0:0:0:0:
268,144,67693,1,0,0:0:0:0:
228,136,67771,1,0,0:0:0:0:
200,104,67850,22,0,P|180:92|156:92,3,42.5,0|0|0|0,1:0|0:0|0:0|0:0,0:0:0:0:
152,192,68162,2,0,P|172:204|196:204,2,42.5
108,268,68396,2,0,P|119:288|140:300,2,42.5,0|2|0,0:0|0:0|0:0,0:0:0:0:
24,300,68631,2,0,P|23:323|35:344,2,42.5
40,260,68865,1,0,0:0:0:0:
76,240,68943,1,0,0:0:0:0:
120,244,69021,1,0,0:0:0:0:
152,272,69100,5,2,0:0:0:0:
192,288,69178,1,0,0:0:0:0:
236,288,69256,1,0,0:0:0:0:
276,272,69334,1,0,0:0:0:0:
300,240,69412,2,0,L|312:196,5,42.5,0|0|0|0|2|0,0:0|0:0|0:0|0:0|0:0|0:0,0:0:0:0:
276,176,69881,1,0,0:0:0:0:
252,140,69959,1,0,0:0:0:0:
260,96,70037,1,0,0:0:0:0:
296,72,70115,1,0,0:0:0:0:
340,72,70193,1,0,0:0:0:0:
368,104,70271,1,0,0:0:0:0:
360,148,70350,21,0,1:0:0:0:
400,132,70428,1,0,0:0:0:0:
440,140,70506,1,0,0:0:0:0:
472,168,70584,1,0,0:0:0:0:
480,208,70662,1,0,0:0:0:0:
468,248,70740,1,0,0:0:0:0:
436,276,70818,1,0,0:0:0:0:
392,280,70896,1,0,0:0:0:0:
352,268,70975,1,0,1:0:0:0:
368,308,71053,1,0,0:0:0:0:
360,348,71131,1,0,0:0:0:0:
328,376,71209,1,0,0:0:0:0:
284,380,71287,1,0,0:0:0:0:
244,360,71365,1,0,0:0:0:0:
228,320,71443,1,0,0:0:0:0:
240,280,71521,1,0,0:0:0:0:
272,252,71600,6,0,L|264:208,3,42.5,0|0|0|0,1:0|0:0|0:0|0:0,0:0:0:0:
184,220,71912,2,0,L|176:176,3,42.5,0|0|0|0,1:0|0:0|0:0|0:0,0:0:0:0:
96,188,72225,1,0,1:0:0:0:
76,152,72303,1,0,0:0:0:0:
72,108,72381,1,0,1:0:0:0:
88,68,72459,1,0,0:0:0:0:
120,40,72537,1,0,1:0:0:0:
156,64,72615,1,0,0:0:0:0:
276,48,72693,22,0,B|316:60|316:60|296:120|324:168|384:192|448:152,1,255,0|0,0:0|1:0,0:0:0:0:
476,76,73318,1,0,0:0:0:0:
392,88,73475,2,0,B|336:152|336:152|376:184|392:232|368:280|336:296,1,255,0|0,1:0|0:0,0:0:0:0:
288,224,74100,6,0,P|256:252|248:296,1,85,0|0,1:0|0:0,0:0:0:0:
212,296,74334,1,0,0:0:0:0:
180,300,74412,2,0,B|144:280|144:280|144:236,1,85,0|0,1:0|0:0,0:0:0:0:
128,40,74725,2,0,L|212:52,1,85,0|0,1:0|0:0,0:0:0:0:
236,76,74959,1,0,0:0:0:0:
260,100,75037,1,0,1:0:0:0:
336,296,75193,22,0,P|376:224|336:152,1,170,0|0,1:0|0:0,0:0:0:0:
288,224,75662,1,0,1:0:0:0:
336,296,75818,1,0,0:0:0:0:
204,208,75975,2,0,P|168:232|128:228,1,85,0|0,1:0|0:0,0:0:0:0:
236,76,76287,2,0,P|272:52|312:56,1,85,0|0,1:0|0:0,0:0:0:0:
204,208,76600,6,0,L|124:176,1,85,0|0,1:0|0:0,0:0:0:0:
120,144,76834,1,0,0:0:0:0:
116,112,76912,2,0,L|36:80,1,85,0|0,1:0|0:0,0:0:0:0:
236,76,77225,2,0,B|272:96|272:96|316:88,1,85,0|0,1:0|0:0,0:0:0:0:
348,80,77459,1,0,0:0:0:0:
380,72,77537,2,0,B|424:64|424:64|460:84,1,85,0|0,1:0|0:0,0:0:0:0:
432,176,77850,22,0,L|452:264,1,85,0|0,1:0|0:0,0:0:0:0:
336,248,78162,2,0,L|356:336,1,85,0|0,1:0|0:0,0:0:0:0:
176,248,78475,2,0,L|157:330,1,85,0|0,1:0|0:0,0:0:0:0:
80,176,78787,2,0,L|61:258,1,85,0|0,1:0|0:0,0:0:0:0:
176,248,79100,6,0,P|192:288|228:308,1,85,0|0,1:0|0:0,0:0:0:0:
320,168,79412,2,0,P|304:128|268:108,1,85,0|0,1:0|0:0,0:0:0:0:
244,188,79725,2,0,P|260:228|296:248,1,85,0|0,1:0|0:0,0:0:0:0:
388,108,80037,2,0,P|372:68|336:48,1,85,0|0,1:0|0:0,0:0:0:0:
200,92,80350,22,0,L|116:100,1,85,0|0,1:0|0:0,0:0:0:0:
92,124,80584,1,0,0:0:0:0:
80,156,80662,1,0,1:0:0:0:
76,188,80740,1,0,0:0:0:0:
84,220,80818,1,0,0:0:0:0:
100,248,80896,1,0,0:0:0:0:
132,264,80975,2,0,L|216:256,1,85,0|0,1:0|0:0,0:0:0:0:
244,276,81209,1,0,0:0:0:0:
276,288,81287,1,0,1:0:0:0:
308,292,81365,1,0,0:0:0:0:
340,284,81443,1,0,0:0:0:0:
368,268,81521,1,0,0:0:0:0:
388,240,81600,6,0,L|400:200,3,42.5,0|0|0|0,1:0|0:0|0:0|0:0,0:0:0:0:
320,200,81912,2,0,L|332:160,3,42.5,0|0|0|0,1:0|0:0|0:0|0:0,0:0:0:0:
252,160,82225,2,0,L|264:120,3,42.5,0|0|0|0,1:0|0:0|0:0|0:0,0:0:0:0:
184,120,82537,2,0,L|196:80,3,42.5,0|0|0|0,1:0|0:0|0:0|0:0,0:0:0:0:
116,80,82850,22,0,L|72:88,1,42.5,0|0,1:0|0:0,0:0:0:0:
106,112,83006,2,0,L|64:120,1,42.5
98,144,83162,2,0,L|57:151,1,42.5,0|0,1:0|0:0,0:0:0:0:
86,176,83318,2,0,L|45:183,1,42.5
78,208,83474,2,0,L|37:215,1,42.5,0|0,1:0|0:0,0:0:0:0:
69,239,83631,2,0,L|28:246,1,42.5
57,271,83787,2,0,L|16:278,1,42.5,0|0,1:0|0:0,0:0:0:0:
49,303,83943,2,0,L|8:310,1,42.5
40,336,84100,5,0,0:0:0:0:
292,384,84256,1,0,0:0:0:0:
208,141,84412,1,0,0:0:0:0:
208,140,84725,1,0,0:0:0:0:
292,132,84881,1,0,0:0:0:0:
368,169,85037,1,0,0:0:0:0:
396,248,85193,22,0,B|372:260|372:260|348:236|292:228|252:264|256:316,1,191.250007295609,0|0,0:0|1:0,0:0:0:0:
324,312,85818,1,0,0:0:0:0:
388,324,85975,2,0,P|448:308|472:248,1,127.500004863739,0|0,1:0|0:0,0:0:0:0:
480,175,86443,6,0,P|420:191|396:248,2,127.500004863739
480,96,87225,2,0,B|416:92|416:92|364:56,1,127.500004863739,0|0,1:0|0:0,0:0:0:0:
316,112,87693,22,0,B|356:140|356:140|336:180|360:216,1,127.500004863739
420,172,88162,2,0,P|432:208|424:248,1,63.7500024318696
400,292,88475,1,0,0:0:0:0:
344,320,88631,1,0,0:0:0:0:
280,320,88787,1,0,0:0:0:0:
232,280,88943,6,0,P|228:248|180:208,1,95.6250036478044
164,236,89256,2,0,B|204:176|204:176|184:152|184:104|212:80|240:72,1,191.250007295609
264,72,89803,2,0,P|296:88|328:88,1,63.7500024318696
352,72,90037,1,0,0:0:0:0:
360,104,90115,1,0,0:0:0:0:
368,136,90193,22,0,P|352:224|436:248,1,191.250007295609
472,200,90818,1,0,0:0:0:0:
408,188,90975,2,0,L|352:224,1,63.7500024318696,0|0,1:0|0:0,0:0:0:0:
300,256,91287,1,0,0:0:0:0:
244,288,91443,6,0,P|236:228|288:192,1,127.500004863739
300,256,91912,1,0,0:0:0:0:
244,288,92068,2,0,P|196:324|138:297,1,127.500004863739
140,300,92693,22,0,P|92:256|100:196,1,127.500004863739,2|0,0:0|0:0,0:0:0:0:
176,96,93162,2,0,P|224:140|216:200,1,127.500004863739,0|0,1:0|0:0,0:0:0:0:
224,248,93553,1,0,0:0:0:0:
260,284,93631,1,0,0:0:0:0:
308,300,93709,1,0,0:0:0:0:
360,300,93787,1,0,0:0:0:0:
408,280,93865,1,0,0:0:0:0:
444,244,93943,1,0,0:0:0:0:
464,196,94021,1,0,0:0:0:0:
468,144,94100,6,0,P|384:152|340:88,1,170,0|0,1:0|0:0,0:0:0:0:
