osu file format v14

[General]
AudioFilename: pochi.mp3
AudioLeadIn: 0
PreviewTime: 42225
Countdown: 1
SampleSet: Soft
StackLeniency: 0.7
Mode: 1
LetterboxInBreaks: 0
WidescreenStoryboard: 0

[Editor]
Bookmarks: 26600,29100,36600,42850,55350,62850,72693,115818
DistanceSpacing: 1
BeatDivisor: 2
GridSize: 4
TimelineZoom: 1.9

[Metadata]
Title:Pochiko no Shiawase na Nichijou
TitleUnicode:ポチコの幸せな日常
Artist:NU-KO
ArtistUnicode:NU-KO
Creator:IntelliTroodon
Version:Kantan
Source:pop'n music Sunny Park
Tags:
BeatmapID:675816
BeatmapSetID:301385

[Difficulty]
HPDrainRate:1
CircleSize:5
OverallDifficulty:2
ApproachRate:5
SliderMultiplier:1.4
SliderTickRate:1

[Events]
//Background and Video events
0,0,"pochiko.png",0,0
//Break Periods
//Storyboard Layer 0 (Background)
//Storyboard Layer 1 (Fail)
//Storyboard Layer 2 (Pass)
//Storyboard Layer 3 (Foreground)
//Storyboard Sound Samples

[TimingPoints]
350,312.5,4,2,0,100,1,0
12850,-100,4,2,0,100,0,1
17850,-100,4,2,0,100,0,0
22850,-100,4,2,0,100,0,1
25350,-100,4,2,0,100,0,0
29100,-100,4,2,0,100,0,1
37850,-100,4,2,0,100,0,0
43318,-100,4,2,0,100,0,1
52850,-100,4,2,0,100,0,0
62850,-100,4,2,0,100,0,0
72693,-100,4,2,0,100,0,1
84725,-100,4,2,0,100,0,0
94100,-100,4,2,0,100,0,1
107850,-100,4,2,0,100,0,0

[HitObjects]
212,236,350,5,2,0:0:0:0:
208,144,975,1,0,0:0:0:0:
212,236,1600,1,2,0:0:0:0:
204,236,2225,1,2,0:0:0:0:
204,236,2850,1,2,0:0:0:0:
208,144,3162,1,0,0:0:0:0:
208,144,3475,1,0,0:0:0:0:
204,240,3943,1,2,0:0:0:0:
208,144,4725,1,0,0:0:0:0:
204,240,5350,1,2,0:0:0:0:
208,144,5975,1,0,0:0:0:0:
208,144,6600,1,0,0:0:0:0:
208,144,7068,1,0,0:0:0:0:
200,248,7850,1,2,0:0:0:0:
136,184,9100,2,0,L|328:156,1,140
208,144,10350,1,0,0:0:0:0:
208,144,10975,1,0,0:0:0:0:
208,144,11600,1,0,0:0:0:0:
208,144,11912,1,0,0:0:0:0:
208,240,12225,1,2,0:0:0:0:
208,144,12850,1,0,0:0:0:0:
208,240,13475,1,2,0:0:0:0:
208,240,14100,1,2,0:0:0:0:
208,144,14725,1,0,0:0:0:0:
208,144,15350,1,0,0:0:0:0:
208,240,15975,1,2,0:0:0:0:
208,144,16600,1,0,0:0:0:0:
208,240,17068,1,2,0:0:0:0:
208,144,17850,1,0,0:0:0:0:
208,144,18475,1,0,0:0:0:0:
208,144,20350,1,0,0:0:0:0:
208,144,20975,1,0,0:0:0:0:
208,240,21600,1,2,0:0:0:0:
208,144,22225,1,0,0:0:0:0:
208,144,22850,1,0,0:0:0:0:
208,224,23475,1,2,0:0:0:0:
208,224,24100,1,2,0:0:0:0:
208,144,24725,1,0,0:0:0:0:
208,232,25350,1,2,0:0:0:0:
208,144,25662,1,0,0:0:0:0:
212,232,26287,1,2,0:0:0:0:
208,144,27225,1,0,0:0:0:0:
208,236,27850,1,2,0:0:0:0:
208,236,28475,1,2,0:0:0:0:
300,236,28787,1,6,0:0:0:0:
212,144,29100,1,0,0:0:0:0:
212,144,29725,1,0,0:0:0:0:
212,144,30350,1,0,0:0:0:0:
216,140,31600,1,0,0:0:0:0:
216,144,32225,1,0,0:0:0:0:
216,144,32850,1,0,0:0:0:0:
216,240,33475,1,2,0:0:0:0:
216,144,34100,1,0,0:0:0:0:
216,144,34725,1,0,0:0:0:0:
216,144,35350,1,0,0:0:0:0:
212,236,35975,1,2,0:0:0:0:
212,236,36287,1,2,0:0:0:0:
256,192,36600,12,2,37537,0:0:0:0:
216,152,37850,5,0,0:0:0:0:
216,152,38475,1,0,0:0:0:0:
216,248,39100,1,2,0:0:0:0:
220,144,39725,1,0,0:0:0:0:
136,276,40350,2,0,P|320:100|332:56,1,270
304,144,41600,1,4,0:0:0:0:
304,144,41912,1,4,0:0:0:0:
212,144,43475,1,0,0:0:0:0:
208,240,44100,1,2,0:0:0:0:
212,144,44725,1,0,0:0:0:0:
208,240,45350,1,2,0:0:0:0:
212,144,45975,1,0,0:0:0:0:
212,144,46443,1,0,0:0:0:0:
212,144,47068,1,0,0:0:0:0:
304,240,47693,1,6,0:0:0:0:
220,240,48475,1,2,0:0:0:0:
220,240,49100,1,2,0:0:0:0:
216,144,49725,1,0,0:0:0:0:
220,240,50350,1,2,0:0:0:0:
216,144,50975,1,0,0:0:0:0:
220,240,51600,1,2,0:0:0:0:
216,144,52225,1,0,0:0:0:0:
296,144,52850,1,4,0:0:0:0:
296,144,53475,1,4,0:0:0:0:
212,144,54100,1,0,0:0:0:0:
212,144,54725,1,0,0:0:0:0:
216,236,55350,1,2,0:0:0:0:
216,236,55975,1,2,0:0:0:0:
212,148,56600,1,0,0:0:0:0:
212,240,57693,1,2,0:0:0:0:
212,148,58475,1,0,0:0:0:0:
212,240,58943,1,2,0:0:0:0:
212,240,59412,1,2,0:0:0:0:
212,148,59725,1,0,0:0:0:0:
300,240,60350,1,6,0:0:0:0:
304,148,60975,1,4,0:0:0:0:
212,144,61600,1,0,0:0:0:0:
212,144,62068,1,0,0:0:0:0:
212,144,62850,1,0,0:0:0:0:
212,244,63943,1,2,0:0:0:0:
216,140,65350,1,0,0:0:0:0:
216,140,66443,1,0,0:0:0:0:
212,244,67225,1,2,0:0:0:0:
216,140,67850,1,0,0:0:0:0:
216,244,69725,1,2,0:0:0:0:
212,148,70350,1,0,0:0:0:0:
212,148,70975,1,0,0:0:0:0:
212,148,71600,1,0,0:0:0:0:
212,148,71912,1,0,0:0:0:0:
212,148,72225,1,0,0:0:0:0:
216,240,72693,1,2,0:0:0:0:
216,152,73475,1,0,0:0:0:0:
216,240,74100,1,2,0:0:0:0:
208,140,74725,1,0,0:0:0:0:
208,144,75350,1,0,0:0:0:0:
212,248,75975,1,2,0:0:0:0:
212,248,76600,1,2,0:0:0:0:
208,144,77068,1,0,0:0:0:0:
208,144,77850,1,0,0:0:0:0:
204,144,78475,1,0,0:0:0:0:
208,236,79412,1,2,0:0:0:0:
204,144,79725,1,0,0:0:0:0:
208,144,80350,1,0,0:0:0:0:
204,144,80975,1,0,0:0:0:0:
208,240,81443,1,2,0:0:0:0:
208,240,81756,1,2,0:0:0:0:
208,240,82068,1,2,0:0:0:0:
200,140,82537,1,0,0:0:0:0:
208,240,82850,1,2,0:0:0:0:
208,240,84100,1,2,0:0:0:0:
208,240,84412,1,2,0:0:0:0:
208,240,85662,1,2,0:0:0:0:
208,140,85975,1,0,0:0:0:0:
208,240,86287,1,2,0:0:0:0:
208,140,86600,1,0,0:0:0:0:
208,140,87225,1,0,0:0:0:0:
208,248,87850,1,2,0:0:0:0:
208,140,88475,1,0,0:0:0:0:
208,140,89100,1,0,0:0:0:0:
124,240,89725,2,0,L|244:200,1,90
208,140,90350,1,0,0:0:0:0:
200,240,90975,1,2,0:0:0:0:
208,140,91600,1,0,0:0:0:0:
200,240,92225,1,2,0:0:0:0:
208,144,92850,1,0,0:0:0:0:
212,244,94100,1,2,0:0:0:0:
208,148,94725,1,0,0:0:0:0:
212,244,95350,1,2,0:0:0:0:
208,148,95975,1,0,0:0:0:0:
212,244,96600,1,2,0:0:0:0:
208,148,96912,1,0,0:0:0:0:
212,244,97225,1,2,0:0:0:0:
208,148,97693,1,0,0:0:0:0:
212,244,98318,1,2,0:0:0:0:
208,148,98943,1,0,0:0:0:0:
208,148,99725,1,0,0:0:0:0:
208,236,100350,1,2,0:0:0:0:
208,236,100975,1,2,0:0:0:0:
300,144,101443,1,4,0:0:0:0:
300,144,102693,1,4,0:0:0:0:
308,148,103943,1,4,0:0:0:0:
216,144,105350,1,0,0:0:0:0:
216,144,105975,1,0,0:0:0:0:
216,144,106600,1,0,0:0:0:0:
216,144,107068,1,0,0:0:0:0:
220,236,107850,1,2,0:0:0:0:
220,236,108475,1,2,0:0:0:0:
220,152,109100,1,0,0:0:0:0:
224,156,109725,1,0,0:0:0:0:
224,240,110193,1,2,0:0:0:0:
224,240,111443,1,2,0:0:0:0:
220,244,112693,1,2,0:0:0:0:
220,152,113943,1,0,0:0:0:0:
220,152,114725,1,0,0:0:0:0:
216,156,115662,1,0,0:0:0:0:
