osu file format v7

[General]
AudioFilename: N'Sync - Bye Bye Bye (cd version).mp3
AudioLeadIn: 0
PreviewTime: 53749
Countdown: 2
SampleSet: Normal
StackLeniency: 0.7
Mode: 0
LetterboxInBreaks: 1

[Editor]
Bookmarks: 19088,55573
DistanceSpacing: 0.800000011920929
BeatDivisor: 4
GridSize: 8

[Metadata]
Title:Bye Bye Bye
Artist:*NSYNC
Creator:0_o
Version:Normal
Source:
Tags:Larto lesjuh

[Difficulty]
HPDrainRate:3
CircleSize:4
OverallDifficulty:3
SliderMultiplier:1
SliderTickRate:1

[Events]
//Background and Video events
0,0,"Nsync Celebrity.jpg"
//Break Periods
2,79328,79774
2,104359,108978
2,151641,158346
//Storyboard Layer 0 (Background)
//Storyboard Layer 1 (Fail)
//Storyboard Layer 2 (Pass)
//Storyboard Layer 3 (Foreground)
//Storyboard Sound Samples
//Background Colour Transformations
3,100,163,162,255

[TimingPoints]
9595.31926923029,347.664851083555,4,1,0,79,1,0
12724,-100,4,2,0,79,0,0
14984,-100,4,1,0,79,0,0
15244,-100,4,2,0,79,0,0
17939,-100,4,1,0,79,0,0
18286,-100,4,2,0,79,0,0
20546,-100,4,1,0,79,0,0
20807,-100,4,2,0,79,0,0
23501,-100,4,1,0,79,0,0
25066,-100,4,2,0,79,0,0
26283,-100,4,1,0,79,0,0
27326,-100,4,2,0,79,0,0
28890,-100,4,1,0,79,0,0
30107,-100,4,2,0,79,0,0
31672,-100,4,1,0,79,0,0
36191,-100,4,2,0,79,0,0
37408,-100,4,1,0,79,0,0
38451,-100,4,2,0,79,0,0
40015,-100,4,1,0,79,0,0
41232,-100,4,2,0,79,0,0
42797,-100,4,1,0,79,0,0
47316,-100,4,2,0,79,0,0
48359,-100,4,1,0,79,0,0
52879,-100,4,2,0,79,0,0
53922,-100,4,1,0,79,0,0
56703,-100,4,1,0,79,0,0
56877,-100,4,1,0,100,0,1
59137,-100,4,2,0,100,0,1
59572,-100,4,1,0,100,0,1
61918,-100,4,2,0,100,0,1
62265,-100,4,1,0,100,0,1
70262,-100,4,2,0,100,0,1
70697,-100,4,1,0,100,0,1
73044,-100,4,2,0,100,0,1
73304,-100,4,1,0,100,0,1
77216,-100,4,2,0,100,0,1
77650,-100,4,1,0,100,0,0
81214,-200,4,1,0,21,0,0
81909,-100,4,1,0,100,0,0
82257,-100,4,2,0,79,0,0
84604,-100,4,1,0,78,0,0
85733,-100,4,2,0,78,0,0
87472,-100,4,1,0,78,0,0
88515,-100,4,2,0,78,0,0
90079,-100,4,1,0,78,0,0
94077,-100,4,2,0,78,0,0
95642,-100,4,1,0,78,0,0
96859,-100,4,2,0,78,0,0
98597,-100,4,1,0,78,0,0
98771,-100,4,2,0,78,0,0
101205,-100,4,1,0,78,0,0
111287,-100,4,2,0,78,0,0
112330,-100,4,1,0,78,0,0
115285,-100,4,1,0,100,0,1
117545,-100,4,2,0,100,0,1
117892,-100,4,1,0,100,0,1
120326,-100,4,2,0,100,0,1
120674,-100,4,1,0,100,0,1
128670,-100,4,2,0,100,0,1
129018,-100,4,1,0,100,0,1
131451,-100,4,2,0,100,0,1
131799,-100,4,1,0,100,0,1
135623,-100,4,2,0,100,0,1
136058,-100,4,1,0,100,0,1
137188,-100,4,2,0,48,0,0
139969,-100,4,1,0,79,0,0
140664,-100,4,2,0,79,0,0
145879,-100,4,1,0,79,0,0
146227,-100,4,2,0,79,0,0
159438,-100,4,1,0,79,0,0
173693,-100,4,1,0,100,0,1
175952,-100,4,2,0,100,0,1
176300,-100,4,1,0,100,0,1
187078,-100,4,2,0,100,0,1
187425,-100,4,1,0,100,0,1
189859,-100,4,2,0,100,0,1
190207,-100,4,1,0,100,0,1
195943,-100,4,1,0,100,0,0

[Colours]
Combo1 : 255,213,113
Combo2 : 3,140,241
Combo3 : 171,243,1
Combo4 : 253,117,83

[HitObjects]
160,80,10985,2,0,B|224:32|272:144|368:64,2,200,0|0|4
48,194,13071,5,0
61,272,13419,1,2
118,327,13767,2,0,B|254:335|294:199|294:199,1,200,0|8
248,74,15157,6,0,B|373:66|433:185|433:185,1,200,4|0
451,234,16200,1,2
450,314,16548,2,0,B|234:313|234:313,2,200,0|0|4
484,168,18634,5,0
408,141,18982,1,2
367,71,19329,2,0,B|252:38|164:145|164:145|168:147,1,200,0|8
49,209,20720,6,0,B|169:191|246:302|246:302,1,200,4|0
256,354,21763,1,2
256,192,22111,12,4,23501
36,128,24197,6,2,B|124:99|195:138|216:184,1,200,2|0
189,266,25240,1,2
156,349,25587,2,0,B|367:349,1,200,0|4
464,224,26978,5,8
387,83,27673,2,0,B|299:54|228:93|207:139,1,200,0|2
232,216,28716,1,0
152,216,29064,1,4
256,336,29759,5,8
408,288,30455,2,2,B|488:216|448:96,1,200,2|8
400,40,31498,1,0
323,17,31845,5,4
176,88,32541,1,4
328,144,33236,1,4
368,216,33584,1,8
358,295,33931,2,2,B|254:335|135:283,1,200,2|4
40,200,35322,6,0,B|32:88|144:32,1,200,4|0
216,24,36365,1,2
216,104,36713,2,0,B|440:104,1,200,0|4
483,248,38103,5,8
344,344,38799,2,2,B|240:360|136:264,1,200,2|2
109,221,39842,1,0
120,144,40189,1,4
256,232,40885,5,8
384,327,41580,2,2,B|480:287|456:151,1,200,2|2
408,96,42623,1,0
336,56,42971,5,4
256,192,43666,1,4
344,325,44361,1,8
269,353,44709,1,0
198,314,45057,2,2,B|134:242|78:378|-2:274,1,200,2|4
5,132,46447,6,2,B|88:173|168:151|201:92,1,200,2|4
236,41,47490,1,2
315,33,47838,1,8
385,70,48186,1,0
342,137,48533,6,2,B|227:152|239:309,1,200,6|6
378,359,49924,2,2,B|493:344|481:187,1,200,8|10
322,212,51315,1,4
234,345,52010,6,2,B|112:341|60:242,1,200
55,174,53053,1,8
126,209,53401,1,4
205,209,53748,1,0
157,137,54096,6,0,B|381:137,1,200,2|4
162,55,55487,6,0,B|260:2|361:64,2,200,0|0|4
12,164,57573,5,0
24,242,57920,1,2
72,305,58268,2,0,B|133:334|209:316|229:247,1,150,4|0
174,168,59311,1,2
203,93,59659,5,0
278,66,60006,1,8
329,126,60354,2,2,B|331:198|435:211,1,100,0|2
436,134,61049,2,2,B|530:182|513:292,1,150,2|4
408,306,62092,1,2
333,341,62440,5,4
252,341,62788,1,0
182,301,63135,5,0
157,224,63483,1,2
169,144,63831,2,0,B|228:210|292:216|356:130,2,200,4|4|4
216,79,65569,5,10
296,81,65917,1,2
255,12,66264,1,0
334,6,66612,6,0,B|405:82|363:191|299:195,1,200,4|4
255,136,67655,1,2
183,184,68003,1,4
369,342,68698,5,0
433,294,69046,1,2
470,223,69393,2,0,B|394:224|353:122,1,150,4|0
283,42,70436,1,2
204,39,70784,5,0
142,89,71131,1,8
182,158,71479,2,0,B|186:223|101:245,1,100,2|0
71,180,72174,2,2,B|-11:228|-1:323|37:345,1,150,2|2
144,336,73217,1,2
216,368,73565,5,4
296,368,73913,1,0
368,336,74260,5,0
328,264,74608,1,8
256,224,74956,2,0,B|216:150|320:91|245:22,2,200,4|4|4
304,296,76694,1,2
208,296,77042,1,10
256,224,77389,6,0,B|256:80|256:80,1,100,2|4
256,192,77911,12,4,79128
256,352,81214,6,0,B|256:216,1,100,0|4
156,162,82604,6,0,B|232:100|286:219|376:136,1,200,4|2
379,83,83647,1,8
455,60,83995,2,0,B|536:158|456:288,1,200,0|4
328,312,85386,1,8
168,332,86081,5,2
97,293,86429,1,8
53,226,86776,2,0,B|112:168|-22:107|80:32,1,200,4|4
232,80,88167,1,8
184,232,88862,5,4
256,192,89210,1,2
328,232,89558,1,8
256,272,89905,1,0
173,309,90253,2,4,B|212:369|301:370|347:305,2,200
256,192,91818,12,4,93034
256,80,93730,5,12
416,48,94425,2,2,B|512:112|472:224|472:224|448:232,1,200,2|2
424,288,95468,1,8
353,249,95816,1,4
215,331,96511,5,0
89,231,97206,1,6
47,162,97554,1,8
48,81,97902,2,4,B|126:28|184:153|260:62,1,200,2|4
392,112,99292,5,8
416,272,99988,1,2
336,272,100335,1,8
376,200,100683,2,0,B|240:200,1,100,2|8
240,280,101378,6,0,B|168:224|200:144|248:104,2,200,4|4|4
312,248,103117,1,8
368,192,103464,2,2,B|440:248|408:328|360:368,1,200,2|4
464,176,110418,6,2,B|456:288|376:312|296:272,1,200,2|4
256,264,111461,1,8
216,200,111808,1,4
296,200,112156,1,0
336,128,112504,5,10
256,128,112851,1,2
176,128,113199,1,10
350,55,113894,6,0,B|256:0|156:58,2,200,4|4|4
500,164,115980,5,0
488,242,116327,1,2
440,305,116675,2,0,B|379:334|303:316|283:247,1,150,4|0
338,168,117718,1,2
309,93,118066,5,0
234,66,118413,1,8
183,126,118761,2,2,B|181:198|77:211,1,100,0|2
76,134,119456,2,2,B|-18:182|-1:292,1,150,2|4
104,306,120499,1,2
179,341,120847,5,4
260,341,121195,1,0
330,301,121542,5,0
355,224,121890,1,2
343,144,122238,2,0,B|284:210|220:216|156:130,2,200,4|4|4
296,79,123976,5,10
216,81,124324,1,2
257,12,124671,1,0
178,6,125019,6,0,B|107:82|149:191|213:195,1,200,4|4
257,136,126062,1,2
329,184,126410,1,4
143,342,127105,5,0
79,294,127453,1,2
42,223,127800,2,0,B|118:224|159:122,1,150,4|0
229,42,128843,1,2
308,39,129191,5,0
370,89,129538,1,8
330,158,129886,2,0,B|326:223|411:245,1,100,2|0
438,178,130581,2,2,B|501:256|436:339,1,150,2|2
342,368,131625,1,2
256,352,131972,5,4
256,352,132320,1,0
216,288,132667,5,0
296,288,133015,1,2
352,232,133364,2,0,B|256:168|144:240,1,200,4|4
120,304,134407,1,0
168,368,134754,5,10
256,368,135102,1,4
344,368,135449,1,10
256,288,135797,6,0,B|256:176,1,100,2|4
256,104,136492,1,4
256,24,136840,1,4
256,192,137014,12,4,138926
401,76,140317,5,4
481,228,141012,5,2
428,288,141360,1,8
349,275,141707,2,0,B|275:244|289:359|208:333|206:333,1,150,4|2
137,248,142750,5,0
63,216,143098,2,0,B|-41:166|24:36|24:36,2,200,4|2|4
142,126,145010,2,0,B|238:68|270:229|402:113|402:113,1,250,4|4
262,19,146575,5,2
183,33,146922,1,8
126,89,147270,2,0,B|84:178|171:229|171:229,1,150,4|0
286,166,148313,5,0
358,133,148661,2,0,B|480:186|470:319|470:319,1,200,4|4
413,345,149704,1,0
348,297,150051,2,0,B|255:234|129:302|129:302,2,200,4|2|4
72,40,159786,5,0
200,136,160481,1,0
328,232,161177,1,0
448,336,161872,2,2,B|200:336|200:336,1,200,2|4
88,320,163263,5,4
27,267,163610,1,0
19,187,163958,2,0,B|140:191|205:85,1,200,4|8
336,32,165349,2,2,B|459:47|494:189|494:189,1,200,6|2
483,236,166392,1,6
331,311,167087,1,0
251,309,167435,1,8
347,181,168130,6,0,B|257:108|162:181,2,200,4|2|4
256,320,170216,5,2
256,320,170564,1,0
256,320,170911,1,4
256,192,171433,12,0,172997
256,80,173693,5,4
104,136,174388,5,0
48,192,174736,1,2
48,272,175084,2,0,B|136:240|205:330,1,150,4|0
296,352,176127,1,2
376,328,176475,5,0
440,280,176822,1,8
456,200,177170,2,2,B|454:128|350:115,1,100,0|2
360,200,177865,6,2,B|256:232|152:192,1,200,2|4
256,64,179256,1,4
96,40,179951,1,0
40,104,180298,2,2,B|-16:208|56:336,1,200,0|0
96,352,181341,5,0
176,352,181689,1,0
256,352,182037,5,4
296,280,182385,1,10
216,280,182733,1,10
256,208,183080,5,0
256,128,183427,2,2,L|264:88|248:64|256:24|256:24,2,100,2|10|2
256,208,184471,1,0
256,288,184819,1,4
408,344,185514,5,2
464,288,185862,1,8
456,208,186209,2,0,B|380:209|339:107,1,150,4|0
256,40,187252,1,2
176,48,187600,5,0
96,64,187947,1,8
48,136,188295,2,0,B|120:136|129:223,1,100,2|0
72,248,188990,2,2,B|80:304|152:336|200:304,1,150,2|2
176,192,190033,1,2
256,192,190381,5,4
336,192,190729,1,0
296,264,191076,5,0
216,264,191424,1,8
160,320,191772,2,0,B|224:360|288:360|352:320,1,200,4|4
256,192,193162,5,6
256,112,193510,1,2
256,32,193858,1,10
256,192,194553,12,4,195943
