osu file format v7

[General]
AudioFilename: N'Sync - Bye Bye Bye (cd version).mp3
AudioLeadIn: 0
PreviewTime: 53749
Countdown: 2
SampleSet: Normal
StackLeniency: 0.7
Mode: 0
LetterboxInBreaks: 1

[Editor]
Bookmarks: 19088,55573
DistanceSpacing: 1.10000002384186
BeatDivisor: 4
GridSize: 8

[Metadata]
Title:Bye Bye Bye
Artist:*NSYNC
Creator:0_o
Version:0_o
Source:
Tags:Larto lesjuh

[Difficulty]
HPDrainRate:7
CircleSize:5
OverallDifficulty:7
SliderMultiplier:1.6
SliderTickRate:2

[Events]
//Background and Video events
0,0,"Nsync Celebrity.jpg"
//Break Periods
2,79328,80314
2,104359,109518
2,137735,139417
2,151642,158886
//Storyboard Layer 0 (Background)
//Storyboard Layer 1 (Fail)
//Storyboard Layer 2 (Pass)
//Storyboard Layer 3 (Foreground)
//Storyboard Sound Samples
//Background Colour Transformations
3,100,163,162,255

[TimingPoints]
9595.31926923029,347.664851083555,4,1,0,79,1,0
12811,-100,4,2,0,79,0,0
15157,-100,4,1,0,79,0,0
15940,-100,4,2,0,79,0,0
17504,-100,4,1,0,79,0,0
18373,-100,4,2,0,79,0,0
20633,-100,4,1,0,79,0,0
21502,-100,4,2,0,79,0,0
22024,-100,4,1,0,59,0,0
23414,-100,4,1,0,80,0,0
25066,-100,4,2,0,80,0,0
25500,-100,4,1,0,59,0,0
25761,-100,4,2,0,80,0,0
26109,-100,4,1,0,80,0,0
27500,-100,4,2,0,80,0,0
28282,-100,4,1,0,80,0,0
28543,-100,4,2,0,80,0,0
28890,-100,4,1,0,80,0,0
30802,-100,4,2,0,80,0,0
31324,-100,4,1,0,61,0,0
31672,-100,4,1,0,80,0,0
36191,-100,4,2,0,80,0,0
37234,-100,4,1,0,80,0,0
39233,-100,4,2,0,80,0,0
40015,-100,4,1,0,80,0,0
42015,-100,4,2,0,80,0,0
42797,-100,4,1,0,80,0,0
47316,-100,4,2,0,80,0,0
48446,-100,4,1,0,80,0,0
49663,-100,4,2,0,80,0,0
49837,-100,4,1,0,80,0,0
53053,-100,4,2,0,80,0,0
53314,-100,4,1,0,80,0,0
53574,-100,4,2,0,80,0,0
54270,-100,4,1,0,59,0,0
54965,-100,4,2,0,80,0,0
55400,-100,4,1,0,80,0,0
56703,-100,4,1,0,79,0,0
56877,-100,4,1,0,100,0,1
59137,-100,4,2,0,100,0,1
59572,-100,4,1,0,100,0,1
61918,-100,4,2,0,100,0,1
62265,-100,4,1,0,100,0,1
66090,-100,4,2,0,100,0,1
66525,-100,4,1,0,100,0,1
70262,-100,4,2,0,100,0,1
70697,-100,4,1,0,100,0,1
73044,-100,4,2,0,100,0,1
73304,-100,4,1,0,100,0,1
77216,-100,4,2,0,100,0,1
77650,-100,4,1,0,100,0,1
79128,-100,4,1,0,100,0,0
82257,-100,4,1,0,79,0,0
83821,-100,4,1,0,66,0,0
84082,-100,4,2,0,66,0,0
84604,-100,4,1,0,78,0,0
85907,-100,4,2,0,78,0,0
87298,-100,4,1,0,78,0,0
89297,-100,4,2,0,78,0,0
90166,-100,4,1,0,78,0,0
94860,-100,4,2,0,78,0,0
95642,-100,4,1,0,78,0,0
97293,-100,4,2,0,78,0,0
97467,-100,4,1,0,78,0,0
97641,-100,4,2,0,100,0,0
97815,-100,4,1,0,80,0,0
98597,-100,4,1,0,78,0,0
99119,-100,4,2,0,78,0,0
100596,-100,4,1,0,78,0,0
100770,-100,4,2,0,78,0,0
101291,-100,4,1,0,78,0,0
111287,-100,4,2,0,78,0,0
111721,-100,4,1,0,78,0,0
113373,-100,4,2,0,100,0,0
115285,-100,4,1,0,100,0,1
117545,-100,4,2,0,100,0,1
117979,-100,4,1,0,100,0,1
120326,-100,4,2,0,100,0,1
120674,-100,4,1,0,100,0,1
124498,-100,4,2,0,100,0,1
124933,-100,4,1,0,100,0,1
128670,-100,4,2,0,100,0,1
129105,-100,4,1,0,100,0,1
131451,-100,4,2,0,100,0,1
131799,-100,4,1,0,100,0,1
135623,-100,4,2,0,100,0,0
136058,-100,4,1,0,100,0,0
140838,-100,4,2,0,100,0,0
143011,-100,4,1,0,100,0,0
143185,-100,4,2,0,100,0,0
145445,-100,4,1,0,100,0,0
145966,-100,4,2,0,100,0,0
148574,-100,4,1,0,100,0,0
148747,-100,4,2,0,100,0,0
149268,-100,4,1,0,100,0,0
149441,-100,4,2,0,100,0,0
149965,-100,4,1,0,100,0,0
150138,-100,4,2,0,100,0,0
151268,-100,4,2,0,100,0,0
162394,-100,4,1,0,100,0,0
173693,-100,4,1,0,100,0,1
175952,-100,4,2,0,100,0,1
176387,-100,4,1,0,100,0,1
178734,-100,4,2,0,100,0,1
179081,-100,4,1,0,100,0,1
187078,-100,4,2,0,100,0,1
187512,-100,4,1,0,100,0,1
189859,-100,4,2,0,100,0,1
190206,-100,4,1,0,100,0,1
195943,-100,4,1,0,100,0,0

[Colours]
Combo1 : 255,213,113
Combo2 : 3,140,241
Combo3 : 171,243,1
Combo4 : 253,117,83

[HitObjects]
104,56,10985,5,0
256,160,11333,1,0
408,56,11681,1,0
400,288,12028,5,2
112,288,12376,1,2
256,96,12724,1,8
359,54,12898,5,0
421,103,13071,2,0,B|473:85|471:18,2,80,2|0|10
348,138,13593,1,0
321,227,13767,2,0,B|289:345|198:354|107:332|112:277,1,240,4|0
79,262,14462,1,8
35,108,14810,1,2
102,66,14984,1,0
176,172,15157,6,4,B|369:172,1,160
449,59,15853,1,8
334,46,16027,5,2
269,91,16200,1,8
237,164,16374,1,0
209,239,16548,2,0,B|135:322|23:274,2,160,4|0|4
392,159,17591,5,2
117,159,17939,1,4
256,346,18286,1,8
374,314,18460,5,2
410,242,18634,2,0,B|491:246|498:343,2,80,2|0|8
329,242,19156,1,0
256,286,19329,2,0,B|101:282|55:144,1,240,4|2
80,89,20025,1,8
233,41,20372,1,2
290,97,20546,1,0
411,69,20720,5,4
307,298,21068,1,4
65,218,21415,1,8
110,117,21589,5,2
189,108,21763,1,8
262,141,21937,1,0
167,230,22111,5,0
255,230,22806,1,0
343,230,23501,1,4
255,62,23849,5,4
423,38,24197,6,2,B|511:158|495:286|439:374,1,320,2|4
300,372,25240,1,2
226,342,25414,1,0
194,269,25587,1,0
352,200,25935,1,0
256,56,26283,1,4
52,173,26630,5,2
149,351,26978,1,4
360,351,27326,1,8
251,164,27673,5,0
331,116,27847,1,2
418,105,28021,1,8
457,175,28195,1,0
418,105,28369,1,0
261,41,28716,1,0
118,158,29064,1,4
403,188,29412,5,2
332,359,29759,2,0,B|151:359,1,160,4|0
47,234,30455,6,0,B|177:218|187:103,1,160,4|2
235,85,30976,1,0
317,118,31150,1,8
256,280,31498,1,2
463,174,31845,5,4
255,54,32541,1,4
47,172,33236,1,4
167,334,33584,5,8
343,334,33931,1,2
255,126,34279,2,2,B|207:190|319:238|215:334,1,160,2|6
255,38,34974,5,4
87,38,35322,6,0,B|0:158|15:286|71:374,1,320,4|4
177,215,36365,1,2
259,246,36539,1,0
278,332,36713,2,0,B|351:275,1,80,8|0
323,196,37060,1,0
434,84,37408,1,4
271,18,37756,5,2
146,142,38103,1,4
394,244,38451,1,8
227,358,38799,6,2,B|122:351|73:258,1,160,0|2
45,207,39320,1,0
130,186,39494,1,8
68,124,39668,1,2
96,40,39842,1,8
239,139,40189,1,4
426,120,40537,5,6
357,347,40885,1,4
113,249,41232,1,0
181,58,41580,6,2,B|270:98|276:225,1,160,2|2
208,244,42101,1,2
232,329,42275,1,8
433,259,42623,1,4
434,42,42971,5,4
77,42,43666,1,4
77,341,44361,1,8
256,344,44709,5,0
256,160,45057,1,2
96,232,45404,2,2,B|256:280|432:232,1,320,6|0
372,43,46447,6,2,B|468:51|516:115,2,160,2|0|4
223,138,47490,1,8
173,210,47664,1,0
94,182,47838,2,2,B|-1:204|-14:322,1,160,2|8
42,362,48359,1,0
130,362,48533,1,4
271,241,48881,1,2
131,97,49229,2,2,B|307:97,1,160,2|8
397,97,49750,5,2
485,97,49924,1,4
332,185,50272,2,2,B|229:225|237:357,2,160,2|2|2
464,336,51315,5,4
464,336,51662,1,0
256,368,52010,6,2,B|136:360|88:248,1,160,2|2
216,152,52705,2,2,B|331:115|331:23,1,160,0|8
243,26,53227,1,0
157,44,53401,1,4
338,155,53748,1,0
88,280,54096,5,4
256,280,54444,1,10
424,280,54791,1,4
256,160,55139,5,2
256,160,55313,1,0
176,56,55487,6,2,B|256:32|346:60,2,160,2|2|2
92,181,56530,1,4
418,181,56877,1,4
256,288,57225,5,8
155,346,57399,5,0
78,303,57573,1,2
49,220,57746,1,2
96,144,57920,1,8
65,64,58094,1,0
136,16,58268,2,0,B|255:29|250:148,1,160,4|0
192,184,58789,2,0,B|205:277|305:293,1,160,0|0
383,292,59311,1,2
448,233,59485,1,0
448,80,59659,5,4
371,37,59832,1,0
291,73,60006,1,8
249,150,60180,1,0
266,237,60354,2,2,B|281:296|236:325,2,80,2|0|8
190,191,60875,1,0
148,113,61049,2,2,B|49:153|84:281,1,160,2|2
146,294,61571,2,0,B|120:372|64:372|0:340,1,160,4|0
0,263,62092,1,2
32,48,62440,5,4
256,48,62788,1,0
472,48,63135,5,0
448,200,63483,1,0
416,344,63831,2,4,B|256:384|88:344,2,320
256,304,65569,5,10
256,48,65917,1,10
256,184,66264,5,2
256,184,66438,1,0
120,240,66612,5,4
256,104,66960,1,2
384,240,67307,1,2
176,40,67655,6,4,B|336:40,1,160
480,200,68350,1,8
408,320,68524,5,0
322,341,68698,1,2
278,265,68872,1,2
199,226,69046,1,8
114,249,69219,1,0
65,175,69393,2,2,B|92:82|211:88|211:88|211:89,1,160,2|2
248,26,69915,2,0,B|335:66|280:184,1,160,4|0
239,238,70436,1,2
154,215,70610,1,0
49,304,70784,5,4
124,350,70958,1,0
212,350,71131,1,8
291,311,71305,1,0
339,237,71479,2,2,B|407:198|444:242,2,80,2|0|8
252,254,72001,1,0
178,207,72174,2,2,B|193:110|299:92,1,160
336,168,72696,2,0,B|440:192|467:82,1,160,4|0
416,32,73217,1,2
152,80,73565,5,4
256,224,73913,1,0
128,336,74260,5,0
384,336,74608,1,2
256,112,74956,2,2,B|216:184|320:224|232:304,2,160,2|2|4
256,112,75999,1,0
32,200,76346,5,10
256,352,76694,1,2
480,200,77042,1,10
256,248,77389,6,0,B|256:136,1,80,2|0
255,53,77737,1,4
256,192,77911,12,4,79128
256,192,81214,12,0,81909
448,56,82604,6,4,B|432:176|320:112|224:152|208:264,1,320,4|8
239,323,83474,1,2
167,373,83647,1,0
14,273,83995,5,8
34,187,84169,1,2
82,113,84343,1,8
157,68,84517,1,2
257,43,84690,5,4
257,337,85038,1,0
85,203,85386,2,0,B|150:164|210:234|255:192,1,160,4|0
415,75,86081,5,8
353,137,86255,2,0,B|308:134|268:84,2,80,2|8|0
432,176,86776,1,4
316,344,87124,1,2
106,289,87472,1,4
106,289,87819,5,4
256,196,88167,2,0,B|233:94|114:74,1,160,0|8
66,112,88689,1,0
22,240,88862,6,2,B|128:250|178:172,1,160,2|2
229,123,89384,1,2
277,49,89558,2,0,B|355:115|313:236,1,160,4|8
380,261,90079,1,2
414,342,90253,6,0,B|255:387|87:339,2,320,4|4|4
256,192,91991,1,0
256,192,92339,12,4,93034
258,328,93382,5,0
336,64,93730,2,4,B|144:64|144:64,1,160
32,208,94425,6,2,B|48:312|160:296,1,160
197,224,94947,1,2
258,162,95120,1,8
195,224,95294,1,0
116,186,95468,1,0
208,36,95816,1,4
379,78,96163,5,2
254,203,96511,1,4
334,360,96859,1,8
143,358,97206,5,2
170,274,97380,1,0
229,208,97554,1,8
314,181,97728,1,2
400,203,97902,2,2,B|494:167|511:58,2,160,6|6|6
256,62,98945,5,8
346,212,99292,2,0,B|347:328|227:373,1,160,4|8
183,347,99814,1,0
96,376,99988,6,2,B|20:328|26:240,1,160,2|10
60,160,100509,1,0
140,125,100683,1,0
210,177,100857,1,0
295,199,101031,1,10
375,163,101205,1,0
481,40,101378,5,4
481,343,102074,1,4
30,343,102769,1,4
30,194,103117,1,8
30,40,103464,1,2
176,192,103812,2,6,B|352:192,1,160,2|4
488,56,110418,6,2,B|512:136|472:304|328:344,1,320,2|4
285,172,111461,1,8
198,177,111634,1,0
142,245,111808,1,4
17,370,112156,1,0
16,200,112504,5,6
256,24,112851,1,10
496,200,113199,1,6
256,144,113547,5,4
256,248,113720,1,2
179,336,113894,2,6,B|267:376|363:320,2,160,4|4|6
88,200,114937,5,4
424,200,115285,1,4
256,40,115633,5,8
112,87,115806,5,0
62,160,115980,1,2
85,245,116154,1,2
171,229,116328,1,8
234,291,116502,1,0
208,376,116676,2,4,B|328:383|352:302,1,160,4|0
435,314,117197,2,0,B|415:212|304:202,1,160,0|0
246,229,117719,1,2
184,167,117892,1,0
219,40,118066,5,2
294,84,118240,1,0
377,54,118414,1,8
439,116,118588,1,0
363,161,118762,2,2,B|318:192|283:250,2,80,2|0|10
426,223,119283,1,0
466,301,119457,2,6,B|365:315|309:376,1,160,2|2
259,302,119978,2,0,B|227:207|121:181,1,160,4|0
65,169,120500,1,2
100,42,120848,5,4
256,200,121195,1,4
96,352,121543,5,0
256,264,121891,1,2
424,352,122238,2,2,B|456:256|416:176,2,160,2|2|4
256,264,123281,1,0
256,112,123629,5,4
136,272,123977,1,10
376,272,124324,1,10
256,112,124672,5,2
256,192,124846,1,0
256,272,125020,1,4
392,48,125367,1,6
120,48,125715,1,6
336,200,126063,6,4,B|144:200,1,160
32,96,126758,1,8
192,56,126932,5,0
269,97,127106,1,2
269,184,127279,1,2
331,244,127453,1,8
413,213,127627,1,0
455,136,127801,2,2,B|551:197|490:303|490:303|469:323,1,160
439,347,128322,2,4,B|253:347,1,160,4|0
211,291,128844,1,2
256,215,129018,1,0
192,84,129192,5,4
105,100,129365,1,0
43,162,129539,1,8
88,238,129713,1,0
170,206,129887,2,2,B|225:217|243:246,2,80,2|0|8
108,143,130408,1,0
140,61,130582,2,2,B|227:22|298:106,1,160,2|2
264,176,131104,2,4,B|291:251|396:247,1,160,4|0
472,200,131625,1,2
384,40,131973,5,4
128,40,132321,1,0
336,136,132668,5,0
160,232,133016,1,2
331,345,133364,2,2,B|255:381|167:341,2,160,2|2|4
255,197,134407,1,0
96,240,134754,5,10
424,240,135102,1,2
256,72,135449,1,10
255,349,135797,6,2,B|255:253,1,80,2|0
255,157,136145,1,4
255,157,136492,1,4
255,157,136840,1,4
256,192,136927,12,4,137535
128,295,140317,5,4
384,295,140664,1,8
456,205,140838,5,0
432,120,141012,1,2
369,183,141186,1,2
285,207,141360,1,8
223,145,141534,1,2
292,86,141707,2,0,B|236:19|150:69|143:73,1,160,4|0
83,133,142229,2,0,B|189:123|242:223,1,160,2|0
131,266,142750,5,8
51,228,142924,1,0
12,307,143098,1,4
78,372,143272,1,2
164,356,143446,1,8
227,293,143620,1,0
257,211,143793,2,2,B|283:167|325:153,2,80,2|2|8
319,274,144315,1,0
368,347,144489,2,0,B|444:296|396:193,1,160,4|0
316,229,145010,2,4,B|231:291|145:198,1,160,4|2
84,142,145532,5,2
427,142,145879,1,6
303,18,146053,5,2
228,65,146227,1,8
261,147,146401,1,0
343,115,146575,1,2
405,178,146749,1,0
366,256,146922,1,8
283,286,147096,1,0
312,202,147270,2,0,B|214:178|171:302,1,160,4|0
246,333,147792,2,0,B|168:388|93:301,1,160,2|0
28,209,148313,5,0
55,125,148487,1,0
131,81,148661,1,4
218,99,148835,1,2
191,182,149008,1,8
238,257,149182,1,0
326,257,149355,2,2,B|380:231|382:159,2,80,4|2|2
281,181,149878,1,0
323,104,150051,2,0,B|252:54|156:107,1,160,4|0
171,187,150573,2,2,B|251:232|328:186,1,160,2|0
253,127,151094,5,2
256,355,151442,1,4
104,56,159786,5,4
456,112,160481,1,4
200,344,161177,1,4
409,177,161872,5,4
257,81,162220,1,2
103,177,162567,1,4
257,338,162915,5,0
35,182,163263,6,4,B|70:99|158:54,2,160
108,342,164306,1,2
193,320,164480,1,0
255,256,164653,1,8
279,171,164827,1,0
353,123,165001,1,0
477,0,165349,6,0,B|515:64|450:180,1,160,4|8
386,193,165870,1,0
307,153,166044,2,2,B|224:214|267:325|267:325|264:326,2,160
468,250,167087,1,8
334,354,167435,1,8
243,349,167608,1,0
167,305,167782,1,0
92,64,168130,6,0,B|196:36|263:134|263:134|263:137,1,160,4|8
255,193,168651,1,0
174,191,168825,1,2
90,345,169173,1,2
256,256,169521,1,4
421,345,169868,1,0
256,376,170216,6,2,B|256:208,1,160,2|2
256,40,170911,1,4
256,192,171085,12,0,172997
136,62,173693,5,4
392,166,174040,1,8
288,286,174214,5,0
203,262,174388,1,2
126,305,174562,1,2
39,321,174736,1,8
0,253,174909,1,0
67,196,175083,2,0,B|130:124|78:39,1,160,4|0
19,109,175605,2,0,B|67:164|203:146,1,160,0|0
244,105,176126,1,2
329,124,176300,1,0
418,164,176474,5,4
417,252,176648,1,0
354,313,176822,1,8
275,274,176995,1,0
186,273,177169,2,2,B|164:321|116:317,2,80,2|0|8
251,213,177691,1,0
278,129,177865,2,0,B|323:57|444:51,1,160,4|0
485,103,178386,2,4,B|525:200|444:284,1,160,0|0
394,303,178908,1,2
256,127,179255,5,4
176,296,179603,1,8
256,320,179777,1,0
336,296,179951,1,2
400,120,180298,2,2,B|318:34|202:34|112:120,1,320,4|0
144,344,181341,5,0
368,344,181689,1,0
256,192,182037,1,10
256,320,182384,1,4
256,64,182732,1,10
107,51,183080,5,2
31,94,183253,1,0
6,188,183427,2,2,B|-20:280|16:378,2,160,2|2|2
256,192,184470,1,4
505,188,184818,1,4
349,51,185166,5,8
236,121,185339,5,0
150,100,185513,1,2
75,147,185687,1,2
45,229,185861,1,8
122,270,186035,1,0
185,208,186209,2,2,B|303:211|342:334,1,160
379,348,186730,2,0,B|408:243|504:207,1,160,4|0
512,142,187252,1,2
466,67,187425,1,0
327,124,187599,5,4
290,204,187773,1,0
368,248,187947,1,8
324,325,188121,1,0
241,355,188295,2,2,B|168:370|129:339,2,80,2|0|8
280,276,188816,1,0
197,246,188990,2,2,B|116:199|107:95,1,160,6|2
172,55,189511,2,0,B|344:55,1,160,4|0
420,55,190033,1,2
484,230,190381,5,4
256,352,190728,1,0
144,240,191076,5,0
368,240,191424,1,2
256,64,191771,2,2,B|304:136|208:160|264:240,1,160
376,344,192467,1,4
136,344,192814,1,4
400,296,193162,5,10
96,184,193510,1,2
256,8,193857,1,10
256,192,194553,12,2,195596
256,192,195943,5,4
