osu file format v13

[General]
AudioFilename: 01_If_You_Love_Me_feat.mp3
AudioLeadIn: 0
PreviewTime: 60894
Countdown: 0
SampleSet: Soft
StackLeniency: 0.7
Mode: 0
LetterboxInBreaks: 0
WidescreenStoryboard: 0

[Editor]
DistanceSpacing: 1.2
BeatDivisor: 4
GridSize: 8
TimelineZoom: 1.3

[Metadata]
Title:If You Love Me (feat. Jay Park)
TitleUnicode:If You Love Me (feat. Jay Park)
Artist:NS Yoon-G
ArtistUnicode:NS Yoon-G
Creator:[ Joey ]
Version:Insane
Source:
Tags:yoonji k-pop
BeatmapID:427073
BeatmapSetID:177435

[Difficulty]
HPDrainRate:7
CircleSize:4
OverallDifficulty:7
ApproachRate:9
SliderMultiplier:2
SliderTickRate:2

[Events]
//Background and Video events
0,0,"Background.jpg",0,0
//Break Periods
2,83482,87117
//Storyboard Layer 0 (Background)
//Storyboard Layer 1 (Fail)
//Storyboard Layer 2 (Pass)
//Storyboard Layer 3 (Foreground)
//Storyboard Sound Samples
//Background Colour Transformations
3,100,163,162,255

[TimingPoints]
15718,352.941176470588,4,2,0,75,1,0
27012,-133.333333333333,4,2,0,50,0,0
33365,-133.333333333333,4,2,2,50,0,0
33541,-133.333333333333,4,2,0,50,0,0
36894,-133.333333333333,4,3,1,60,0,0
38306,-117.647058823529,4,2,0,65,0,0
40600,-117.647058823529,4,2,0,50,0,0
41129,-117.647058823529,4,2,0,65,0,0
49600,-111.111111111111,4,2,0,65,0,0
60894,-100,4,2,0,80,0,1
72894,-100,4,2,2,80,0,1
73070,-100,4,2,0,80,0,1
83482,-117.647058823529,4,2,0,65,0,0
87717,-117.647058823529,4,3,1,65,0,0
89306,-117.647058823529,4,2,0,65,0,0
89835,-117.647058823529,4,2,2,65,0,0
90012,-117.647058823529,4,2,0,65,0,0
91247,-117.647058823529,4,2,2,65,0,0
91423,-117.647058823529,4,2,0,65,0,0
106070,-100,4,2,0,80,0,1
118070,-100,4,2,2,80,0,1
118247,-100,4,2,0,80,0,1
128659,-117.647058823529,4,2,1,70,0,0
138541,-117.647058823529,4,3,1,70,0,0
139953,-111.111111111111,4,2,1,70,0,0
147012,-111.111111111111,4,2,0,70,0,0
147365,-111.111111111111,4,2,0,80,0,0
147717,-111.111111111111,4,2,0,90,0,0
148070,-111.111111111111,4,2,0,100,0,0
149482,-111.111111111111,4,2,0,5,0,0
149835,-111.111111111111,4,2,0,100,0,0
150894,-111.111111111111,4,2,0,5,0,0
151247,-100,4,2,0,80,0,1
163247,-100,4,2,2,80,0,1
163423,-100,4,2,0,80,0,1
173835,-133.333333333333,4,2,0,30,0,0
195717,-133.333333333333,4,2,0,26,0,0
196070,-133.333333333333,4,2,0,22,0,0
196423,-133.333333333333,4,2,0,18,0,0
196776,-133.333333333333,4,2,0,14,0,0
197129,-133.333333333333,4,2,0,10,0,0
197482,-133.333333333333,4,2,0,6,0,0

[Colours]
Combo1 : 227,28,113
Combo2 : 30,206,225
Combo3 : 173,124,233
Combo4 : 55,210,67

[HitObjects]
378,160,15718,5,0,0:0:0:0:
291,244,15894,1,0,0:0:0:0:
346,350,16070,2,0,P|394:313|398:246,1,100,2|0,0:0|0:0,0:0:0:0:
378,160,16423,1,8,0:0:0:0:
139,189,16776,6,0,L|36:227,1,100,2|0,0:0|0:0,0:0:0:0:
139,298,17129,2,0,L|242:260,1,100
304,167,17482,1,2,0:0:0:0:
424,167,17659,1,0,0:0:0:0:
408,294,17835,2,0,P|319:261|304:167,1,200,8|2,0:0|0:0,0:0:0:0:
296,33,18365,1,0,0:0:0:0:
424,167,18541,5,0,0:0:0:0:
249,105,18718,2,0,P|212:66|209:16,1,100
346,113,19070,1,0,0:0:0:0:
253,191,19247,2,0,P|159:217|94:149,1,200,8|0,0:0|0:0,0:0:0:0:
209,116,19776,6,0,P|257:101|314:127,1,100
372,226,20129,1,0,0:0:0:0:
492,275,20306,1,2,0:0:0:0:
477,146,20482,1,0,0:0:0:0:
372,226,20659,2,0,B|294:251|294:251|258:317|172:293,1,200,8|2,0:0|0:0,0:0:0:0:
118,182,21188,2,0,L|248:225,2,100
288,193,21718,6,0,P|286:245|234:284,1,100,2|0,0:0|0:0,0:0:0:0:
127,303,22070,1,8,0:0:0:0:
44,202,22247,2,0,P|44:153|77:117,1,100,2|0,0:0|0:0,0:0:0:0:
208,122,22600,1,0,0:0:0:0:
209,122,22688,1,0,0:0:0:0:
208,122,22776,1,2,0:0:0:0:
266,238,22953,2,0,P|339:254|381:230,1,100
394,49,23306,5,0,0:0:0:0:
479,133,23482,1,8,0:0:0:0:
307,132,23659,1,0,0:0:0:0:
394,31,23835,1,2,0:0:0:0:
495,141,24012,1,0,0:0:0:0:
293,143,24188,6,0,L|261:250,1,100,0|0,0:0|0:0,0:0:0:0:
150,199,24541,2,0,L|121:294,1,100,2|0,0:0|0:0,0:0:0:0:
232,226,24894,2,0,P|232:175|187:123,1,100,0|0,0:0|0:0,0:0:0:0:
66,176,25247,2,0,P|66:227|111:279,1,100,2|0,0:0|0:0,0:0:0:0:
215,309,25600,5,0,0:0:0:0:
317,229,25776,2,0,P|328:156|225:79,1,200,2|0,0:0|0:0,0:0:0:0:
233,176,26306,2,0,P|322:123|324:21,1,200,2|0,0:0|0:0,0:0:0:0:
440,103,26835,1,0,0:0:0:0:
387,185,27012,6,0,L|340:256,1,75.0000028610231,2|0,0:0|0:0,0:0:0:0:
478,214,27365,1,0,0:0:0:0:
459,124,27541,2,0,P|393:85|309:129,1,150.000005722046,2|0,0:0|0:0,0:0:0:0:
264,180,28070,1,2,0:0:0:0:
176,156,28247,1,0,0:0:0:0:
283,260,28423,2,0,P|322:238|341:205,1,75.0000028610231
176,156,28776,2,0,P|134:171|109:213,1,75.0000028610231,2|0,0:0|0:0,0:0:0:0:
191,242,29129,1,8,0:0:0:0:
370,247,29482,6,0,P|406:243|457:219,1,75.0000028610231,2|0,0:0|0:0,0:0:0:0:
262,341,29835,2,0,P|227:331|161:328,1,75.0000028610231
117,245,30188,1,2,0:0:0:0:
16,118,30365,2,0,L|35:190,1,75.0000028610231,0|8,0:0|0:0,0:0:0:0:
101,100,30718,2,0,L|82:27,1,75.0000028610231,0|2,0:0|0:0,0:0:0:0:
231,294,31070,2,0,B|276:254|276:191|237:191|237:121|278:87,1,225.000008583069
171,148,31776,1,0,0:0:0:0:
332,150,31953,1,8,0:0:0:0:
262,262,32306,6,0,P|221:271|182:305,1,75.0000028610231,2|0,0:0|0:0,0:0:0:0:
261,349,32659,2,0,P|301:340|340:306,1,75.0000028610231
348,232,33012,1,2,0:0:0:0:
340,64,33188,2,0,P|264:100|249:166,1,150.000005722046
332,149,33718,1,2,0:0:0:0:
205,48,33894,6,0,P|179:100|176:196,1,150.000005722046
242,250,34423,1,2,0:0:0:0:
242,249,34600,1,0,0:0:0:0:
242,249,34776,2,0,P|310:253|402:195,1,150.000005722046,8|2,0:0|0:0,0:0:0:0:
418,134,35306,5,0,0:0:0:0:
253,170,35482,2,0,P|208:175|174:205,1,75.0000028610231
138,269,35835,1,2,0:0:0:0:
315,213,36012,2,0,P|328:178|309:121,1,75.0000028610231,0|8,0:0|0:0,0:0:0:0:
178,170,36365,2,0,L|253:170,1,75.0000028610231,0|2,0:0|0:0,0:0:0:0:
401,173,36718,1,2,0:0:0:0:
329,94,36894,5,0,0:0:0:0:
329,94,37070,1,0,0:0:0:0:
329,285,37423,1,0,0:0:0:0:
329,285,37599,1,8,0:0:0:0:
478,193,37953,1,0,0:0:0:0:
478,193,38129,1,0,0:0:0:0:
478,193,38306,6,0,P|446:238|408:250,1,85.0000016212464,0|0,0:0|0:0,0:0:0:0:
331,196,38659,1,2,0:0:0:0:
244,249,38835,2,0,P|206:239|176:203,1,85.0000016212464,0|8,0:0|0:0,0:0:0:0:
50,178,39188,2,0,P|40:124|132:43,1,170.000003242493,2|0,0:0|0:0,0:0:0:0:
140,139,39718,6,0,P|195:149|244:117,1,85.0000016212464,2|0,0:0|0:0,0:0:0:0:
270,232,40070,2,0,P|183:259|93:236,1,170.000003242493,2|8,0:0|0:0,0:0:0:0:
50,178,40600,1,0,0:0:0:0:
147,51,40776,1,2,0:0:0:0:
56,82,40953,1,0,0:0:0:0:
210,176,41129,6,0,L|306:224,1,85.0000016212464
382,178,41482,2,0,P|383:246|313:312,1,170.000003242493,2|8,0:0|0:0,0:0:0:0:
212,335,42012,1,0,0:0:0:0:
119,293,42188,2,0,P|64:286|29:299,1,85.0000016212464,2|0,0:0|0:0,0:0:0:0:
210,176,42541,2,0,P|240:130|236:12,1,170.000003242493,0|2,0:0|0:0,0:0:0:0:
159,51,43070,1,0,0:0:0:0:
57,156,43247,2,0,L|122:211,1,85.0000016212464,8|0,0:0|0:0,0:0:0:0:
88,73,43600,2,0,L|12:7,1,85.0000016212464,2|0,0:0|0:0,0:0:0:0:
122,211,43953,6,0,P|210:177|224:86,1,170.000003242493,0|2,0:0|0:0,0:0:0:0:
321,65,44482,2,0,P|365:85|418:84,1,85.0000016212464,0|8,0:0|0:0,0:0:0:0:
501,66,44835,2,0,P|476:153|396:183,1,170.000003242493,2|0,0:0|0:0,0:0:0:0:
227,159,45365,1,2,0:0:0:0:
227,159,45717,2,0,P|179:142|89:217,1,170.000003242493,2|8,0:0|0:0,0:0:0:0:
146,289,46247,5,0,0:0:0:0:
293,309,46423,1,2,0:0:0:0:
210,358,46600,1,0,0:0:0:0:
312,192,46776,6,0,P|360:192|408:216,1,85.0000016212464,2|0,0:0|0:0,0:0:0:0:
256,248,47129,2,0,P|256:296|232:344,1,85.0000016212464,2|0,0:0|0:0,0:0:0:0:
200,192,47482,2,0,P|152:192|104:168,1,85.0000016212464,2|0,0:0|0:0,0:0:0:0:
256,136,47835,2,0,P|256:88|280:40,1,85.0000016212464,2|0,0:0|0:0,0:0:0:0:
256,192,48188,12,0,49247,0:0:0:0:
104,359,49600,5,0,0:0:0:0:
149,250,49776,1,0,0:0:0:0:
104,145,49953,2,0,P|148:133|204:156,1,89.9999972534181,2|0,0:0|0:0,0:0:0:0:
402,143,50306,2,0,P|359:131|317:144,1,89.9999972534181,8|0,0:0|0:0,0:0:0:0:
421,263,50659,5,2,0:0:0:0:
344,338,50835,1,0,0:0:0:0:
237,317,51012,2,0,P|262:261|306:245,1,89.9999972534181
402,143,51365,2,0,P|390:185|355:213,1,89.9999972534181,2|0,0:0|0:0,0:0:0:0:
253,92,51717,5,8,0:0:0:0:
351,55,51894,1,0,0:0:0:0:
252,215,52070,2,0,L|147:215,1,89.9999972534181,2|0,0:0|0:0,0:0:0:0:
95,93,52423,5,0,0:0:0:0:
95,93,52600,1,0,0:0:0:0:
38,216,52776,2,0,L|-4:311,1,89.9999972534181,2|0,0:0|0:0,0:0:0:0:
198,298,53129,2,0,L|162:216,1,89.9999972534181,8|0,0:0|0:0,0:0:0:0:
282,307,53482,6,0,P|328:316|391:290,1,89.9999972534181,2|0,0:0|0:0,0:0:0:0:
198,298,53835,2,0,P|151:294|94:327,1,89.9999972534181
4,318,54188,1,2,0:0:0:0:
4,318,54365,1,0,0:0:0:0:
37,215,54541,2,0,P|50:170|32:110,2,89.9999972534181,8|0|2,0:0|0:0|0:0,0:0:0:0:
4,318,55070,1,0,0:0:0:0:
119,220,55247,6,0,L|194:158,1,89.9999972534181
345,93,55600,2,0,L|257:165,1,89.9999972534181,2|0,0:0|0:0,0:0:0:0:
336,359,55953,2,0,P|367:327|382:285,1,89.9999972534181,0|0,0:0|0:0,0:0:0:0:
394,257,56217,1,0,0:0:0:0:
403,231,56306,2,0,P|421:184|461:150,1,89.9999972534181,2|0,0:0|0:0,0:0:0:0:
321,224,56659,6,0,P|303:177|263:143,2,89.9999972534181,0|0|2,0:0|0:0|0:0,0:0:0:0:
134,245,57188,1,0,0:0:0:0:
134,245,57365,2,0,P|90:248|41:243,1,89.9999972534181,8|0,0:0|0:0,0:0:0:0:
160,335,57717,2,0,P|204:332|253:337,1,89.9999972534181,2|0,0:0|0:0,0:0:0:0:
358,348,58070,5,0,0:0:0:0:
429,272,58247,1,0,0:0:0:0:
312,188,58423,2,0,P|277:219|249:290,1,89.9999972534181,2|0,0:0|0:0,0:0:0:0:
154,165,58776,5,0,0:0:0:0:
83,241,58953,1,0,0:0:0:0:
200,325,59129,2,0,P|235:294|263:223,1,89.9999972534181,2|0,0:0|0:0,0:0:0:0:
107,90,59482,5,8,0:0:0:0:
83,241,59659,1,0,0:0:0:0:
254,108,59835,2,0,P|338:90|408:183,1,179.999994506836,8|4,0:0|0:0,0:0:0:0:
456,246,60365,1,8,0:0:0:0:
456,246,60453,1,0,0:0:0:0:
456,246,60541,1,8,0:0:0:0:
381,324,60717,1,0,0:0:0:0:
449,140,60894,6,0,P|409:69|276:50,1,200,4|2,0:0|0:0,0:0:0:0:
193,98,61423,1,0,0:0:0:0:
193,218,61600,1,8,0:0:0:0:
382,324,61776,2,0,P|457:255|400:160,1,200,0|2,0:0|0:0,0:0:0:0:
270,113,62306,6,0,P|285:210|398:229,1,200,4|2,0:0|0:0,0:0:0:0:
422,55,62835,2,0,L|361:135,1,100,0|8,0:0|0:0,0:0:0:0:
270,113,63188,2,0,P|167:98|104:195,1,200,2|2,0:0|0:0,0:0:0:0:
176,320,63717,6,0,P|176:211|65:163,1,200,0|2,0:0|0:0,0:0:0:0:
81,272,64247,2,0,L|39:369,1,100,0|8,0:0|0:0,0:0:0:0:
18,197,64600,2,0,P|28:107|129:70,1,200,0|2,0:0|0:0,0:0:0:0:
283,164,65129,2,0,P|317:221|348:245,1,100
342,94,65482,2,0,P|272:73|187:165,1,200,2|8,0:0|0:0,0:0:0:0:
179,274,66012,5,0,0:0:0:0:
267,354,66188,1,2,0:0:0:0:
385,332,66365,1,0,0:0:0:0:
501,167,66541,6,0,P|427:88|315:112,1,200,4|2,0:0|0:0,0:0:0:0:
241,159,67070,2,0,L|118:139,1,100,0|8,0:0|0:0,0:0:0:0:
350,170,67423,2,0,B|422:153|419:76|419:76|462:66|490:28,1,200
293,82,67953,6,0,P|240:162|287:252,1,200,4|2,0:0|0:0,0:0:0:0:
444,153,68482,2,0,P|383:176|340:167,1,100,0|8,0:0|0:0,0:0:0:0:
188,56,68835,2,0,B|105:-17|63:93|-17:17,1,200,0|2,0:0|0:0,0:0:0:0:
128,103,69365,6,0,B|205:177|256:65|336:141,1,200,0|2,0:0|0:0,0:0:0:0:
408,271,69894,2,0,P|373:250|346:176,1,100,0|8,0:0|0:0,0:0:0:0:
378,71,70247,2,0,P|285:37|183:59,1,200,0|2,0:0|0:0,0:0:0:0:
159,173,70776,2,0,L|55:198,1,100,4|0,0:0|0:0,0:0:0:0:
197,267,71129,2,0,P|265:189|197:84,1,200,2|8,0:0|0:0,0:0:0:0:
72,152,71659,5,0,0:0:0:0:
127,24,71835,1,2,0:0:0:0:
236,107,72012,1,0,0:0:0:0:
393,191,72188,6,0,P|450:195|497:161,1,100,4|0,0:0|0:0,0:0:0:0:
489,54,72541,1,2,0:0:0:0:
363,101,72717,2,0,P|307:147|339:265,1,200
227,321,73247,2,0,P|177:335|116:305,1,100,2|0,0:0|0:0,0:0:0:0:
72,156,73600,2,0,P|164:160|228:240,1,200,0|2,0:0|0:0,0:0:0:0:
316,343,74129,6,0,P|369:350|416:322,1,100,0|8,0:0|0:0,0:0:0:0:
334,197,74482,1,0,0:0:0:0:
448,116,74659,1,0,0:0:0:0:
475,247,74835,1,2,0:0:0:0:
316,343,75012,6,0,L|201:319,1,100,4|0,0:0|0:0,0:0:0:0:
111,266,75365,1,2,0:0:0:0:
85,149,75541,2,0,P|143:143|183:174,1,100,0|8,0:0|0:0,0:0:0:0:
334,197,75894,6,0,P|240:228|172:136,1,200,0|2,0:0|0:0,0:0:0:0:
111,266,76423,2,0,L|11:312,1,100
132,350,76776,2,0,L|331:257,1,200,2|8,0:0|0:0,0:0:0:0:
411,194,77306,5,0,0:0:0:0:
390,76,77482,1,2,0:0:0:0:
277,33,77659,1,0,0:0:0:0:
130,168,77835,6,0,P|112:232|112:290,1,100,0|0,0:0|0:0,0:0:0:0:
227,290,78188,1,2,0:0:0:0:
307,200,78365,1,0,0:0:0:0:
130,168,78541,6,0,P|70:157|10:168,1,100,8|0,0:0|0:0,0:0:0:0:
9,279,78894,1,2,0:0:0:0:
81,374,79070,1,0,0:0:0:0:
227,290,79247,6,0,L|258:195,1,100,0|0,0:0|0:0,0:0:0:0:
113,279,79600,2,0,L|81:373,1,100,2|0,0:0|0:0,0:0:0:0:
258,196,79953,2,0,P|213:169|158:168,1,100,8|0,0:0|0:0,0:0:0:0:
327,247,80306,2,0,P|331:333|413:304,1,200,6|0,0:0|0:0,0:0:0:0:
326,247,80835,6,0,P|252:194|141:202,1,200,0|2,0:0|0:0,0:0:0:0:
162,79,81365,2,0,P|259:113|358:91,1,200,8|2,0:0|0:0,0:0:0:0:
471,195,81894,2,0,P|434:127|447:71,1,100
326,247,82247,5,4,0:0:0:0:
94,181,82600,1,0,0:0:0:0:
91,300,82776,1,4,0:0:0:0:
326,247,83129,1,4,0:0:0:0:
398,282,87717,5,0,0:0:0:0:
398,282,87894,1,0,0:0:0:0:
343,64,88247,1,0,0:0:0:0:
343,64,88423,1,0,0:0:0:0:
125,164,88776,5,0,0:0:0:0:
83,247,88953,1,0,0:0:0:0:
154,316,89129,2,0,P|182:259|171:208,1,85.0000016212464,0|0,0:0|0:0,0:0:0:0:
267,145,89482,1,0,0:0:0:0:
343,63,89659,2,0,P|378:130|318:238,1,170.000003242493,0|2,0:0|0:0,0:0:0:0:
294,301,90188,1,0,0:0:0:0:
183,223,90365,6,0,P|220:214|283:237,1,85.0000016212464,0|2,0:0|0:0,0:0:0:0:
154,317,90717,2,0,P|105:326|65:306,1,85.0000016212464,0|2,0:0|0:0,0:0:0:0:
79,108,91070,2,0,P|155:147|182:237,1,170.000003242493
264,284,91600,1,0,0:0:0:0:
358,246,91776,1,0,0:0:0:0:
338,85,91953,6,0,P|300:104|275:172,1,85.0000016212464,2|0,0:0|0:0,0:0:0:0:
263,284,92306,2,0,P|260:236|210:190,1,85.0000016212464
126,128,92659,2,0,P|188:146|233:124,2,85.0000016212464,2|0|0,0:0|0:0|0:0,0:0:0:0:
42,187,93188,1,0,0:0:0:0:
215,219,93365,2,0,P|312:219|342:303,1,170.000003242493,2|0,0:0|0:0,0:0:0:0:
338,376,93894,5,0,0:0:0:0:
399,187,94070,2,0,P|406:134|446:89,1,85.0000016212464,6|0,0:0|0:0,0:0:0:0:
491,234,94423,2,0,P|438:282|325:260,1,170.000003242493,0|2,0:0|0:0,0:0:0:0:
205,124,94953,5,0,0:0:0:0:
332,127,95129,1,2,0:0:0:0:
264,204,95306,1,0,0:0:0:0:
131,260,95482,2,0,L|37:260,1,85.0000016212464,8|0,0:0|0:0,0:0:0:0:
200,329,95835,2,0,L|297:329,1,85.0000016212464,2|0,0:0|0:0,0:0:0:0:
512,247,96188,6,0,L|376:247,1,127.50000243187
348,204,96541,2,0,L|235:204,1,85.0000016212464
285,329,96894,2,0,P|308:358|380:367,1,85.0000016212464,8|0,0:0|0:0,0:0:0:0:
262,204,97247,2,0,P|204:142|115:139,1,170.000003242493,6|0,0:0|0:0,0:0:0:0:
153,260,97776,5,0,0:0:0:0:
284,329,97953,2,0,L|359:257,1,85.0000016212464,2|0,0:0|0:0,0:0:0:0:
444,244,98306,2,0,L|519:172,2,85.0000016212464,8|0|2,0:0|0:0|0:0,0:0:0:0:
345,270,98835,1,0,0:0:0:0:
268,165,99012,6,0,P|255:209|287:262,1,85.0000016212464
445,244,99365,2,0,P|457:204|444:164,1,85.0000016212464,2|0,0:0|0:0,0:0:0:0:
317,104,99717,2,0,P|357:91|397:105,1,85.0000016212464,8|0,0:0|0:0,0:0:0:0:
269,245,100070,2,0,P|232:300|114:303,1,170.000003242493,6|0,0:0|0:0,0:0:0:0:
21,157,100600,5,0,0:0:0:0:
171,219,100776,1,2,0:0:0:0:
142,83,100953,1,0,0:0:0:0:
76,260,101129,2,0,P|111:306|169:311,1,85.0000016212464,8|0,0:0|0:0,0:0:0:0:
238,174,101482,2,0,P|193:192|164:242,1,85.0000016212464,2|0,0:0|0:0,0:0:0:0:
290,321,101835,5,0,0:0:0:0:
471,252,102012,1,0,0:0:0:0:
404,350,102188,1,2,0:0:0:0:
289,321,102365,1,0,0:0:0:0:
238,174,102541,2,0,L|131:157,1,85.0000016212464,8|0,0:0|0:0,0:0:0:0:
282,113,102894,2,0,P|314:181|254:247,1,170.000003242493,6|0,0:0|0:0,0:0:0:0:
156,245,103423,6,0,L|63:289,2,85.0000016212464,0|2|0,0:0|0:0|0:0,0:0:0:0:
282,113,103953,2,0,P|360:85|456:137,1,170.000003242493,0|2,0:0|0:0,0:0:0:0:
462,214,104482,1,0,0:0:0:0:
399,294,104659,1,0,0:0:0:0:
297,300,104835,5,0,0:0:0:0:
297,300,105012,2,0,P|241:260|240:211,1,85.0000016212464,2|0,0:0|0:0,0:0:0:0:
282,113,105365,2,0,P|293:203|231:250,1,170.000003242493,0|2,0:0|0:0,0:0:0:0:
169,67,106070,6,0,P|271:78|345:14,1,200,4|2,0:0|0:0,0:0:0:0:
384,132,106600,2,0,P|359:181|363:254,1,100,0|8,0:0|0:0,0:0:0:0:
476,230,106953,2,0,P|377:218|287:258,1,200,0|2,0:0|0:0,0:0:0:0:
67,247,107482,6,0,P|178:241|259:182,1,200,4|2,0:0|0:0,0:0:0:0:
385,132,108012,2,0,L|507:155,1,100,0|8,0:0|0:0,0:0:0:0:
249,193,108365,2,0,L|40:153,1,200,0|2,0:0|0:0,0:0:0:0:
296,254,108894,6,0,P|310:145|208:129,1,200,0|2,0:0|0:0,0:0:0:0:
296,254,109423,2,0,L|413:271,1,100,0|8,0:0|0:0,0:0:0:0:
234,324,109776,2,0,P|150:296|107:169,1,200,0|2,0:0|0:0,0:0:0:0:
296,254,110306,2,0,P|324:294|316:355,1,100
251,181,110659,2,0,P|247:106|326:15,1,200,2|8,0:0|0:0,0:0:0:0:
348,133,111188,5,0,0:0:0:0:
251,181,111364,1,2,0:0:0:0:
173,88,111541,1,0,0:0:0:0:
348,132,111717,6,0,B|379:179|351:231|351:231|410:222|450:273,1,200,4|2,0:0|0:0,0:0:0:0:
181,247,112247,2,0,P|212:201|263:179,1,100,0|8,0:0|0:0,0:0:0:0:
366,332,112600,2,0,P|297:366|176:309,1,200,0|2,0:0|0:0,0:0:0:0:
57,120,113129,6,0,P|119:134|178:265,1,200,4|2,0:0|0:0,0:0:0:0:
268,172,113658,2,0,L|327:73,1,100,0|8,0:0|0:0,0:0:0:0:
358,246,114012,2,0,P|267:286|165:226,1,200,0|2,0:0|0:0,0:0:0:0:
349,143,114541,6,0,L|369:349,1,200,0|2,0:0|0:0,0:0:0:0:
464,269,115070,2,0,P|473:236|532:172,1,100,0|8,0:0|0:0,0:0:0:0:
349,143,115423,2,0,P|292:232|204:257,1,200,0|2,0:0|0:0,0:0:0:0:
304,80,115953,2,0,P|355:64|405:88,1,100,4|0,0:0|0:0,0:0:0:0:
232,112,116306,2,0,P|137:138|42:110,1,200,2|8,0:0|0:0,0:0:0:0:
138,35,116835,5,0,0:0:0:0:
217,202,117011,1,2,0:0:0:0:
66,202,117188,1,0,0:0:0:0:
232,112,117365,6,0,P|291:103|341:71,1,100,4|0,0:0|0:0,0:0:0:0:
438,21,117717,1,2,0:0:0:0:
390,139,117894,2,0,P|351:232|367:339,1,200
241,302,118423,2,0,L|145:232,1,100,2|0,0:0|0:0,0:0:0:0:
14,321,118776,2,0,P|65:216|50:109,1,200,0|2,0:0|0:0,0:0:0:0:
140,52,119306,6,0,L|240:22,1,100,0|8,0:0|0:0,0:0:0:0:
342,121,119659,1,0,0:0:0:0:
454,35,119835,1,0,0:0:0:0:
235,24,120012,1,2,0:0:0:0:
213,204,120188,6,0,L|240:311,1,100,4|0,0:0|0:0,0:0:0:0:
140,250,120541,1,2,0:0:0:0:
281,148,120717,2,0,L|307:246,1,100,0|8,0:0|0:0,0:0:0:0:
205,125,121070,2,0,P|286:71|360:139,1,200,0|2,0:0|0:0,0:0:0:0:
404,237,121600,2,0,P|462:252|510:234,1,100
327,208,121953,2,0,P|274:225|211:356,1,200,2|8,0:0|0:0,0:0:0:0:
90,333,122482,5,0,0:0:0:0:
30,229,122658,1,2,0:0:0:0:
72,116,122835,1,0,0:0:0:0:
234,188,123012,6,0,P|312:212|353:195,1,100,0|0,0:0|0:0,0:0:0:0:
411,123,123364,1,2,0:0:0:0:
305,64,123541,1,0,0:0:0:0:
143,170,123717,2,0,P|152:234|185:269,1,100,8|0,0:0|0:0,0:0:0:0:
339,153,124070,2,0,P|328:93|292:55,1,100,2|0,0:0|0:0,0:0:0:0:
173,260,124423,6,0,L|173:380,1,100,0|0,0:0|0:0,0:0:0:0:
339,253,124776,2,0,L|339:153,1,100,2|0,0:0|0:0,0:0:0:0:
173,260,125129,2,0,P|222:284|271:275,1,100,8|0,0:0|0:0,0:0:0:0:
512,137,125482,2,0,P|421:103|336:158,1,200,6|0,0:0|0:0,0:0:0:0:
235,349,126012,6,0,P|327:355|413:283,1,200,0|2,0:0|0:0,0:0:0:0:
487,200,126541,2,0,L|453:104,1,100
348,36,126894,1,2,0:0:0:0:
348,155,127070,2,0,P|317:201|260:229,1,100
214,89,127423,5,4,0:0:0:0:
487,200,127776,1,0,0:0:0:0:
487,200,127952,1,4,0:0:0:0:
214,89,128305,1,4,0:0:0:0:
216,313,128659,1,0,0:0:0:0:
216,313,129012,6,0,P|266:291|298:239,1,85.0000016212464,2|0,0:0|0:0,0:0:0:0:
327,175,129365,1,8,0:0:0:0:
125,127,129717,1,2,0:0:0:0:
149,223,129894,2,0,P|207:182|206:75,1,170.000003242493
72,192,130423,2,0,L|30:300,1,85.0000016212464,2|0,0:0|0:0,0:0:0:0:
134,313,130776,2,0,P|189:340|289:301,1,170.000003242493,8|2,0:0|0:0,0:0:0:0:
319,65,131482,6,0,P|396:37|470:74,1,170.000003242493,0|2,0:0|0:0,0:0:0:0:
391,139,132012,1,0,0:0:0:0:
391,139,132188,1,8,0:0:0:0:
234,270,132541,6,0,P|206:337|159:285,1,170.000003242493,2|0,0:0|0:0,0:0:0:0:
139,81,133247,2,0,P|89:29|64:95,1,170.000003242493,2|8,0:0|0:0,0:0:0:0:
304,156,133953,2,0,B|324:144|352:144|388:156|388:156|420:168|448:168|468:156,1,170.000003242493,2|0,0:0|0:0,0:0:0:0:
265,271,134659,6,0,L|162:314,1,85.0000016212464,2|0,0:0|0:0,0:0:0:0:
95,344,135012,2,0,P|86:286|175:206,1,170.000003242493,0|2,0:0|0:0,0:0:0:0:
187,305,135541,2,0,P|98:253|86:173,1,170.000003242493
124,90,136070,1,2,0:0:0:0:
339,50,136423,1,8,0:0:0:0:
448,222,136776,1,2,0:0:0:0:
256,344,137129,6,0,L|256:259,1,85.0000016212464
256,176,137482,1,2,0:0:0:0:
56,248,137835,1,0,0:0:0:0:
56,48,138188,1,2,0:0:0:0:
256,48,138541,5,0,0:0:0:0:
256,48,138717,1,0,0:0:0:0:
256,248,139070,1,0,0:0:0:0:
256,248,139247,1,8,0:0:0:0:
432,144,139600,1,0,0:0:0:0:
432,144,139776,1,0,0:0:0:0:
432,144,139953,6,0,L|432:252,1,89.9999972534181
432,64,140306,1,2,0:0:0:0:
256,248,140659,2,0,L|256:130,1,89.9999972534181,8|0,0:0|0:0,0:0:0:0:
256,328,141012,1,2,0:0:0:0:
255,57,141365,6,0,P|201:45|150:69,1,89.9999972534181
255,57,141717,2,0,P|309:69|360:45,1,89.9999972534181,0|0,0:0|0:0,0:0:0:0:
255,57,142070,2,0,P|243:111|267:162,1,89.9999972534181,10|0,0:0|0:0,0:0:0:0:
451,17,142423,2,0,P|472:87|438:188,1,179.999994506836,2|0,0:0|0:0,0:0:0:0:
180,328,143129,6,0,P|174:252|189:223,1,89.9999972534181,2|0,0:0|0:0,0:0:0:0:
249,159,143482,1,8,0:0:0:0:
249,159,143835,1,2,0:0:0:0:
390,304,144188,6,0,L|432:196,1,89.9999972534181
371,104,144541,2,0,L|338:187,1,89.9999972534181,2|0,0:0|0:0,0:0:0:0:
216,243,144894,2,0,L|258:135,1,89.9999972534181,8|0,0:0|0:0,0:0:0:0:
371,104,145247,1,2,0:0:0:0:
371,104,145423,1,0,0:0:0:0:
256,192,145512,12,0,146659,0:0:0:0:
432,48,147012,5,0,0:0:0:0:
80,48,147365,1,0,0:0:0:0:
256,304,147717,1,0,0:0:0:0:
256,32,148070,1,0,0:0:0:0:
256,192,148159,12,0,149482,0:0:0:0:
256,192,149835,12,0,150894,0:0:0:0:
421,81,151247,6,0,P|460:158|406:264,1,200,4|2,0:0|0:0,0:0:0:0:
314,230,151776,2,0,P|269:216|193:253,1,100,0|8,0:0|0:0,0:0:0:0:
274,340,152129,2,0,P|348:348|416:233,1,200,0|2,0:0|0:0,0:0:0:0:
218,253,152659,6,0,P|144:245|52:345,1,200,4|2,0:0|0:0,0:0:0:0:
274,340,153188,2,0,P|329:347|373:327,1,100,0|8,0:0|0:0,0:0:0:0:
375,157,153541,2,0,P|330:255|376:336,1,200,0|2,0:0|0:0,0:0:0:0:
339,89,154070,6,0,B|275:136|258:205|258:205|182:227,1,200,4|2,0:0|0:0,0:0:0:0:
178,367,154600,2,0,L|290:336,1,100,0|8,0:0|0:0,0:0:0:0:
498,234,154953,2,0,P|426:280|310:264,1,200,0|2,0:0|0:0,0:0:0:0:
222,192,155482,2,0,P|163:174|88:191,1,100
301,191,155835,2,0,P|379:135|391:32,1,200,2|8,0:0|0:0,0:0:0:0:
275,68,156365,5,0,0:0:0:0:
399,224,156541,1,0,0:0:0:0:
468,93,156718,1,2,0:0:0:0:
301,191,156894,6,0,P|312:298|413:334,1,200,4|2,0:0|0:0,0:0:0:0:
301,191,157423,2,0,P|256:166|196:165,1,100,0|8,0:0|0:0,0:0:0:0:
116,242,157776,2,0,P|192:192|217:80,1,200,0|2,0:0|0:0,0:0:0:0:
403,42,158306,6,0,P|322:95|304:202,1,200,4|2,0:0|0:0,0:0:0:0:
409,313,158835,2,0,L|542:350,1,100,0|8,0:0|0:0,0:0:0:0:
423,227,159188,2,0,P|368:238|351:378,1,200,0|2,0:0|0:0,0:0:0:0:
421,226,159717,6,0,P|477:177|413:64,1,200,4|2,0:0|0:0,0:0:0:0:
347,163,160247,2,0,P|322:219|335:265,1,100,0|8,0:0|0:0,0:0:0:0:
244,340,160600,2,0,P|163:331|78:244,1,200,0|2,0:0|0:0,0:0:0:0:
53,133,161129,2,0,L|86:35,1,100,4|0,0:0|0:0,0:0:0:0:
137,177,161482,2,0,P|231:173|311:105,1,200,2|8,0:0|0:0,0:0:0:0:
445,49,162012,5,0,0:0:0:0:
488,182,162188,1,2,0:0:0:0:
310,107,162365,1,0,0:0:0:0:
136,177,162541,6,0,P|94:233|85:277,1,100,4|0,0:0|0:0,0:0:0:0:
239,218,162894,1,2,0:0:0:0:
349,203,163070,2,0,P|421:154|440:29,1,200
266,126,163600,2,0,P|241:166|259:258,1,100,2|0,0:0|0:0,0:0:0:0:
99,228,163953,2,0,P|110:115|157:46,1,200,4|2,0:0|0:0,0:0:0:0:
362,124,164482,2,0,P|314:137|266:126,1,100,0|8,0:0|0:0,0:0:0:0:
310,13,164836,5,0,0:0:0:0:
423,50,165012,1,0,0:0:0:0:
441,168,165189,1,2,0:0:0:0:
270,275,165365,6,0,L|170:275,1,100,4|0,0:0|0:0,0:0:0:0:
247,192,165718,1,2,0:0:0:0:
304,352,165894,2,0,L|404:352,1,100,0|8,0:0|0:0,0:0:0:0:
270,275,166247,2,0,P|185:229|101:275,1,200,0|2,0:0|0:0,0:0:0:0:
23,330,166776,2,0,P|85:300|108:255,1,100
73,97,167129,2,0,P|52:198|102:277,1,200,6|8,0:0|0:0,0:0:0:0:
212,321,167659,5,0,0:0:0:0:
331,322,167835,1,2,0:0:0:0:
389,216,168012,1,0,0:0:0:0:
209,241,168188,6,0,P|158:259|135:299,1,100,4|0,0:0|0:0,0:0:0:0:
331,322,168541,1,2,0:0:0:0:
389,216,168718,1,0,0:0:0:0:
322,98,168894,2,0,L|199:70,1,100,8|0,0:0|0:0,0:0:0:0:
78,133,169247,2,0,L|188:159,1,100,2|0,0:0|0:0,0:0:0:0:
32,69,169600,6,0,P|1:122|14:178,1,100,0|0,0:0|0:0,0:0:0:0:
46,301,169953,2,0,P|70:249|57:193,1,100,0|0,0:0|0:0,0:0:0:0:
245,209,170306,2,0,P|293:220|341:207,1,100,8|0,0:0|0:0,0:0:0:0:
390,103,170659,2,0,P|285:72|180:105,1,200,6|0,0:0|0:0,0:0:0:0:
355,186,171188,6,0,P|440:179|463:60,1,200,0|2,0:0|0:0,0:0:0:0:
255,164,171717,2,0,L|182:272,1,100,8|0,0:0|0:0,0:0:0:0:
91,229,172071,1,2,0:0:0:0:
300,269,172247,2,0,L|361:177,1,100
91,230,172600,5,4,0:0:0:0:
399,266,172953,1,0,0:0:0:0:
460,163,173129,1,4,0:0:0:0:
233,333,173482,1,4,0:0:0:0:
45,164,174012,6,0,P|22:189|16:256,2,75.0000028610231,0|2|0,0:0|0:0|0:0,0:0:0:0:
112,103,174541,1,0,0:0:0:0:
296,195,174894,2,0,P|327:256|325:287,1,75.0000028610231,2|0,0:0|0:0,0:0:0:0:
237,264,175247,1,0,0:0:0:0:
147,265,175423,1,0,0:0:0:0:
190,352,175600,2,0,L|265:352,1,75.0000028610231,2|0,0:0|0:0,0:0:0:0:
192,187,175953,1,0,0:0:0:0:
127,42,176306,6,0,P|199:21|272:47,1,150.000005722046,2|0,0:0|0:0,0:0:0:0:
323,115,176835,1,0,0:0:0:0:
323,115,177012,2,0,L|423:72,1,75.0000028610231,2|0,0:0|0:0,0:0:0:0:
380,174,177365,2,0,L|311:203,1,75.0000028610231
230,242,177717,5,2,0:0:0:0:
143,243,177894,1,0,0:0:0:0:
187,325,178070,2,0,L|271:325,1,75.0000028610231
310,248,178423,2,0,L|393:247,1,75.0000028610231,2|0,0:0|0:0,0:0:0:0:
450,315,178776,2,0,P|478:253|441:172,1,150.000005722046,0|2,0:0|0:0,0:0:0:0:
255,98,179482,5,0,0:0:0:0:
255,98,179659,2,0,P|215:104|155:83,2,75.0000028610231,0|2|0,0:0|0:0|0:0,0:0:0:0:
341,52,180188,1,0,0:0:0:0:
347,149,180365,1,0,0:0:0:0:
255,98,180541,2,0,P|217:66|205:39,1,75.0000028610231,2|0,0:0|0:0,0:0:0:0:
116,139,180894,5,0,0:0:0:0:
61,219,181070,1,0,0:0:0:0:
158,224,181247,2,0,P|206:208|234:177,1,75.0000028610231,2|0,0:0|0:0,0:0:0:0:
347,148,181600,2,0,P|413:156|454:255,1,150.000005722046,0|2,0:0|0:0,0:0:0:0:
158,224,182306,5,0,0:0:0:0:
158,224,182482,2,0,P|128:281|93:304,1,75.0000028610231,0|2,0:0|0:0,0:0:0:0:
32,306,182835,1,0,0:0:0:0:
82,194,183012,2,0,P|131:147|208:160,1,150.000005722046,0|2,0:0|0:0,0:0:0:0:
237,290,183717,5,0,0:0:0:0:
321,323,183894,1,0,0:0:0:0:
407,299,184070,2,0,L|505:279,1,75.0000028610231,2|0,0:0|0:0,0:0:0:0:
388,213,184423,2,0,P|328:248|328:336,1,150.000005722046,0|2,0:0|0:0,0:0:0:0:
391,132,185129,5,0,0:0:0:0:
304,95,185306,1,0,0:0:0:0:
230,146,185482,2,0,P|211:187|183:214,1,75.0000028610231,2|0,0:0|0:0,0:0:0:0:
79,145,185835,2,0,P|98:186|126:213,1,75.0000028610231
170,281,186188,5,2,0:0:0:0:
256,307,186365,1,0,0:0:0:0:
341,280,186541,2,0,L|420:305,1,75.0000028610231
275,229,186894,1,0,0:0:0:0:
256,307,187070,1,2,0:0:0:0:
349,204,187247,2,0,P|289:152|208:188,1,150.000005722046,0|2,0:0|0:0,0:0:0:0:
55,143,187953,5,0,0:0:0:0:
103,202,188129,2,0,P|175:217|229:159,1,150.000005722046,0|2,0:0|0:0,0:0:0:0:
139,75,188659,2,0,L|157:154,1,75.0000028610231
195,286,189012,5,2,0:0:0:0:
113,305,189188,1,0,0:0:0:0:
253,346,189365,2,0,P|272:323|274:263,1,75.0000028610231
114,305,189717,2,0,P|131:342|164:362,1,75.0000028610231,2|0,0:0|0:0,0:0:0:0:
188,214,190070,1,0,0:0:0:0:
72,74,190423,6,0,P|141:41|216:64,1,150.000005722046,2|0,0:0|0:0,0:0:0:0:
271,125,190953,1,0,0:0:0:0:
352,161,191129,2,0,P|398:179|439:169,1,75.0000028610231,2|0,0:0|0:0,0:0:0:0:
431,249,191482,2,0,P|432:202|411:160,1,75.0000028610231
272,125,191835,5,2,0:0:0:0:
148,64,192012,1,0,0:0:0:0:
233,45,192188,1,0,0:0:0:0:
187,144,192365,1,0,0:0:0:0:
75,151,192541,2,0,L|-11:151,1,75.0000028610231,2|0,0:0|0:0,0:0:0:0:
1,150,192894,1,0,0:0:0:0:
330,62,193247,6,0,P|362:130|312:204,1,150.000005722046,2|0,0:0|0:0,0:0:0:0:
258,258,193776,1,0,0:0:0:0:
271,347,193953,1,2,0:0:0:0:
341,289,194129,1,0,0:0:0:0:
233,171,194306,2,0,P|180:209|178:295,1,150.000005722046,0|2,0:0|0:0,0:0:0:0:
234,96,195012,1,0,0:0:0:0:
256,192,195276,12,0,197482,0:0:0:0:
