osu file format v14

[General]
AudioFilename: Friendship Is Magic - Brony Appreciation Medley.mp3
AudioLeadIn: 0
PreviewTime: 17166
Countdown: 1
SampleSet: Normal
StackLeniency: 0.6
Mode: 0
LetterboxInBreaks: 1
WidescreenStoryboard: 0

[Editor]
Bookmarks: 140838,157360
DistanceSpacing: 1.4
BeatDivisor: 4
GridSize: 8
TimelineZoom: 1

[Metadata]
Title:Brony Appreciation Medley
TitleUnicode:Brony Appreciation Medley
Artist:NRGFORCE
ArtistUnicode:NRGFORCE
Creator:TheVileOne
Version:Insane
Source:
Tags:My Little Pony MLP Daniel Ingram Remix Double Rainbow You're Gonna Go Far Kid TheOffSpring VinylDash14 Avast Fluttershy's Ass Winter Wrap Up Art Of The Dress VinylDash14 rainmon
BeatmapID:192665
BeatmapSetID:58384

[Difficulty]
HPDrainRate:7
CircleSize:4
OverallDifficulty:7
ApproachRate:8
SliderMultiplier:2
SliderTickRate:2

[Events]
//Background and Video events
0,0,"r9kcp1.jpg",0,0
//Break Periods
2,126289,140108
//Storyboard Layer 0 (Background)
//Storyboard Layer 1 (Fail)
//Storyboard Layer 2 (Pass)
//Storyboard Layer 3 (Foreground)
//Storyboard Sound Samples

[TimingPoints]
2240,533.333333333333,4,1,0,75,1,0
15040,526.315789473684,4,1,0,75,1,0
17166,461.538461538462,4,1,0,60,1,0
52242,-83.3333333333333,4,1,0,75,0,0
111319,-83.3333333333333,4,1,0,75,0,1
126089,-83.3333333333333,4,1,0,75,0,0
203210,461.538461538462,4,1,0,75,1,0
203210,-83.3333333333333,4,1,0,75,0,0

[Colours]
Combo1 : 255,150,0
Combo2 : 0,128,192
Combo3 : 38,206,68
Combo4 : 240,5,5

[HitObjects]
112,96,17166,5,0,0:0:0:0:
392,96,17627,1,0,0:0:0:0:
176,288,18089,1,0,0:0:0:0:
336,288,18319,1,0,0:0:0:0:
374,132,18550,1,0,0:0:0:0:
255,56,18781,1,0,0:0:0:0:
120,95,19012,6,0,P|113:146|77:189,1,100,4|0,0:0|0:0,0:0:0:0:
0,271,19473,1,8,0:0:0:0:
102,336,19704,1,0,0:0:0:0:
216,298,19935,2,0,B|321:275,2,100,0|0|8,0:0|0:0|0:0,0:0:0:0:
216,152,20627,6,0,B|208:40,2,100,0|2|0,0:0|0:0|0:0,0:0:0:0:
152,256,21319,1,8,0:0:0:0:
64,176,21550,1,0,0:0:0:0:
104,64,21781,2,2,B|232:112,1,100,0|8,0:0|0:0,0:0:0:0:
376,48,22242,2,0,B|448:96|416:200,1,150,8|0,0:0|0:0,0:0:0:0:
376,224,22704,5,2,0:0:0:0:
336,336,22935,1,0,0:0:0:0:
224,304,23166,2,0,B|176:272|120:304,1,100,8|0,0:0|0:0,0:0:0:0:
40,224,23627,1,2,0:0:0:0:
136,152,23858,1,8,0:0:0:0:
144,32,24089,1,8,0:0:0:0:
232,120,24319,2,0,B|272:80|328:80,1,100,2|0,0:0|0:0,0:0:0:0:
320,208,24781,6,0,B|320:264|376:304,1,100,0|8,0:0|0:0,0:0:0:0:
440,184,25242,1,0,0:0:0:0:
232,328,25473,1,0,0:0:0:0:
232,328,25589,1,0,0:0:0:0:
232,328,25704,1,0,0:0:0:0:
120,296,25935,1,8,0:0:0:0:
80,184,26166,1,4,0:0:0:0:
152,88,26396,6,0,B|192:136|160:192,1,100,2|0,0:0|0:0,0:0:0:0:
360,88,26858,2,0,B|320:136|352:192,1,100,8|0,0:0|0:0,0:0:0:0:
256,352,27319,2,0,B|256:240,1,100,0|8,0:0|0:0,0:0:0:0:
160,320,27781,1,8,0:0:0:0:
344,232,28012,1,0,0:0:0:0:
160,192,28242,1,2,0:0:0:0:
344,104,28473,1,0,0:0:0:0:
160,72,28704,6,0,B|104:80|72:128,1,100,8|0,0:0|0:0,0:0:0:0:
152,216,29166,2,0,B|208:200|232:144,1,100,0|8,0:0|0:0,0:0:0:0:
416,200,29627,2,0,B|360:208|328:256,1,100,8|0,0:0|0:0,0:0:0:0:
408,344,30089,2,0,B|464:328|488:272,1,100,2|0,0:0|0:0,0:0:0:0:
480,144,30550,1,8,0:0:0:0:
336,144,30781,1,0,0:0:0:0:
240,40,31012,6,0,B|224:88|168:112,1,100,0|8,0:0|0:0,0:0:0:0:
176,352,31473,2,0,B|208:304|272:304,1,100,8|0,0:0|0:0,0:0:0:0:
392,344,31935,1,2,0:0:0:0:
392,344,32050,1,0,0:0:0:0:
392,344,32166,1,0,0:0:0:0:
312,224,32396,1,8,0:0:0:0:
400,104,32627,5,0,0:0:0:0:
264,40,32858,1,0,0:0:0:0:
128,104,33089,1,8,0:0:0:0:
256,192,33319,1,8,0:0:0:0:
272,344,33550,1,0,0:0:0:0:
272,344,33666,1,0,0:0:0:0:
272,344,33781,1,0,0:0:0:0:
416,352,34012,6,0,B|440:304|488:288,1,100
256,192,34473,1,2,0:0:0:0:
96,352,34704,2,0,B|72:304|24:288,1,100
256,192,35166,1,2,0:0:0:0:
352,120,35396,5,0,0:0:0:0:
400,232,35627,2,0,B|448:248,2,50
256,88,36089,1,2,0:0:0:0:
112,232,36319,2,0,B|64:248,2,50
408,344,36781,1,0,0:0:0:0:
336,224,37012,1,2,0:0:0:0:
216,232,37242,5,0,0:0:0:0:
216,232,37358,1,0,0:0:0:0:
216,232,37473,1,0,0:0:0:0:
112,168,37704,1,0,0:0:0:0:
160,56,37935,1,2,0:0:0:0:
272,104,38166,2,0,B|256:152,2,50
384,64,38627,1,0,0:0:0:0:
440,168,38858,1,2,0:0:0:0:
328,216,39089,1,0,0:0:0:0:
40,240,39319,5,2,0:0:0:0:
96,136,39550,1,0,0:0:0:0:
472,240,39781,1,2,0:0:0:0:
416,136,40012,1,0,0:0:0:0:
256,360,40242,1,0,0:0:0:0:
256,112,40473,1,0,0:0:0:0:
256,112,40704,1,2,0:0:0:0:
184,208,40935,5,0,0:0:0:0:
184,208,41050,1,0,0:0:0:0:
184,208,41166,2,0,B|89:248,1,100
256,304,41627,2,0,L|368:328,1,100,8|0,0:0|0:0,0:0:0:0:
128,352,42089,1,0,0:0:0:0:
344,192,42319,1,0,0:0:0:0:
192,80,42550,1,8,0:0:0:0:
184,264,42781,1,0,0:0:0:0:
368,120,43012,6,0,B|464:160,1,100
256,224,43473,2,0,L|192:136,1,100,8|0,0:0|0:0,0:0:0:0:
216,296,43935,1,0,0:0:0:0:
408,232,44166,1,0,0:0:0:0:
315,96,44396,1,8,0:0:0:0:
152,96,44627,5,0,0:0:0:0:
112,232,44858,2,0,B|87:279|31:287,1,100
280,308,45319,2,0,B|305:355|361:363,1,100,8|0,0:0|0:0,0:0:0:0:
376,224,45781,1,0,0:0:0:0:
251,139,46012,1,0,0:0:0:0:
164,261,46242,1,8,0:0:0:0:
286,353,46473,5,0,0:0:0:0:
286,353,46589,1,0,0:0:0:0:
286,353,46704,1,0,0:0:0:0:
344,192,46935,2,0,B|384:152,1,50
208,152,47281,2,0,B|168:192,1,50
58,90,47627,1,0,0:0:0:0:
40,288,47858,1,0,0:0:0:0:
229,353,48089,1,0,0:0:0:0:
344,192,48319,1,0,0:0:0:0:
344,192,48435,1,0,0:0:0:0:
344,192,48550,1,2,0:0:0:0:
480,352,49012,5,0,0:0:0:0:
304,320,49358,1,0,0:0:0:0:
304,320,49473,1,0,0:0:0:0:
360,216,49704,1,8,0:0:0:0:
473,254,49935,2,0,B|474:226|489:198,1,50
408,120,50281,2,0,B|432:72|424:72,1,50
312,32,50627,5,0,0:0:0:0:
312,32,50742,1,0,0:0:0:0:
312,32,50858,1,8,0:0:0:0:
208,96,51089,1,0,0:0:0:0:
104,32,51319,1,8,0:0:0:0:
32,128,51550,1,0,0:0:0:0:
32,128,51666,1,0,0:0:0:0:
32,128,51781,1,4,0:0:0:0:
104,312,52012,1,0,0:0:0:0:
256,192,52242,5,4,0:0:0:0:
408,312,52473,2,0,P|440:264|448:184,2,119.999996337891,0|2|0,0:0|0:0|0:0,0:0:0:0:
256,192,53166,1,0,0:0:0:0:
104,312,53396,2,0,P|72:264|64:184,2,119.999996337891,0|2|0,0:0|0:0|0:0,0:0:0:0:
296,352,54089,5,0,0:0:0:0:
120,88,54550,1,0,0:0:0:0:
399,227,55012,1,0,0:0:0:0:
87,240,55473,1,2,0:0:0:0:
254,159,55704,1,0,0:0:0:0:
400,240,55935,5,0,0:0:0:0:
56,120,56166,2,0,B|96:264,1,119.999996337891,0|2,0:0|0:0,0:0:0:0:
256,56,56627,1,0,0:0:0:0:
256,336,56858,1,0,0:0:0:0:
456,120,57089,2,0,B|416:264,1,119.999996337891,0|2,0:0|0:0,0:0:0:0:
256,56,57550,1,0,0:0:0:0:
144,296,57781,5,0,0:0:0:0:
416,192,58242,1,0,0:0:0:0:
152,80,58704,1,0,0:0:0:0:
72,272,58935,1,0,0:0:0:0:
360,80,59166,1,8,0:0:0:0:
440,272,59396,1,8,0:0:0:0:
256,192,59627,5,0,0:0:0:0:
72,272,59858,2,0,B|40:216|72:152,1,119.999996337891,0|8,0:0|0:0,0:0:0:0:
256,352,60319,1,0,0:0:0:0:
442,156,60550,2,0,B|472:216|440:272,1,119.999996337891,0|0,0:0|0:0,0:0:0:0:
256,56,61012,1,8,0:0:0:0:
256,312,61242,1,0,0:0:0:0:
80,64,61473,5,0,0:0:0:0:
456,360,61935,1,8,0:0:0:0:
88,360,62396,1,0,0:0:0:0:
456,64,62858,1,8,0:0:0:0:
256,192,63089,1,0,0:0:0:0:
384,288,63319,6,0,B|512:352,1,119.999996337891
104,192,63781,2,0,B|16:272,1,119.999996337891,8|0,0:0|0:0,0:0:0:0:
400,192,64242,2,0,B|496:112,1,119.999996337891
125,324,64704,2,0,B|5:268,1,119.999996337891,8|0,0:0|0:0,0:0:0:0:
436,134,65166,6,0,B|360:96|296:176|194:137,1,239.999992675781
48,48,65858,1,0,0:0:0:0:
96,312,66089,1,0,0:0:0:0:
256,48,66319,1,0,0:0:0:0:
0,208,66550,1,0,0:0:0:0:
271,240,66781,1,0,0:0:0:0:
376,88,67012,6,0,B|440:200,1,119.999996337891
234,354,67473,2,0,B|274:234,1,119.999996337891
104,48,67935,2,0,B|96:168,1,119.999996337891,8|0,0:0|0:0,0:0:0:0:
376,88,68396,1,0,0:0:0:0:
395,132,68512,1,0,0:0:0:0:
413,176,68627,2,0,B|398:228|354:279,1,119.999996337891,0|4,0:0|0:0,0:0:0:0:
104,48,69319,5,0,0:0:0:0:
80,224,69550,1,0,0:0:0:0:
256,240,69781,1,8,0:0:0:0:
112,136,70012,1,0,0:0:0:0:
72,136,70127,1,0,0:0:0:0:
32,152,70242,1,0,0:0:0:0:
168,288,70473,1,0,0:0:0:0:
384,184,70704,6,0,P|352:240|344:296,1,119.999996337891,4|0,0:0|0:0,0:0:0:0:
184,168,71166,2,0,P|168:120|120:64,1,119.999996337891
16,256,71627,2,0,P|48:320|88:352,1,119.999996337891,8|0,0:0|0:0,0:0:0:0:
232,248,72089,1,0,0:0:0:0:
260,220,72204,1,0,0:0:0:0:
279,180,72319,1,0,0:0:0:0:
120,48,72550,6,0,P|128:96|160:160,1,119.999996337891,8|0,0:0|0:0,0:0:0:0:
336,264,73012,2,0,P|288:320|240:344,1,119.999996337891,8|0,0:0|0:0,0:0:0:0:
72,232,73473,1,8,0:0:0:0:
72,232,73589,1,0,0:0:0:0:
256,42,73935,6,0,P|292:88|309:153,1,119.999996337891,8|0,0:0|0:0,0:0:0:0:
290,180,74281,1,0,0:0:0:0:
265,213,74396,2,0,P|270:267|305:333,1,119.999996337891,8|0,0:0|0:0,0:0:0:0:
424,192,74858,2,0,P|462:153|479:86,1,119.999996337891
88,192,75319,2,0,P|50:153|33:86,1,119.999996337891
256,344,75781,1,0,0:0:0:0:
256,310,75896,1,0,0:0:0:0:
256,276,76012,1,0,0:0:0:0:
160,80,76242,5,0,0:0:0:0:
112,256,76473,1,0,0:0:0:0:
352,80,76704,1,0,0:0:0:0:
400,256,76935,1,0,0:0:0:0:
136,368,77166,2,0,B|200:336|272:416|376:352,1,239.999992675781,4|0,0:0|0:0,0:0:0:0:
144,168,77858,5,0,0:0:0:0:
304,40,78089,2,0,P|320:96|312:160,1,119.999996337891,8|0,0:0|0:0,0:0:0:0:
208,344,78550,2,0,P|192:288|200:224,1,119.999996337891
120,64,79012,1,0,0:0:0:0:
16,192,79242,1,0,0:0:0:0:
96,344,79473,5,0,0:0:0:0:
96,344,79589,1,0,0:0:0:0:
96,344,79704,1,0,0:0:0:0:
256,288,79935,2,0,P|320:288|376:328,1,119.999996337891
480,192,80396,2,0,P|443:143|435:87,1,119.999996337891
256,120,80858,1,4,0:0:0:0:
88,336,81319,5,0,0:0:0:0:
67,306,81435,1,0,0:0:0:0:
47,275,81550,1,0,0:0:0:0:
27,244,81665,1,0,0:0:0:0:
8,208,81781,2,0,B|64:96,1,119.999996337891
224,48,82242,2,0,B|176:168,1,119.999996337891,8|0,0:0|0:0,0:0:0:0:
504,200,82704,2,0,B|448:88,1,119.999996337891
288,48,83165,2,0,B|336:168,1,119.999996337891,8|0,0:0|0:0,0:0:0:0:
88,232,83627,6,0,B|112:304|80:360,1,119.999996337891
424,232,84089,2,0,B|400:304|432:360,1,119.999996337891,8|0,0:0|0:0,0:0:0:0:
112,88,84550,1,0,0:0:0:0:
432,352,85012,5,8,0:0:0:0:
256,288,85242,1,0,0:0:0:0:
80,352,85473,2,0,B|112:296|88:224,1,119.999996337891
432,32,85935,2,0,B|400:88|424:160,1,119.999996337891,8|0,0:0|0:0,0:0:0:0:
256,192,86396,1,0,0:0:0:0:
256,192,86627,1,0,0:0:0:0:
96,120,86858,6,0,B|168:120|208:64,1,119.999996337891,8|0,0:0|0:0,0:0:0:0:
352,40,87319,1,0,0:0:0:0:
440,328,87781,1,8,0:0:0:0:
120,288,88242,2,0,B|160:232|136:168,1,119.999996337891
352,40,88704,5,8,0:0:0:0:
368,72,88819,1,0,0:0:0:0:
384,104,88935,1,0,0:0:0:0:
400,136,89050,1,0,0:0:0:0:
416,168,89165,2,0,B|392:288,1,119.999996337891
216,336,89627,2,0,B|112:272,1,119.999996337891,8|0,0:0|0:0,0:0:0:0:
80,96,90089,2,0,B|192:32,1,119.999996337891
320,80,90550,5,8,0:0:0:0:
320,80,90665,1,0,0:0:0:0:
320,80,90781,1,0,0:0:0:0:
376,216,91012,2,0,B|256:256,2,119.999996337891,0|0|8,0:0|0:0|0:0,0:0:0:0:
304,344,91704,1,0,0:0:0:0:
159,346,91935,2,0,B|103:322|39:346,1,119.999996337891
256,192,92396,5,8,0:0:0:0:
256,192,92512,1,0,0:0:0:0:
256,192,92627,1,0,0:0:0:0:
128,128,92858,2,0,B|88:192|128:256,1,119.999996337891
254,306,93319,2,0,B|286:242|254:186,1,119.999996337891,8|0,0:0|0:0,0:0:0:0:
456,80,93781,2,0,B|416:144|456:208,1,119.999996337891
256,192,94242,12,4,96550,0:0:0:0:
128,112,97012,5,0,0:0:0:0:
256,192,97242,1,0,0:0:0:0:
384,112,97473,2,0,B|448:224|392:344,1,239.999992675781,0|0,0:0|0:0,0:0:0:0:
256,192,98165,1,0,0:0:0:0:
120,344,98396,1,2,0:0:0:0:
344,56,98858,5,0,0:0:0:0:
176,120,99089,1,0,0:0:0:0:
344,192,99319,1,0,0:0:0:0:
208,304,99550,2,0,B|312:376,2,119.999996337891
456,192,100242,1,2,0:0:0:0:
120,368,100704,6,0,B|96:296|24:280,1,119.999996337891
88,144,101165,1,0,0:0:0:0:
256,280,101396,1,0,0:0:0:0:
432,144,101627,2,0,B|400:192|416:264,1,119.999996337891
320,368,102089,1,6,0:0:0:0:
80,192,102550,6,0,B|144:168|152:104,1,119.999996337891
328,128,103012,2,0,B|320:184|368:240,1,119.999996337891
256,344,103473,2,0,B|208:312|136:336,1,119.999996337891
141,335,103819,1,0,0:0:0:0:
141,335,103935,1,0,0:0:0:0:
196,202,104165,6,0,B|140:154|148:90,1,119.999996337891,0|8,0:0|0:0,0:0:0:0:
288,64,104627,1,0,0:0:0:0:
376,184,104858,1,0,0:0:0:0:
312,320,105089,2,0,B|256:288|192:320,1,119.999996337891,0|8,0:0|0:0,0:0:0:0:
72,240,105550,1,0,0:0:0:0:
80,192,105665,1,0,0:0:0:0:
88,144,105781,1,0,0:0:0:0:
192,248,106012,6,0,B|216:368,1,119.999996337891,0|8,0:0|0:0,0:0:0:0:
296,208,106473,2,0,B|320:80,1,119.999996337891
400,208,106935,1,0,0:0:0:0:
416,248,107050,1,0,0:0:0:0:
432,288,107165,1,8,0:0:0:0:
312,360,107396,1,0,0:0:0:0:
312,360,107512,1,0,0:0:0:0:
312,360,107627,1,8,0:0:0:0:
176,304,107858,5,0,0:0:0:0:
48,368,108089,2,0,B|16:312|40:248,1,119.999996337891,8|0,0:0|0:0,0:0:0:0:
184,144,108550,1,0,0:0:0:0:
280,296,108781,1,0,0:0:0:0:
401,163,109012,1,8,0:0:0:0:
256,56,109242,1,0,0:0:0:0:
168,224,109473,6,0,B|112:272,2,59.9999981689454
344,224,109935,2,0,B|400:272,2,59.9999981689454
96,96,110396,2,0,B|56:48,2,59.9999981689454,2|0|0,0:0|0:0|0:0,0:0:0:0:
392,96,110858,2,0,B|440:56,2,59.9999981689454,2|0|0,0:0|0:0|0:0,0:0:0:0:
224,88,111319,5,4,0:0:0:0:
288,256,111550,1,0,0:0:0:0:
464,208,111781,1,8,0:0:0:0:
400,376,112012,1,0,0:0:0:0:
400,376,112127,1,0,0:0:0:0:
400,376,112242,1,0,0:0:0:0:
240,288,112473,1,0,0:0:0:0:
80,368,112704,1,8,0:0:0:0:
24,192,112935,1,0,0:0:0:0:
144,56,113165,6,0,B|152:120|221:141,1,119.999996337891,2|0,0:0|0:0,0:0:0:0:
440,64,113627,2,0,B|376:80|352:144,1,119.999996337891,8|0,0:0|0:0,0:0:0:0:
403,301,114089,1,2,0:0:0:0:
403,301,114204,1,0,0:0:0:0:
403,301,114319,1,0,0:0:0:0:
240,232,114550,1,8,0:0:0:0:
56,344,114781,2,0,B|120:328|128:240,1,119.999996337891,0|2,0:0|0:0,0:0:0:0:
456,344,115242,2,0,B|392:328|384:240,1,119.999996337891,0|2,0:0|0:0,0:0:0:0:
136,80,115704,5,0,0:0:0:0:
136,80,115819,1,0,0:0:0:0:
376,80,116050,1,0,0:0:0:0:
376,80,116165,1,2,0:0:0:0:
56,240,116396,2,0,B|80:296|24:368,1,119.999996337891,2|2,0:0|0:0,0:0:0:0:
448,240,116858,2,0,B|424:296|480:368,1,119.999996337891
160,192,117319,2,0,B|96:160|96:80,1,119.999996337891,8|0,0:0|0:0,0:0:0:0:
376,72,117781,5,0,0:0:0:0:
345,109,117896,1,0,0:0:0:0:
342,156,118012,1,0,0:0:0:0:
427,301,118242,1,8,0:0:0:0:
272,368,118473,1,0,0:0:0:0:
248,320,118589,1,0,0:0:0:0:
200,296,118704,1,8,0:0:0:0:
34,234,118935,5,0,0:0:0:0:
200,160,119165,1,2,0:0:0:0:
200,160,119281,1,0,0:0:0:0:
72,40,119512,1,0,0:0:0:0:
72,40,119627,1,0,0:0:0:0:
128,264,119858,1,0,0:0:0:0:
288,88,120089,1,8,0:0:0:0:
72,40,120319,1,8,0:0:0:0:
128,264,120550,6,0,B|184:224|240:232,1,119.999996337891,2|0,0:0|0:0,0:0:0:0:
432,112,121012,2,0,B|368:144|304:112,1,119.999996337891,8|0,0:0|0:0,0:0:0:0:
288,88,121358,1,0,0:0:0:0:
280,40,121473,1,0,0:0:0:0:
104,88,121704,1,0,0:0:0:0:
128,264,121935,1,8,0:0:0:0:
304,216,122165,1,0,0:0:0:0:
432,344,122396,5,2,0:0:0:0:
496,176,122627,1,0,0:0:0:0:
360,56,122858,1,8,0:0:0:0:
208,152,123089,1,0,0:0:0:0:
208,152,123204,1,0,0:0:0:0:
208,152,123319,1,0,0:0:0:0:
64,48,123550,2,0,B|64:112|24:160,1,119.999996337891,0|8,0:0|0:0,0:0:0:0:
72,336,124012,1,0,0:0:0:0:
240,264,124242,5,2,0:0:0:0:
240,264,124358,1,0,0:0:0:0:
240,264,124473,1,0,0:0:0:0:
400,336,124704,1,8,0:0:0:0:
464,168,124935,1,0,0:0:0:0:
264,344,125165,1,2,0:0:0:0:
264,344,125281,1,0,0:0:0:0:
264,344,125396,1,8,0:0:0:0:
48,96,125627,5,8,0:0:0:0:
264,344,125858,1,2,0:0:0:0:
464,96,126089,1,6,0:0:0:0:
128,104,140858,6,0,B|88:152|96:224,1,119.999996337891,2|0,0:0|0:0,0:0:0:0:
256,192,141319,1,0,0:0:0:0:
376,88,141550,1,0,0:0:0:0:
408,120,141665,1,0,0:0:0:0:
424,168,141781,1,2,0:0:0:0:
456,344,142012,1,0,0:0:0:0:
328,288,142242,2,0,B|208:240|208:336|80:296,1,239.999992675781,2|0,0:0|0:0,0:0:0:0:
152,152,142935,5,8,0:0:0:0:
40,40,143165,1,0,0:0:0:0:
48,184,143396,1,0,0:0:0:0:
48,184,143512,1,0,0:0:0:0:
48,184,143627,1,2,0:0:0:0:
128,64,143858,2,0,B|248:24,2,119.999996337891,0|8|0,0:0|0:0|0:0,0:0:0:0:
248,144,144550,5,2,0:0:0:0:
376,72,144781,1,0,0:0:0:0:
496,144,145012,2,0,B|528:200|496:264,1,119.999996337891,8|0,0:0|0:0,0:0:0:0:
384,344,145473,2,0,B|360:280|384:224,1,119.999996337891,2|0,0:0|0:0,0:0:0:0:
456,104,145935,1,0,0:0:0:0:
312,112,146165,1,0,0:0:0:0:
288,256,146396,5,0,0:0:0:0:
152,296,146627,1,0,0:0:0:0:
48,192,146858,1,2,0:0:0:0:
142,79,147089,1,0,0:0:0:0:
142,79,147204,1,0,0:0:0:0:
142,79,147319,1,2,0:0:0:0:
280,120,147550,1,0,0:0:0:0:
392,32,147781,2,0,B|446:62|437:134,1,119.999996337891,2|0,0:0|0:0,0:0:0:0:
368,264,148242,5,0,0:0:0:0:
256,176,148473,1,0,0:0:0:0:
48,192,148704,2,0,B|80:136|152:136,1,119.999996337891,2|0,0:0|0:0,0:0:0:0:
72,296,149165,2,0,B|131:325|187:293,1,119.999996337891
320,352,149627,1,8,0:0:0:0:
433,262,149858,1,0,0:0:0:0:
440,48,150089,6,0,B|392:88|320:72,1,119.999996337891,2|0,0:0|0:0,0:0:0:0:
192,32,150550,1,8,0:0:0:0:
256,168,150781,1,0,0:0:0:0:
184,264,151012,2,0,B|184:192|128:152,1,119.999996337891
16,288,151473,1,8,0:0:0:0:
176,368,151704,1,0,0:0:0:0:
256,168,151935,6,0,B|256:40,1,119.999996337891
66,191,152396,2,0,B|74:255|138:279,1,119.999996337891,8|0,0:0|0:0,0:0:0:0:
441,195,152858,2,0,B|433:259|369:283,1,119.999996337891
96,112,153319,1,8,0:0:0:0:
256,224,153550,1,0,0:0:0:0:
416,112,153781,1,2,0:0:0:0:
240,71,154012,1,0,0:0:0:0:
165,235,154242,2,0,B|165:347|277:371,1,179.999994506836,8|0,0:0|0:0,0:0:0:0:
320,347,154704,5,0,0:0:0:0:
376,131,154935,1,2,0:0:0:0:
136,59,155165,1,0,0:0:0:0:
96,283,155396,1,0,0:0:0:0:
320,348,155627,2,0,B|364:303|348:230,1,119.999996337891
286,61,156089,2,0,B|252:117|280:182,1,119.999996337891,8|0,0:0|0:0,0:0:0:0:
40,112,156550,5,0,0:0:0:0:
80,248,156781,1,0,0:0:0:0:
112,288,156896,1,0,0:0:0:0:
123,335,157012,1,8,0:0:0:0:
236,245,157242,1,0,0:0:0:0:
345,337,157473,1,0,0:0:0:0:
473,271,157704,1,0,0:0:0:0:
456,128,157935,1,8,0:0:0:0:
328,192,158165,5,0,0:0:0:0:
328,192,158281,1,0,0:0:0:0:
328,192,158396,1,0,0:0:0:0:
200,120,158627,1,0,0:0:0:0:
72,192,158858,2,0,B|138:213|146:277,1,119.999996337891,8|0,0:0|0:0,0:0:0:0:
328,248,159319,1,0,0:0:0:0:
368,64,159550,2,0,B|376:136|448:160,1,119.999996337891,0|8,0:0|0:0,0:0:0:0:
304,304,160012,5,0,0:0:0:0:
304,304,160127,1,0,0:0:0:0:
304,304,160242,1,0,0:0:0:0:
216,160,160473,1,0,0:0:0:0:
328,40,160704,2,0,B|376:80|440:48,1,119.999996337891,8|0,0:0|0:0,0:0:0:0:
216,160,161165,1,0,0:0:0:0:
64,88,161396,1,0,0:0:0:0:
32,256,161627,1,8,0:0:0:0:
232,288,161858,6,0,B|184:328,2,59.9999981689454
264,144,162319,2,0,B|240:88,2,59.9999981689454,0|0|8,0:0|0:0|0:0,0:0:0:0:
144,224,162781,1,0,0:0:0:0:
392,96,163012,1,0,0:0:0:0:
320,296,163242,1,0,0:0:0:0:
192,40,163473,1,8,0:0:0:0:
152,192,163704,5,0,0:0:0:0:
136,232,163819,1,0,0:0:0:0:
104,272,163935,1,0,0:0:0:0:
224,352,164166,1,0,0:0:0:0:
352,288,164396,1,8,0:0:0:0:
480,352,164627,1,0,0:0:0:0:
424,216,164858,5,0,0:0:0:0:
472,80,165089,1,0,0:0:0:0:
336,128,165319,1,8,0:0:0:0:
208,56,165550,1,0,0:0:0:0:
72,112,165781,1,0,0:0:0:0:
144,240,166012,1,0,0:0:0:0:
160,272,166127,1,0,0:0:0:0:
152,320,166242,1,8,0:0:0:0:
16,360,166473,1,0,0:0:0:0:
256,304,166704,6,0,B|376:352,1,119.999996337891
472,40,167166,1,8,0:0:0:0:
376,144,167396,1,0,0:0:0:0:
440,296,167627,1,0,0:0:0:0:
408,328,167742,1,0,0:0:0:0:
400,376,167858,1,0,0:0:0:0:
256,304,168089,1,8,0:0:0:0:
112,376,168319,1,0,0:0:0:0:
40,224,168550,5,0,0:0:0:0:
48,176,168666,1,0,0:0:0:0:
16,136,168781,1,0,0:0:0:0:
152,32,169012,1,8,0:0:0:0:
176,200,169242,1,0,0:0:0:0:
336,240,169473,5,0,0:0:0:0:
360,200,169589,1,0,0:0:0:0:
352,152,169704,1,0,0:0:0:0:
232,72,169935,1,8,0:0:0:0:
208,256,170166,1,0,0:0:0:0:
40,192,170396,6,0,B|80:312,1,119.999996337891,4|0,0:0|0:0,0:0:0:0:
256,48,170858,1,8,0:0:0:0:
256,192,171089,1,0,0:0:0:0:
472,192,171319,2,0,B|432:312,1,119.999996337891,4|0,0:0|0:0,0:0:0:0:
96,72,171781,5,8,0:0:0:0:
176,192,172012,1,0,0:0:0:0:
424,72,172242,2,0,B|360:88|344:168,1,119.999996337891
176,192,172704,2,0,B|128:152|136:80,1,119.999996337891,8|0,0:0|0:0,0:0:0:0:
448,336,173166,2,0,B|360:256,1,119.999996337891
360,112,173627,1,8,0:0:0:0:
112,80,173858,6,0,B|64:120|80:200,1,119.999996337891
256,40,174319,1,0,0:0:0:0:
400,304,174550,2,0,B|448:264|432:184,1,119.999996337891,8|0,0:0|0:0,0:0:0:0:
256,352,175012,1,0,0:0:0:0:
120,288,175242,1,0,0:0:0:0:
256,152,175473,5,8,0:0:0:0:
256,152,175704,1,0,0:0:0:0:
40,40,175935,2,0,B|80:88|64:152,1,119.999996337891
96,296,176396,1,8,0:0:0:0:
240,264,176627,2,0,B|255:334|317:345,1,119.999996337891
432,256,177089,1,0,0:0:0:0:
400,112,177319,1,8,0:0:0:0:
256,128,177550,1,0,0:0:0:0:
80,32,177781,5,4,0:0:0:0:
160,216,178012,2,0,B|192:264|160:336,1,119.999996337891,0|8,0:0|0:0,0:0:0:0:
256,128,178473,1,0,0:0:0:0:
432,32,178704,2,0,B|384:80|392:144,1,119.999996337891,0|0,0:0|0:0,0:0:0:0:
80,32,179166,2,0,B|128:80|120:144,1,119.999996337891,8|0,0:0|0:0,0:0:0:0:
416,352,179627,1,0,0:0:0:0:
336,232,179858,2,0,B|369:175|336:112,1,119.999996337891,0|8,0:0|0:0,0:0:0:0:
168,240,180319,2,0,B|137:297|170:354,1,119.999996337891,0|0,0:0|0:0,0:0:0:0:
408,152,180781,6,0,B|441:95|408:32,1,119.999996337891,0|8,0:0|0:0,0:0:0:0:
256,304,181242,1,0,0:0:0:0:
101,37,181473,2,0,B|71:95|104:152,1,119.999996337891,0|0,0:0|0:0,0:0:0:0:
256,360,181935,1,8,0:0:0:0:
256,216,182166,1,0,0:0:0:0:
336,96,182396,2,0,B|360:152|336:216,1,119.999996337891,0|0,0:0|0:0,0:0:0:0:
56,328,182858,6,0,B|120:312|144:240,1,119.999996337891,0|0,0:0|0:0,0:0:0:0:
64,48,183319,2,0,B|72:112|136:144,1,119.999996337891,8|0,0:0|0:0,0:0:0:0:
256,328,183781,1,0,0:0:0:0:
256,184,184012,1,0,0:0:0:0:
376,256,184242,1,0,0:0:0:0:
376,256,184358,1,0,0:0:0:0:
376,256,184473,1,0,0:0:0:0:
120,352,184704,1,0,0:0:0:0:
52,224,184935,1,0,0:0:0:0:
196,225,185166,5,0,0:0:0:0:
400,144,185396,2,0,B|448:104,2,59.9999981689454,0|0|8,0:0|0:0|0:0,0:0:0:0:
352,360,185858,1,0,0:0:0:0:
160,328,186089,1,0,0:0:0:0:
352,224,186319,1,0,0:0:0:0:
160,128,186550,1,8,0:0:0:0:
352,32,186781,1,0,0:0:0:0:
88,288,187012,6,0,B|144:304|176:368,1,119.999996337891
256,192,187473,1,8,0:0:0:0:
256,192,187704,1,0,0:0:0:0:
424,288,187935,2,0,B|368:304|336:368,1,119.999996337891
96,88,188396,1,8,0:0:0:0:
136,224,188627,1,0,0:0:0:0:
160,264,188742,1,0,0:0:0:0:
208,272,188858,1,0,0:0:0:0:
320,184,189089,5,0,0:0:0:0:
408,304,189319,2,0,B|344:304|296:368,1,119.999996337891,8|0,0:0|0:0,0:0:0:0:
208,176,189781,1,0,0:0:0:0:
320,80,190012,1,0,0:0:0:0:
352,112,190127,1,0,0:0:0:0:
400,112,190242,1,8,0:0:0:0:
464,240,190473,2,0,B|408:272|400:344,1,119.999996337891,0|0,0:0|0:0,0:0:0:0:
264,288,190935,1,0,0:0:0:0:
128,336,191166,1,8,0:0:0:0:
32,224,191396,5,0,0:0:0:0:
32,224,191512,1,0,0:0:0:0:
32,224,191627,1,0,0:0:0:0:
112,104,191858,1,0,0:0:0:0:
200,224,192089,2,0,B|272:171|339:270|440:216,1,239.999992675781,8|0,0:0|0:0,0:0:0:0:
400,80,192781,5,0,0:0:0:0:
296,272,193012,2,0,B|288:336|344:384,2,119.999996337891,8|0|0,0:0|0:0|0:0,0:0:0:0:
232,104,193704,1,0,0:0:0:0:
232,104,193935,1,8,0:0:0:0:
128,224,194166,2,0,B|72:288,2,59.9999981689454
64,96,194627,1,0,0:0:0:0:
64,96,194858,1,8,0:0:0:0:
208,72,195089,6,0,B|256:24,2,59.9999981689454
240,216,195550,2,0,B|296:192|384:208,1,119.999996337891,0|8,0:0|0:0,0:0:0:0:
512,336,196012,2,0,B|464:368|392:344,1,119.999996337891
0,40,196473,6,0,B|56:16|144:32,1,119.999996337891,0|8,0:0|0:0,0:0:0:0:
272,160,196935,2,0,B|224:192|152:168,1,119.999996337891
312,80,197396,1,0,0:0:0:0:
344,112,197512,1,0,0:0:0:0:
360,160,197627,1,8,0:0:0:0:
256,304,197858,1,0,0:0:0:0:
96,216,198089,5,0,0:0:0:0:
176,56,198319,1,0,0:0:0:0:
208,90,198435,1,0,0:0:0:0:
212,137,198550,1,8,0:0:0:0:
183,278,198781,1,0,0:0:0:0:
350,248,199012,1,0,0:0:0:0:
512,320,199242,1,0,0:0:0:0:
464,344,199358,1,0,0:0:0:0:
432,384,199473,1,8,0:0:0:0:
296,328,199704,1,0,0:0:0:0:
320,184,199935,5,2,0:0:0:0:
88,64,200166,2,0,B|88:128|168:152,1,119.999996337891
256,48,200627,1,2,0:0:0:0:
424,320,200858,2,0,B|424:256|344:232,1,119.999996337891,0|2,0:0|0:0,0:0:0:0:
256,336,201319,1,0,0:0:0:0:
136,256,201550,1,2,0:0:0:0:
96,48,201781,6,0,B|104:112|40:144,1,119.999996337891,4|0,0:0|0:0,0:0:0:0:
416,48,202242,2,0,B|408:112|472:144,1,119.999996337891,4|0,0:0|0:0,0:0:0:0:
256,376,202704,1,0,0:0:0:0:
256,232,202935,1,0,0:0:0:0:
96,352,203210,1,2,0:0:0:0:
416,352,203440,1,2,0:0:0:0:
256,96,203671,5,4,0:0:0:0:
256,96,203931,1,4,0:0:0:0:
