osu file format v12

[General]
AudioFilename: Friendship Is Magic - Brony Appreciation Medley.mp3
AudioLeadIn: 0
PreviewTime: 17166
Countdown: 1
SampleSet: Normal
StackLeniency: 0.6
Mode: 0
LetterboxInBreaks: 1
WidescreenStoryboard: 1

[Editor]
Bookmarks: 61473,100704,112242,115935
DistanceSpacing: 1
BeatDivisor: 4
GridSize: 4

[Metadata]
Title:Brony Appreciation Medley
TitleUnicode:Brony Appreciation Medley
Artist:NRGFORCE
ArtistUnicode:NRGFORCE
Creator:TheVileOne
Version:Easy
Source:
Tags:My Little Pony MLP Daniel Ingram Remix Double Rainbow You're Gonna Go Far Kid TheOffSpring VinylDash14 Avast Fluttershy's Ass Winter Wrap Up Art Of The Dress VinylDash14 rainmon
BeatmapID:175503
BeatmapSetID:58384

[Difficulty]
HPDrainRate:2
CircleSize:3
OverallDifficulty:2
ApproachRate:3
SliderMultiplier:1.2
SliderTickRate:1

[Events]
//Background and Video events
0,0,"r9kcp1.jpg",0,0
//Break Periods
2,126289,139418
//Storyboard Layer 0 (Background)
//Storyboard Layer 1 (Fail)
//Storyboard Layer 2 (Pass)
//Storyboard Layer 3 (Foreground)
//Storyboard Sound Samples
//Background Colour Transformations
3,100,163,162,255

[TimingPoints]
2240,533.333333333333,4,1,0,100,1,0
15040,526.315789473684,4,1,0,100,1,0
17166,461.538461538462,4,1,0,100,1,0
19242,-100,4,1,1,85,0,0
19704,-100,4,1,0,100,0,0
20166,-100,4,1,1,85,0,0
20627,-100,4,1,1,100,0,0
21089,-100,4,1,1,85,0,0
21550,-100,4,1,1,100,0,0
22935,-100,4,1,1,85,0,0
23396,-100,4,1,1,100,0,0
23858,-100,4,1,1,85,0,0
24319,-100,4,1,1,100,0,0
24781,-100,4,1,1,85,0,0
25242,-100,4,1,1,100,0,0
25704,-100,4,1,1,85,0,0
26166,-100,4,1,1,100,0,0
26627,-100,4,1,1,85,0,0
27089,-100,4,1,1,100,0,0
27550,-100,4,1,1,95,0,0
28012,-100,4,1,1,100,0,0
28473,-100,4,1,1,75,0,0
28935,-100,4,1,1,100,0,0
29396,-100,4,1,1,95,0,0
29858,-100,4,1,1,100,0,0
30319,-100,4,1,1,95,0,0
30781,-100,4,1,1,100,0,0
31242,-100,4,1,1,95,0,0
31704,-100,4,1,0,100,0,0
32166,-100,4,1,1,95,0,0
32627,-100,4,1,1,100,0,0
33089,-100,4,1,1,95,0,0
33550,-100,4,1,1,100,0,0
34012,-100,4,1,1,75,0,0
34473,-100,4,1,0,100,0,0
34935,-100,4,1,1,95,0,0
37704,-100,4,1,1,75,0,0
38166,-100,4,1,1,85,0,0
44858,-100,4,1,1,80,0,0
47396,-100,4,1,0,95,0,0
47858,-100,4,1,1,95,0,0
52242,-100,4,1,1,95,0,1
59627,-100,4,1,1,85,0,1
62166,-100,4,1,0,85,0,1
62627,-100,4,1,1,95,0,1
63550,-100,4,1,1,90,0,1
67473,-100,4,1,0,95,0,1
67935,-100,4,1,1,70,0,0
68396,-100,4,1,1,95,0,0
69089,-100,4,1,1,90,0,0
69550,-100,4,1,1,85,0,0
70012,-100,4,1,0,95,0,0
71627,-100,4,1,1,70,0,0
72089,-100,4,1,1,95,0,0
72781,-100,4,1,1,90,0,0
73242,-100,4,1,1,85,0,0
73704,-100,4,1,0,95,0,0
75319,-100,4,1,1,70,0,0
75781,-100,4,1,1,100,0,0
76704,-100,4,1,0,70,0,0
77627,-100,4,1,0,100,0,0
79012,-100,4,1,0,70,0,0
79473,-100,4,1,0,100,0,0
81781,-100,4,1,1,100,0,0
89050,-100,4,1,0,100,0,0
89281,-100,4,1,1,100,0,0
91589,-100,4,1,1,100,0,0
96550,-100,4,1,0,100,0,0
97819,-100,4,1,1,100,0,0
98050,-100,4,1,0,100,0,0
99666,-100,4,1,1,100,0,0
99896,-100,4,1,0,100,0,0
101512,-100,4,1,1,100,0,0
101742,-100,4,1,0,100,0,0
103358,-100,4,1,1,100,0,0
103589,-100,4,1,0,100,0,0
105204,-100,4,1,1,100,0,0
105435,-100,4,1,0,100,0,0
111319,-100,4,2,0,100,0,1
111550,-100,4,1,0,100,0,1
112589,-100,4,1,1,100,0,1
112819,-100,4,1,0,100,0,1
114435,-100,4,1,1,100,0,1
114666,-100,4,1,0,100,0,1
116281,-100,4,1,1,100,0,1
116512,-100,4,1,0,100,0,1
118127,-100,4,1,1,100,0,1
118358,-100,4,1,0,100,0,1
119973,-100,4,1,1,100,0,1
120204,-100,4,1,0,100,0,1
121819,-100,4,1,1,100,0,1
122050,-100,4,1,0,100,0,1
123666,-100,4,1,1,100,0,1
123896,-100,4,1,0,100,0,1
125512,-100,4,1,1,100,0,1
125742,-100,4,1,0,100,0,1
126089,-100,4,1,0,100,0,0
142127,-100,4,1,1,100,0,0
142358,-100,4,1,0,100,0,0
143973,-100,4,1,1,100,0,0
144204,-100,4,1,0,100,0,0
145819,-100,4,1,1,100,0,0
146050,-100,4,1,0,100,0,0
146166,-100,4,1,0,50,0,0
146396,-100,4,1,0,100,0,0
147666,-100,4,1,1,100,0,0
147896,-100,4,1,0,100,0,0
149512,-100,4,1,1,100,0,0
149742,-100,4,1,0,100,0,0
151358,-100,4,1,1,100,0,0
151589,-100,4,1,0,100,0,0
152627,-100,4,1,0,75,0,0
152858,-100,4,1,0,100,0,0
153204,-100,4,1,1,100,0,0
153435,-100,4,1,0,100,0,0
156896,-100,4,1,1,100,0,0
157127,-100,4,1,0,100,0,0
171666,-100,4,1,1,100,0,0
171896,-100,4,1,0,100,0,0
203210,461.538461538462,4,1,0,100,1,0

[Colours]
Combo1 : 255,150,0
Combo2 : 0,128,192
Combo3 : 38,206,68
Combo4 : 240,5,5

[HitObjects]
112,176,17166,2,0,B|176:200|232:176,1,120
288,72,18089,2,0,B|352:40|432:72,1,120
456,168,19012,6,0,B|455:234|399:282,1,120,4|10,0:0|0:0,0:0:0:0:
288,289,19935,2,0,P|296:225|336:177,1,120,0|10,0:0|0:0,0:0:0:0:
288,72,20858,2,0,B|228:104|172:104,2,120,0|10|0,0:0|0:0|0:0,0:0:0:0:
408,80,22242,1,10,0:0:0:0:
480,176,22704,5,4,0:0:0:0:
360,192,23166,1,10,0:0:0:0:
428,292,23627,2,0,B|324:352,1,120,0|10,0:0|0:0,0:0:0:0:
220,288,24550,1,0,0:0:0:0:
112,344,25012,2,0,B|56:304|52:244,2,120,10|0|10,0:0|0:0|0:0,0:0:0:0:
176,244,26396,6,0,B|276:340,2,120,0|10|0,0:0|0:0|0:0,0:0:0:0:
68,192,27781,1,8,0:0:0:0:
140,96,28242,6,0,B|256:43|376:100,1,240
488,76,29627,1,10,0:0:0:0:
440,188,30089,2,0,B|464:308,2,120,0|10|0,0:0|0:0|0:0,0:0:0:0:
364,96,31473,6,0,B|255:40|244:152|135:96,1,240,10|10,0:0|0:0,0:0:0:0:
56,188,32858,2,0,B|32:308,1,120,0|10,0:0|0:0,0:0:0:0:
135,367,33781,6,0,B|244:311|255:423|364:367,1,240,0|0,0:0|0:0,0:0:0:0:
447,280,35166,1,10,0:0:0:0:
377,182,35627,5,0,0:0:0:0:
378,61,36089,1,10,0:0:0:0:
270,115,36550,1,0,0:0:0:0:
166,54,37012,1,10,0:0:0:0:
48,75,37473,6,0,B|8:171|16:235|72:307,1,240,0|0,0:0|0:0,0:0:0:0:
176,250,38858,1,10,0:0:0:0:
296,272,39319,6,0,B|280:344|344:392,1,120,0|8,0:0|0:0,0:0:0:0:
408,288,40242,2,0,B|416:216|360:176,1,120,0|10,0:0|0:0,0:0:0:0:
264,120,41166,6,0,P|200:148|172:312,1,240
280,248,42550,1,10,0:0:0:0:
276,384,43012,2,0,P|380:340|405:225,1,240
429,107,44396,1,10,0:0:0:0:
316,68,44858,6,0,P|228:52|92:116,1,240
132,228,46242,1,10,0:0:0:0:
80,336,46704,2,0,B|248:416|256:264|432:344,1,360,0|10,0:0|0:0,0:0:0:0:
256,192,48550,12,0,51319,0:0:0:0:
150,88,52242,6,0,B|208:32|256:32|302:32|366:88,1,240,4|0,0:0|0:0,0:0:0:0:
424,192,53627,1,10,0:0:0:0:
363,297,54089,2,0,B|302:352|256:352|208:352|150:296,1,240,4|0,0:0|0:0,0:0:0:0:
201,187,55473,1,10,0:0:0:0:
256,80,55935,6,0,P|316:64|376:80,1,120,4|10,0:0|0:0,0:0:0:0:
444,172,56858,1,0,0:0:0:0:
376,272,57319,2,0,P|320:285|260:269,1,120,10|0,0:0|0:0,0:0:0:0:
172,188,58242,1,10,0:0:0:0:
48,212,58704,2,0,P|68:100|180:56,1,240,0|4,0:0|0:0,0:0:0:0:
256,144,60089,5,10,0:0:0:0:
484,76,61012,1,10,0:0:0:0:
468,196,61473,2,0,B|444:280|336:272|336:272|328:364,2,240
360,144,63781,5,10,0:0:0:0:
240,128,64242,2,0,B|248:56|308:32,2,120,0|10|0,0:0|0:0|0:0,0:0:0:0:
288,236,65627,1,10,0:0:0:0:
180,288,66089,2,0,P|120:304|64:288,1,120,0|10,0:0|0:0,0:0:0:0:
28,136,67012,6,0,B|104:28|244:48,1,240,4|10,0:0|0:0,0:0:0:0:
328,268,68858,1,2,0:0:0:0:
256,172,69319,1,0,0:0:0:0:
176,264,69781,1,10,0:0:0:0:
484,136,70704,6,0,B|408:28|268:48,1,240,4|8,0:0|0:0,0:0:0:0:
176,264,72550,1,2,0:0:0:0:
256,172,73012,1,0,0:0:0:0:
328,268,73473,1,10,0:0:0:0:
96,320,74396,6,0,B|48:224|136:184|80:80,1,240,0|0,0:0|0:0,0:0:0:0:
368,48,76242,1,2,0:0:0:0:
376,328,77166,1,8,0:0:0:0:
136,304,78089,6,0,B|64:192|136:72,1,240,0|0,0:0|0:0,0:0:0:0:
344,192,79935,1,0,0:0:0:0:
344,192,80858,1,8,0:0:0:0:
128,112,81781,6,0,B|79:164|94:227,1,120,4|2,0:0|0:0,0:0:0:0:
212,194,82704,1,0,0:0:0:0:
327,169,83165,6,0,B|340:239|289:299,1,120,10|0,0:0|0:0,0:0:0:0:
192,328,84089,1,2,0:0:0:0:
96,256,84550,1,0,0:0:0:0:
168,160,85012,6,0,B|136:104|160:40,2,120,10|0|0,0:0|0:0|0:0,0:0:0:0:
272,224,86396,1,0,0:0:0:0:
384,264,86858,6,0,B|416:320|392:384,2,120,10|0|2,0:0|0:0|0:0,0:0:0:0:
464,176,88242,1,0,0:0:0:0:
372,100,88704,6,0,B|260:60|252:156|140:108,1,240,10|2,0:0|0:0,0:0:0:0:
56,192,90089,1,0,0:0:0:0:
128,288,90550,5,10,0:0:0:0:
248,268,91012,2,0,B|360:228|368:324|480:276,1,240,0|0,0:0|0:0,0:0:0:0:
424,168,92396,5,10,0:0:0:0:
356,68,92858,1,0,0:0:0:0:
240,100,93319,1,2,0:0:0:0:
148,24,93781,1,0,0:0:0:0:
64,112,94242,5,10,0:0:0:0:
152,192,94704,2,0,P|208:208|268:192,2,120,0|2|0,0:0|0:0|0:0,0:0:0:0:
216,92,96089,1,2,0:0:0:0:
336,92,96550,5,4,0:0:0:0:
416,180,97012,2,0,P|442:233|434:295,1,120,8|0,0:0|0:0,0:0:0:0:
323,335,97935,2,0,L|207:300,1,120,2|2,0:0|0:0,0:0:0:0:
89,279,98858,5,8,0:0:0:0:
172,192,99319,2,0,P|204:152|212:84,2,120,0|2|2,0:0|0:0|0:0,0:0:0:0:
272,260,100704,5,8,0:0:0:0:
184,344,101165,1,0,0:0:0:0:
68,316,101627,2,0,P|52:248|68:196,1,120,10|2,0:0|0:0,0:0:0:0:
180,160,102550,5,8,0:0:0:0:
256,68,103012,1,0,0:0:0:0:
331,160,103473,2,0,P|390:155|445:186,1,120,10|2,0:0|0:0,0:0:0:0:
367,276,104396,6,0,B|307:304|307:304|255:272|203:304|203:304|147:276,1,240,8|10,0:0|0:0,0:0:0:0:
161,156,105781,2,0,P|221:100|353:160,1,240,0|0,0:0|0:0,0:0:0:0:
256,192,107627,12,4,111319,0:0:0:0:
420,156,112242,1,0,0:0:0:0:
439,274,112704,1,10,0:0:0:0:
328,228,113166,2,0,P|268:212|212:228,1,120,0|8,0:0|0:0,0:0:0:0:
132,316,114089,1,0,0:0:0:0:
40,240,114550,1,10,0:0:0:0:
124,156,115012,6,0,P|188:104|196:68,1,120,2|8,0:0|0:0,0:0:0:0:
316,72,115935,2,0,P|337:126|387:157,1,120,2|10,0:0|0:0,0:0:0:0:
436,268,116858,6,0,B|348:368,1,120,0|8,0:0|0:0,0:0:0:0:
240,328,117781,1,0,0:0:0:0:
320,236,118242,1,10,0:0:0:0:
436,264,118704,5,2,0:0:0:0:
436,264,119165,1,8,0:0:0:0:
404,148,119627,2,0,B|448:96,2,60,0|0|10,0:0|0:0|0:0,0:0:0:0:
320,236,120550,5,2,0:0:0:0:
320,236,121012,1,8,0:0:0:0:
256,136,121473,2,0,B|256:72,2,60,0|0|8,0:0|0:0|0:0,0:0:0:0:
192,240,122396,5,2,0:0:0:0:
192,240,122858,1,8,0:0:0:0:
72,240,123319,1,2,0:0:0:0:
72,240,123781,1,10,0:0:0:0:
136,140,124242,6,0,P|180:111|180:44,1,120,0|8,0:0|0:0,0:0:0:0:
329,48,125166,2,0,P|329:106|376:140,1,120,0|10,0:0|0:0,0:0:0:0:
256,228,126089,1,4,0:0:0:0:
144,72,140858,5,6,0:0:0:0:
88,176,141319,1,0,0:0:0:0:
144,281,141781,1,2,0:0:0:0:
264,280,142242,1,10,0:0:0:0:
368,368,142704,6,0,P|396:304|360:184,1,180
232,88,144089,1,10,0:0:0:0:
112,88,144550,5,2,0:0:0:0:
112,208,145012,1,8,0:0:0:0:
112,328,145473,2,0,B|194:374|288:328,1,180,2|0,0:0|0:0,0:0:0:0:
464,336,146858,5,8,0:0:0:0:
464,216,147319,1,8,0:0:0:0:
464,96,147781,1,10,0:0:0:0:
348,130,148242,6,0,B|308:44|196:44|160:132,1,240,4|0,0:0|0:0,0:0:0:0:
212,238,149627,1,10,0:0:0:0:
280,338,150089,6,0,B|352:330|384:266,1,120,4|0,0:0|0:0,0:0:0:0:
372,217,150781,1,0,0:0:0:0:
256,80,151473,1,10,0:0:0:0:
160,152,151935,6,0,B|76:112|-16:152,1,180,0|0,0:0|0:0,0:0:0:0:
16,264,153089,2,2,B|136:264,1,120,0|0,0:0|0:0,0:0:0:0:
256,192,153781,12,4,155627,0:0:0:0:
136,100,156550,6,0,B|136:224,2,120,0|8|0,0:0|0:0|0:0,0:0:0:0:
376,284,158396,2,0,B|376:160,2,120,0|8|0,0:0|0:0|0:0,0:0:0:0:
256,256,159781,5,0,0:0:0:0:
144,296,160242,1,0,0:0:0:0:
110,180,160704,1,8,0:0:0:0:
223,142,161165,6,0,B|303:38,1,120
368,144,162089,2,0,B|448:40,2,120,0|8|0,0:0|0:0|0:0,0:0:0:0:
288,232,163473,5,8,0:0:0:0:
288,232,163935,1,0,0:0:0:0:
198,152,164396,1,8,0:0:0:0:
88,200,164858,6,0,P|64:252|80:312,1,120,0|8,0:0|0:0,0:0:0:0:
192,352,165781,1,0,0:0:0:0:
304,312,166242,1,8,0:0:0:0:
416,356,166704,6,0,B|476:328|480:260,1,120,0|8,0:0|0:0,0:0:0:0:
480,140,167627,2,0,B|480:60|408:60,1,120,0|8,0:0|0:0,0:0:0:0:
292,60,168550,6,0,B|44:60,1,240
36,180,169935,1,8,0:0:0:0:
108,284,170396,6,0,B|146:284|181:257|196:212,1,120,6|8,0:0|0:0,0:0:0:0:
316,212,171319,2,0,B|330:255|365:282|403:282,1,120,6|8,0:0|0:0,0:0:0:0:
464,180,172242,1,2,0:0:0:0:
408,72,172704,1,8,0:0:0:0:
288,72,173166,1,2,0:0:0:0:
56,140,174089,6,0,B|159:229|122:355,1,240,8|2,0:0|0:0,0:0:0:0:
456,224,175935,2,0,B|352:144|384:8,1,240,0|2,0:0|0:0,0:0:0:0:
144,56,177781,5,4,0:0:0:0:
64,144,178242,1,0,0:0:0:0:
72,264,178704,2,8,P|124:284|160:340,1,120,2|8,0:0|0:0,0:0:0:0:
272,300,179627,2,0,B|352:352|444:304,1,180
492,132,181012,1,8,0:0:0:0:
392,68,181473,6,0,P|276:36|160:68,1,240,0|8,0:0|0:0,0:0:0:0:
256,192,182858,12,0,187012,0:0:0:0:
344,104,187935,6,0,B|256:64|168:104,1,180,0|8,0:0|0:0,0:0:0:0:
200,280,189319,1,0,0:0:0:0:
256,176,189781,1,0,0:0:0:0:
312,280,190242,1,8,0:0:0:0:
408,344,190704,6,0,B|456:272|432:168,1,180,0|0,0:0|0:0,0:0:0:0:
256,176,192089,1,8,0:0:0:0:
144,128,192550,5,0,0:0:0:0:
32,176,193012,2,0,B|42:243|96:280,1,120,8|0,0:0|0:0,0:0:0:0:
211,271,193935,1,8,0:0:0:0:
312,336,194396,6,0,B|416:288|424:176,1,180,0|0,0:0|0:0,0:0:0:0:
320,48,195781,1,8,0:0:0:0:
216,112,196242,5,0,0:0:0:0:
64,208,196935,1,0,0:0:0:0:
216,304,197627,1,8,0:0:0:0:
256,192,198089,12,0,200858,0:0:0:0:
96,80,201781,6,0,B|104:144|176:168,1,120,4|0,0:0|0:0,0:0:0:0:
183,285,202704,2,0,B|231:237|303:245,1,120,0|0,0:0|0:0,0:0:0:0:
400,320,203671,1,4,0:0:0:0:
