osu file format v14

[General]
AudioFilename: NOX - Firesong.mp3
AudioLeadIn: 0
PreviewTime: 36498
Countdown: 0
SampleSet: Soft
StackLeniency: 0.7
Mode: 0
LetterboxInBreaks: 1
StoryFireInFront: 0
EpilepsyWarning: 1
WidescreenStoryboard: 1

[Editor]
Bookmarks: 11963,31054,36508,47417,58326,59690,81508,102474,103326,114225,125144,126508,137407,148316,159235,164689,170144,172871,194689,215655,216508,227417,238326,239689,250598,260825
DistanceSpacing: 1
BeatDivisor: 4
GridSize: 16
TimelineZoom: 2.1

[Metadata]
Title:Firesong
TitleUnicode:Firesong
Artist:NOX
ArtistUnicode:NOX
Creator:Shiro
Version:Normal
Source:
Tags:Odaril Bűvölet Buvolet Péter Peter Szabó Szabo Szilvia hungarian magyar Folk World Country Tűztánc Tuztanc Charles445
BeatmapID:723266
BeatmapSetID:294935

[Difficulty]
HPDrainRate:3
CircleSize:3
OverallDifficulty:5
ApproachRate:5
SliderMultiplier:2.40000000000001
SliderTickRate:1

[Events]
//Background and Video events
0,0,"background.png",0,0
//Break Periods
//Storyboard Layer 0 (Background)
//Storyboard Layer 1 (Fail)
//Storyboard Layer 2 (Pass)
//Storyboard Layer 3 (Foreground)
//Storyboard Sound Samples

[TimingPoints]
1054,681.818181818182,4,2,2,50,1,0
9230,-100,4,2,2,35,0,0
36508,-100,4,2,2,75,0,1
58326,-100,4,2,2,50,0,0
59008,-100,4,2,2,48,0,0
59179,-100,4,2,2,46,0,0
59349,-100,4,2,2,44,0,0
59519,-100,4,2,2,42,0,0
59690,681.818181818182,4,2,2,35,1,0
59690,-100,4,2,2,35,0,0
59691,-100,4,2,2,20,0,0
81508,-100,4,2,2,35,0,0
102303,-100,4,2,2,35,0,0
103326,-100,4,2,2,75,0,1
125144,-100,4,2,2,50,0,0
126508,681.818181818182,4,2,2,75,1,1
148326,-100,4,2,2,50,0,0
150371,-100,4,2,2,50,0,0
150428,-100,4,2,2,45,0,0
150485,-100,4,2,2,40,0,0
150542,-100,4,2,2,35,0,0
150598,-100,4,2,2,30,0,0
150655,-100,4,2,2,25,0,0
150712,-100,4,2,2,50,0,0
155826,-100,4,2,2,50,0,0
155883,-100,4,2,2,45,0,0
155939,-100,4,2,2,40,0,0
155996,-100,4,2,2,35,0,0
156053,-100,4,2,2,30,0,0
156110,-100,4,2,2,25,0,0
156167,-100,4,2,2,50,0,0
159235,-100,4,2,2,65,0,0
160598,-100,4,2,2,50,0,0
161963,-100,4,2,2,40,0,0
164690,-100,4,2,2,50,0,0
165031,-100,4,2,2,60,0,0
165713,-100,4,2,2,65,0,0
166054,-100,4,2,2,70,0,0
166395,-100,4,2,2,70,0,0
167077,-100,4,2,2,75,0,0
167417,-100,4,2,2,80,0,0
170144,-100,4,2,2,85,0,0
170656,-100,4,2,2,65,0,0
171168,-100,4,2,2,45,0,0
171679,-100,4,2,2,25,0,0
172190,-100,4,2,2,5,0,0
172872,-100,4,2,2,20,0,0
194179,-100,4,2,2,20,0,0
194349,-100,4,2,2,30,0,0
194520,-100,4,2,2,40,0,0
194690,-100,4,2,2,50,0,0
216508,-100,4,2,2,75,0,1
238326,-100,4,2,2,75,0,0
239689,681.818181818182,4,2,2,75,1,1
239690,-100,4,2,2,75,0,1
260825,-100,4,2,2,50,0,0

[Colours]
Combo1 : 255,255,0
Combo2 : 255,0,0
Combo3 : 255,128,0

[HitObjects]
196,72,11963,5,0,1:0:0:0:
316,72,12304,1,0,1:0:0:0:
420,130,12644,2,0,P|430:248|358:345,1,240.000000000001,0|2,0:0|0:0,0:0:0:0:
143,241,14008,1,2,0:0:0:0:
316,72,14690,5,2,1:2:0:0:
196,72,15031,2,0,P|136:95|91:135,1,120.000000000001,2|0,1:2|0:0,0:0:0:0:
25,230,15713,1,0,0:0:0:0:
70,341,16054,2,0,P|187:346|313:334,1,240.000000000001,2|0,0:2|0:0,0:0:0:0:
196,122,17417,5,0,1:0:0:0:
316,122,17758,1,0,1:0:0:0:
256,225,18099,1,2,0:0:0:0:
136,16,18781,1,2,0:0:0:0:
376,16,19463,2,0,P|429:50|460:99,1,120.000000000001,2|0,0:0|0:0,0:0:0:0:
433,214,20144,5,2,1:2:0:0:
363,312,20485,2,0,P|287:327|120:314,1,240.000000000001,0|0,1:0|0:0,0:0:0:0:
99,192,21508,2,0,P|220:224|340:207,1,240.000000000001,2|0,0:0|0:0,0:0:0:0:
160,89,22872,5,2,1:2:0:0:
99,192,23213,1,0,1:0:0:0:
160,295,23554,1,2,0:0:0:0:
256,79,24235,1,2,0:0:0:0:
369,291,24917,2,0,P|407:239|422:180,1,120.000000000001,0|2,0:0|0:0,0:0:0:0:
378,73,25599,5,2,1:2:0:0:
312,174,25940,2,0,P|266:217|211:237,1,120.000000000001,2|0,1:2|0:0,0:0:0:0:
93,220,26622,1,0,0:0:0:0:
62,104,26963,2,0,P|149:42|281:83,1,240.000000000001,2|0,0:0|0:0,0:0:0:0:
369,291,28326,5,0,1:0:0:0:
256,333,28667,1,0,1:0:0:0:
143,291,29008,1,0,0:0:0:0:
256,80,29690,2,0,P|371:83|419:201,1,240.000000000001,0|2,0:0|0:0,0:0:0:0:
143,291,31054,6,0,B|91:241|91:241|62:171,1,120.000000000001,2|0,1:2|1:0,0:0:0:0:
50,141,31565,1,2,0:0:0:0:
211,220,32076,1,0,0:0:0:0:
211,220,32417,2,0,L|161:42,2,180.000000000001,2|2|0,0:0|0:0|0:0,0:0:0:0:
369,291,33781,6,0,B|416:255|416:255|450:171,1,120.000000000001,2|0,1:2|1:0,0:0:0:0:
461,142,34292,1,2,0:0:0:0:
301,220,34803,1,0,0:0:0:0:
301,220,35144,2,0,L|351:42,2,180.000000000001,2|2|0,0:0|1:2|1:0,0:0:0:0:
256,331,36508,5,0,1:0:0:0:
137,315,36849,1,0,1:0:0:0:
98,201,37190,2,0,P|104:137|141:83,1,120.000000000001,8|0,1:2|0:0,0:0:0:0:
215,178,37872,1,0,1:0:0:0:
334,194,38213,1,0,1:0:0:0:
452,175,38554,2,0,P|439:111|396:62,1,120.000000000001,8|0,1:2|0:0,0:0:0:0:
288,82,39235,5,0,1:0:0:0:
168,69,39576,1,0,1:0:0:0:
65,132,39917,2,0,L|34:78,2,60.0000000000003,8|0|0,1:2|0:0|0:0,0:0:0:0:
65,252,40599,2,0,L|0:366,2,120.000000000001,0|0|8,1:2|1:0|1:2,0:0:0:0:
295,318,41963,5,0,1:0:0:0:
367,222,42304,1,0,1:0:0:0:
414,332,42644,2,0,P|466:289|484:240,1,120.000000000001,8|0,1:2|0:0,0:0:0:0:
442,127,43326,1,0,1:0:0:0:
367,222,43667,1,0,1:0:0:0:
322,109,44008,2,0,P|350:47|392:17,1,120.000000000001,8|0,1:2|0:0,0:0:0:0:
442,127,44690,5,0,1:0:0:0:
367,222,45031,1,0,1:0:0:0:
248,204,45372,2,0,L|231:269,2,60.0000000000003,8|0|0,1:2|0:0|0:0,0:0:0:0:
129,186,46054,2,0,L|96:310,1,120.000000000001,0|0,1:0|1:0,0:0:0:0:
14,216,46735,1,12,1:2:0:0:
206,72,47417,6,0,L|331:53,1,120.000000000001,4|0,1:2|1:0,0:0:0:0:
399,148,48099,2,0,B|280:167|280:167,1,120.000000000001,8|0,1:2|0:0,0:0:0:0:
240,280,48781,2,0,L|358:261,2,120.000000000001,0|0|8,1:0|1:0|1:2,0:0:0:0:
121,296,49804,1,0,0:0:0:0:
52,197,50144,6,0,P|26:142|29:82,2,120.000000000001,0|0|8,1:0|1:0|1:2,0:0:0:0:
143,119,51167,1,0,0:0:0:0:
235,42,51508,2,0,P|261:97|258:157,2,120.000000000001,0|0|8,1:0|1:0|1:2,0:0:0:0:
143,119,52531,1,0,0:0:0:0:
171,235,52872,6,0,P|216:267|280:273,1,120.000000000001,0|0,1:0|1:0,0:0:0:0:
371,195,53554,1,8,1:2:0:0:
418,85,53894,1,0,0:0:0:0:
489,181,54235,1,0,1:0:0:0:
371,195,54576,1,0,1:0:0:0:
253,209,54917,1,8,1:2:0:0:
165,126,55258,2,0,L|107:103,1,60.0000000000003
54,128,55599,6,0,P|18:191|21:244,2,120.000000000001,0|0|8,1:0|1:0|1:2,0:0:0:0:
133,214,56622,1,0,0:0:0:0:
253,209,56963,2,0,P|241:268|196:317,2,120.000000000001,0|0|8,1:1|1:1|1:2,0:0:0:0:
458,84,58326,5,4,1:2:0:0:
458,84,59008,1,4,1:2:0:0:
406,192,59349,1,0,1:2:0:0:
458,300,59690,5,2,1:2:0:0:
354,83,60371,1,2,0:0:0:0:
113,78,61053,2,0,B|148:162|6:207|43:292,1,240.000000000001,2|0,0:0|0:0,0:0:0:0:
157,331,62076,1,0,0:0:0:0:
256,263,62417,2,0,L|256:75,2,180.000000000001,0|2|0,0:0|0:0|0:0,0:0:0:0:
355,331,63780,2,0,B|436:287|354:163|435:120,1,240.000000000001,2|0,0:0|0:0,0:0:0:0:
202,177,65144,5,2,2:0:0:0:
107,252,65485,1,0,2:0:0:0:
6,185,65826,1,2,2:0:0:0:
38,69,66167,1,0,2:0:0:0:
156,62,66508,2,0,B|238:19|293:158|375:116,1,240.000000000001,2|2,0:0|0:0,0:0:0:0:
363,356,67871,1,2,0:0:0:0:
297,255,68212,2,0,B|319:165|171:143|194:53,1,240.000000000001,2|0,0:0|0:0,0:0:0:0:
317,53,69235,2,0,B|340:143|192:165|215:255,1,240.000000000001,2|0,0:0|0:0,0:0:0:0:
149,356,70258,1,0,0:0:0:0:
61,273,70599,6,0,P|34:206|32:156,1,120.000000000001,2|0,0:0|0:0,0:0:0:0:
97,57,71280,1,2,0:0:0:0:
97,57,71621,1,0,0:0:0:0:
185,140,71962,2,0,P|212:207|214:257,1,120.000000000001,2|0,0:0|0:0,0:0:0:0:
149,356,72643,1,2,0:0:0:0:
149,356,72984,1,0,0:0:0:0:
137,236,73326,1,2,0:0:0:0:
107,119,73667,2,0,P|217:101|353:119,1,240.000000000001,2|0,0:0|0:0,0:0:0:0:
373,233,74690,2,0,P|263:251|127:233,1,240.000000000001,2|0,0:0|0:0,0:0:0:0:
308,68,76053,6,0,P|362:97|425:111,1,120.000000000001,2|0,0:0|0:0,0:0:0:0:
489,207,76735,1,2,0:0:0:0:
373,233,77076,1,0,0:0:0:0:
280,309,77417,2,0,P|334:338|397:352,1,120.000000000001,2|0,0:0|0:0,0:0:0:0:
373,233,78099,2,0,P|319:204|256:190,1,120.000000000001,2|0,0:0|0:0,0:0:0:0:
165,261,78780,1,2,0:0:0:0:
47,284,79121,2,0,P|37:200|93:56,1,240.000000000001
210,88,80144,2,0,P|271:189|279:308,1,240.000000000001,0|2,0:0|0:0,0:0:0:0:
426,118,81508,5,0,1:0:0:0:
426,118,81849,1,0,1:0:0:0:
460,233,82190,2,0,P|435:292|390:339,1,120.000000000001,2|0,0:0|0:0,0:0:0:0:
278,308,82871,2,0,P|271:189|210:88,1,240.000000000001,2|2,0:0|0:0,0:0:0:0:
95,299,84235,5,0,1:0:0:0:
95,299,84576,2,0,P|210:265|331:273,1,240.000000000001,2|0,1:2|0:0,0:0:0:0:
283,160,85599,2,0,P|399:188|500:255,1,240.000000000001,0|2,0:0|0:0,0:0:0:0:
357,59,86962,5,0,1:0:0:0:
357,59,87303,1,0,1:0:0:0:
237,54,87644,2,0,P|173:63|111:85,1,120.000000000001,2|0,0:0|0:0,0:0:0:0:
216,153,88326,2,0,P|168:197|130:250,1,120.000000000001,2|0,0:0|0:0,0:0:0:0:
255,246,89008,2,0,P|241:309|241:375,1,120.000000000001,2|0,0:0|0:0,0:0:0:0:
340,299,89690,5,0,1:0:0:0:
340,299,90030,2,0,P|370:211|282:90,1,240.000000000001,2|0,1:2|0:0,0:0:0:0:
174,101,91053,2,0,P|143:188|231:309,1,240.000000000001,0|2,0:0|0:0,0:0:0:0:
393,124,92417,6,0,P|442:77|466:30,2,120.000000000001,2|0|2,1:2|1:0|0:0,0:0:0:0:
294,192,93440,1,2,0:0:0:0:
393,260,93780,2,0,P|442:307|466:354,2,120.000000000001,2|0|2,0:0|0:0|0:0,0:0:0:0:
294,192,94803,1,0,0:0:0:0:
189,132,95144,5,2,1:2:0:0:
73,165,95485,1,0,1:0:0:0:
160,247,95826,2,0,P|273:279|402:255,2,240.000000000001,2|2|0,0:0|0:0|0:0,0:0:0:0:
189,132,97530,1,2,0:0:0:0:
293,73,97871,5,2,1:2:0:0:
352,177,98212,1,0,1:0:0:0:
411,281,98553,2,0,P|386:331|325:359,1,120.000000000001,2|0,0:0|0:0,0:0:0:0:
210,354,99235,2,0,P|111:310|55:196,1,240.000000000001,2|2,0:0|0:0,0:0:0:0:
281,276,100599,5,2,1:2:0:0:
352,177,100940,2,0,P|364:110|341:58,1,120.000000000001,2|0,1:2|0:0,0:0:0:0:
242,129,101621,1,2,0:0:0:0:
141,63,101962,1,0,1:0:0:0:
141,63,102644,1,0,1:0:0:0:
242,129,102985,1,0,1:0:0:0:
352,177,103326,6,0,P|364:110|341:58,1,120.000000000001,0|0,1:2|1:0,0:0:0:0:
242,129,104008,2,0,P|230:196|253:248,1,120.000000000001,8|0,1:2|0:0,0:0:0:0:
355,297,104690,1,0,1:0:0:0:
456,233,105030,1,0,1:0:0:0:
355,297,105371,2,0,P|293:317|236:317,1,120.000000000001,8|0,1:2|0:0,0:0:0:0:
137,252,106053,5,0,1:0:0:0:
137,132,106394,1,0,1:0:0:0:
234,61,106735,2,0,L|298:40,2,60.0000000000003,8|0|0,1:2|0:0|0:0,0:0:0:0:
244,180,107417,2,0,P|279:216|349:231,1,120.000000000001,0|0,1:0|1:0,0:0:0:0:
446,296,108099,2,0,P|411:332|341:347,1,120.000000000001,8|0,1:2|0:0,0:0:0:0:
175,279,108780,6,0,P|139:244|124:174,1,120.000000000001,0|0,1:0|1:0,0:0:0:0:
192,78,109462,2,0,P|228:113|243:183,1,120.000000000001,8|0,1:2|0:0,0:0:0:0:
296,287,110144,1,0,1:0:0:0:
363,187,110485,2,0,L|420:228,2,60.0000000000003,0|0|8,1:0|0:0|1:2,0:0:0:0:
309,79,111167,1,0,0:0:0:0:
191,77,111508,6,0,P|132:79|83:113,1,120.000000000001,0|0,1:2|1:0,0:0:0:0:
62,233,112190,2,0,P|121:231|170:197,1,120.000000000001,8|0,1:2|0:0,0:0:0:0:
284,160,112871,2,0,P|344:182|391:215,1,120.000000000001,0|0,1:0|1:0,0:0:0:0:
375,333,113553,1,12,1:2:0:0:
137,333,114235,6,0,L|50:246,1,120.000000000001,4|0,1:2|1:0,0:0:0:0:
172,243,114917,2,0,L|85:156,1,120.000000000001,8|0,1:2|0:0,0:0:0:0:
207,153,115599,1,0,1:0:0:0:
311,94,115940,1,0,1:0:0:0:
416,151,116280,2,0,P|455:196|471:255,1,120.000000000001,8|0,1:2|0:0,0:0:0:0:
363,308,116962,6,0,L|242:340,1,120.000000000001,0|0,1:0|1:0,0:0:0:0:
172,243,117644,2,0,L|293:211,1,120.000000000001,8|0,1:2|0:0,0:0:0:0:
213,116,118326,1,0,1:0:0:0:
97,84,118667,1,0,1:0:0:0:
12,168,119008,2,0,P|-3:236|9:310,1,120.000000000001,8|0,1:2|0:0,0:0:0:0:
119,261,119690,6,0,P|177:247|239:250,1,120.000000000001,0|0,1:0|1:0,0:0:0:0:
346,299,120371,1,8,1:2:0:0:
463,323,120712,1,0,0:0:0:0:
426,208,121053,1,0,1:0:0:0:
332,132,121394,1,0,1:0:0:0:
212,144,121735,2,0,P|155:170|115:215,1,120.000000000001,8|0,1:2|0:0,0:0:0:0:
178,315,122417,6,0,L|62:363,2,120.000000000001,0|0|8,1:0|1:0|0:2,0:0:0:0:
256,223,123440,1,0,0:0:0:0:
334,315,123780,2,0,L|450:363,2,120.000000000001,0|0|8,1:0|1:0|0:2,0:0:0:0:
256,223,124803,1,0,0:0:0:0:
293,109,125144,5,4,1:2:0:0:
68,192,125826,1,8,1:2:0:0:
180,150,126167,1,0,1:0:0:0:
293,109,126508,5,4,1:2:0:0:
269,226,126848,1,0,1:0:0:0:
338,323,127189,2,0,P|426:299|475:225,1,180.000000000001,8|0,1:2|0:0,0:0:0:0:
469,169,127871,2,0,L|441:52,2,120.000000000001,0|0|8,1:0|1:0|1:2,0:0:0:0:
347,179,128894,1,0,0:0:0:0:
251,106,129235,5,0,1:0:0:0:
131,95,129576,1,0,1:0:0:0:
180,204,129917,2,0,L|139:261,2,60.0000000000003,8|0|0,1:2|0:0|0:0,0:0:0:0:
251,106,130598,2,0,P|309:80|386:75,1,120.000000000001,0|0,1:0|1:0,0:0:0:0:
460,146,131280,2,0,P|402:172|325:177,1,120.000000000001,8|0,1:2|0:0,0:0:0:0:
251,106,131962,5,0,1:0:0:0:
131,95,132303,1,0,1:0:0:0:
56,188,132644,2,0,P|83:293|155:325,1,180.000000000001,8|0,1:2|0:2,0:2:0:0:
201,323,133326,2,0,L|330:305,2,120.000000000001,0|0|8,1:0|1:0|1:2,0:0:0:0:
180,204,134348,1,0,0:0:0:0:
256,96,134689,5,0,1:1:0:0:
375,98,135030,1,0,1:1:0:0:
315,200,135371,2,0,L|344:259,2,60.0000000000003,8|0|0,1:2|0:0|0:0,0:0:0:0:
256,96,136053,2,0,P|191:80|128:105,2,120.000000000001,0|0|8,1:0|1:0|1:2,0:0:0:0:
197,200,137076,1,4,0:0:0:0:
395,159,137417,6,0,L|391:295,1,120.000000000001,4|0,2:0|1:0,0:0:0:0:
294,349,138098,2,0,B|296:265|296:229|296:229|297:187|261:170,1,180.000000000001,8|0,1:2|0:0,0:0:0:0:
223,141,138780,2,0,L|116:68,2,120.000000000001,0|0|8,1:0|1:0|1:2,0:0:0:0:
113,191,139803,1,0,0:0:0:0:
137,308,140144,5,0,1:0:0:0:
256,322,140485,1,0,1:0:0:0:
375,308,140826,2,0,P|407:276|429:203,1,120.000000000001,8|0,1:2|0:0,0:0:0:0:
386,93,141508,2,0,L|328:208,1,120.000000000001,0|0,1:0|1:0,0:0:0:0:
269,97,142189,2,0,L|211:212,1,120.000000000001,8|0,1:2|0:0,0:0:0:0:
152,101,142871,5,0,1:0:0:0:
46,158,143212,1,0,1:0:0:0:
48,278,143553,2,0,P|72:319|138:349,1,120.000000000001,8|0,1:2|0:0,0:0:0:0:
248,307,144235,1,0,1:0:0:0:
352,247,144576,1,0,1:0:0:0:
472,249,144917,1,8,1:2:0:0:
453,130,145258,2,0,L|416:63,1,60.0000000000003
369,53,145598,6,0,P|348:124|347:174,2,120.000000000001,0|0|8,1:0|1:0|1:2,0:0:0:0:
256,96,146621,1,0,0:0:0:0:
143,53,146962,2,0,P|164:124|165:174,2,120.000000000001,0|0|8,1:0|1:0|1:2,0:0:0:0:
256,96,147985,1,0,0:0:0:0:
256,216,148326,5,4,1:2:0:0:
337,303,148667,2,0,B|397:300|397:300|444:260,2,120.000000000001,2|2|0,0:0|0:0|0:0,0:0:0:0:
220,331,149689,2,0,L|87:299,1,120.000000000001,2|0,0:0|0:0,0:0:0:0:
256,216,150371,2,0,L|123:184,1,120.000000000001,2|0,0:0|0:0,0:0:0:0:
292,101,151053,6,0,B|233:87|233:87|194:40,2,120.000000000001,2|2|0,0:0|0:0|0:0,0:0:0:0:
350,114,151905,2,0,L|407:130,1,60.0000000000003,2|0,0:0|0:0,0:0:0:0:
256,216,152417,2,0,B|314:229|314:229|353:276,2,120.000000000001,2|2|0,0:0|0:0|0:0,0:0:0:0:
136,202,153439,1,2,0:0:0:0:
183,312,153780,5,2,0:0:0:0:
256,216,154121,2,0,B|312:194|312:194|387:196,2,120.000000000001,2|2|0,0:0|0:0|0:0,0:0:0:0:
136,202,155144,2,0,L|5:181,1,120.000000000001,2|0,0:0|0:0,0:0:0:0:
184,114,155826,2,0,L|315:93,1,120.000000000001,2|0,0:0|0:0,0:0:0:0:
432,219,156508,6,0,B|454:275|454:275|452:350,2,120.000000000001,2|2|0,0:0|0:0|0:0,0:0:0:0:
398,169,157360,2,0,L|424:107,1,60.0000000000003,2|0,0:0|0:0,0:0:0:0:
302,95,157871,2,0,B|280:151|280:151|282:226,2,120.000000000001,2|2|0,0:0|0:0|0:0,0:0:0:0:
184,114,158894,1,0,0:0:0:0:
200,292,159235,5,6,0:0:0:0:
200,292,159576,1,2,0:0:0:0:
200,292,159917,2,0,L|87:246,1,120.000000000001,2|0,0:0|0:0,0:0:0:0:
113,129,160598,1,2,0:0:0:0:
113,129,160939,1,2,0:0:0:0:
113,129,161280,2,0,L|226:175,1,120.000000000001,2|0,0:0|0:0,0:0:0:0:
313,254,161962,6,0,B|335:310|335:310|333:385,1,120.000000000001,2|2,0:0|0:0,0:0:0:0:
453,369,162644,2,0,B|451:309|451:309|473:253,1,120.000000000001,2|2,0:0|0:0,0:0:0:0:
446,135,163326,2,0,L|321:135,1,120.000000000001,2|0,0:0|0:0,0:0:0:0:
237,52,164008,2,0,L|362:52,1,120.000000000001,2|0,0:0|0:0,0:0:0:0:
154,55,164689,5,6,0:0:0:0:
37,84,165030,2,0,L|125:177,1,120.000000000001,2|0,0:0|0:0,0:0:0:0:
233,133,165712,1,2,0:0:0:0:
233,133,166053,1,0,0:0:0:0:
107,180,166394,2,0,L|195:273,1,120.000000000001,2|0,0:0|0:0,0:0:0:0:
315,220,167076,1,2,0:0:0:0:
315,220,167417,5,2,0:0:0:0:
175,275,167758,2,0,L|263:368,1,120.000000000001,2|0,0:0|0:0,0:0:0:0:
397,307,168439,1,0,0:0:0:0:
432,192,168780,1,2,0:0:0:0:
397,307,169121,1,0,0:0:0:0:
432,192,169462,1,2,0:0:0:0:
256,192,170144,12,0,172189,0:0:0:0:
427,71,172871,5,0,0:0:0:0:
256,240,173553,1,0,0:0:0:0:
85,71,174235,2,0,B|48:107|67:201|104:164|123:258|86:295,1,240.000000000001,2|2,0:0|0:0,0:0:0:0:
325,277,175598,2,0,P|411:242|446:161,2,180.000000000001,0|2|0,0:0|0:0|0:0,0:0:0:0:
326,156,176962,2,0,P|260:93|116:54,1,240.000000000001,2|0,0:0|0:0,0:0:0:0:
71,289,178326,6,0,L|111:174,1,120.000000000001,2|0,0:0|0:0,0:0:0:0:
188,266,179008,1,2,0:0:0:0:
303,298,179348,1,0,0:0:0:0:
188,266,179689,2,0,L|228:151,2,120.000000000001,2|0|2,0:0|0:0|0:0,0:0:0:0:
71,289,180712,1,0,0:0:0:0:
37,173,181053,1,2,0:0:0:0:
37,173,181394,2,0,B|75:135|168:155|132:192|226:211|262:174,1,240.000000000001,2|0,0:0|0:0,0:0:0:0:
228,58,182417,2,0,P|340:80|379:205,1,240.000000000001,0|2,0:0|0:0,0:0:0:0:
190,292,183780,6,0,L|128:172,1,120.000000000001,2|0,0:0|0:0,0:0:0:0:
256,192,184462,1,2,0:0:0:0:
256,192,184803,1,0,0:0:0:0:
322,92,185144,2,0,L|384:212,2,120.000000000001,2|0|2,0:0|0:0|0:0,0:0:0:0:
256,192,186167,1,0,0:0:0:0:
313,298,186508,1,2,0:0:0:0:
313,298,186848,2,0,P|438:300|496:198,1,240.000000000001,2|0,0:0|0:0,0:0:0:0:
377,198,187871,2,0,B|326:207|260:138|310:128|246:58|193:68,1,240.000000000001,2|0,0:0|0:0,0:0:0:0:
77,99,188894,1,2,0:0:0:0:
55,217,189235,6,0,L|47:338,1,120.000000000001
161,299,189917,2,0,L|169:178,1,120.000000000001
281,141,190598,2,0,L|274:261,1,120.000000000001,2|0,0:0|0:0,0:0:0:0:
388,223,191280,1,2,0:0:0:0:
392,103,191621,1,0,0:0:0:0:
304,21,191962,2,0,P|211:41|162:118,2,180.000000000001,2|2|0,0:0|0:0|0:0,0:0:0:0:
282,141,193326,2,0,B|291:191|222:257|212:207|142:271|152:324,1,240.000000000001,2|0,0:0|0:0,0:0:0:0:
271,337,194348,1,0,0:0:0:0:
378,284,194689,5,0,1:0:0:0:
378,284,195030,1,0,1:0:0:0:
436,179,195371,2,0,P|456:125|447:59,1,120.000000000001,2|0,0:0|0:0,0:0:0:0:
328,57,196053,2,0,P|207:89|86:82,1,240.000000000001,2|2,0:0|0:0,0:0:0:0:
144,192,197076,1,0,0:0:0:0:
93,300,197417,5,0,1:0:0:0:
93,300,197758,2,0,B|128:336|222:319|187:282|280:263|317:302,1,240.000000000001,0|0,1:0|0:0,0:0:0:0:
427,257,198780,2,0,B|376:241|352:149|401:163|375:72|327:56,1,240.000000000001,2|0,0:0|0:0,0:0:0:0:
256,153,199803,1,0,0:0:0:0:
184,56,200144,5,0,1:0:0:0:
184,56,200485,1,0,1:0:0:0:
78,112,200826,2,0,L|16:214,1,120.000000000001,2|0,0:0|0:0,0:0:0:0:
133,191,201508,2,0,L|71:293,1,120.000000000001,2|0,0:0|0:0,0:0:0:0:
188,270,202189,1,2,0:0:0:0:
279,192,202530,1,0,0:0:0:0:
188,114,202871,5,0,1:0:0:0:
188,114,203212,2,0,P|306:74|390:149,1,240.000000000001,0|0,1:0|0:0,0:0:0:0:
279,192,204235,2,0,P|381:262|482:214,1,240.000000000001,2|0,0:0|0:0,0:0:0:0:
449,102,205258,1,0,0:0:0:0:
337,56,205598,5,0,1:0:0:0:
337,56,205939,1,0,1:0:0:0:
256,144,206280,2,0,L|164:45,1,120.000000000001,2|0,0:0|0:0,0:0:0:0:
57,84,206962,2,0,L|224:263,1,240.000000000001,2|0,0:0|0:0,0:0:0:0:
325,318,207985,1,0,0:0:0:0:
427,257,208326,5,0,1:0:0:0:
427,257,208667,2,0,B|375:243|346:153|396:164|365:74|316:61,1,240.000000000001,0|0,1:0|0:0,0:0:0:0:
195,61,209689,2,0,B|146:74|115:164|165:153|136:243|85:257,1,240.000000000001,0|2,0:0|0:0,0:0:0:0:
195,299,210712,1,0,0:0:0:0:
256,192,211053,5,0,1:0:0:0:
256,192,211394,1,0,1:0:0:0:
377,202,211735,2,0,P|361:259|317:299,1,120.000000000001,2|0,0:0|0:0,0:0:0:0:
195,299,212417,2,0,P|150:259|134:202,2,120.000000000001,2|0|2,0:0|0:0|0:0,0:0:0:0:
256,192,213439,1,0,0:0:0:0:
377,202,213780,5,0,1:0:0:0:
377,202,214121,1,0,1:0:0:0:
141,159,214803,1,0,0:0:0:0:
191,49,215144,1,0,1:0:0:0:
191,49,215826,1,8,1:2:0:0:
284,125,216167,1,0,1:0:0:0:
377,202,216508,5,4,1:2:0:0:
265,245,216848,1,0,1:0:0:0:
144,243,217189,2,0,P|84:232|31:198,1,120.000000000001,8|0,1:2|0:0,0:0:0:0:
19,81,217871,1,0,1:0:0:0:
130,125,218212,1,0,1:0:0:0:
143,243,218553,2,0,P|132:302|98:356,1,120.000000000001,8|0,1:2|0:0,0:0:0:0:
221,357,219235,5,0,1:0:0:0:
265,245,219576,1,0,1:0:0:0:
377,286,219917,2,0,L|352:351,2,60.0000000000003,8|0|0,1:2|0:0|0:0,0:0:0:0:
355,167,220598,2,0,P|379:110|426:74,2,120.000000000001,0|0|8,1:2|1:2|1:2,0:2:0:0:
154,34,221962,5,0,1:0:0:0:
95,138,222303,1,0,1:0:0:0:
215,138,222644,2,0,L|354:119,1,120.000000000001,8|0,1:2|0:0,0:0:0:0:
451,104,223326,1,0,1:0:0:0:
409,216,223667,1,0,1:0:0:0:
290,232,224008,2,0,L|151:251,1,120.000000000001,8|0,1:2|0:0,0:0:0:0:
52,264,224689,5,0,1:0:0:0:
125,359,225030,1,0,1:0:0:0:
243,342,225371,2,0,L|306:361,2,60.0000000000003,8|0|0,1:2|0:0|0:0,0:0:0:0:
171,248,226053,2,0,L|107:143,1,120.000000000001,0|0,1:2|1:0,0:0:0:0:
227,129,226735,2,0,L|291:234,1,120.000000000001,12|0,1:2|0:0,0:0:0:0:
409,228,227417,6,0,P|438:160|446:99,1,120.000000000001,4|0,1:2|1:0,0:0:0:0:
344,48,228098,2,0,P|256:32|168:48,1,180.000000000001,8|0,1:2|0:0,0:0:0:0:
127,92,228780,2,0,L|106:219,2,120.000000000001,0|0|8,1:0|1:0|1:2,0:0:0:0:
230,152,229803,1,0,0:0:0:0:
344,188,230144,6,0,L|449:247,1,120.000000000001,0|0,1:0|1:0,0:0:0:0:
361,327,230826,1,8,1:2:0:0:
256,272,231167,1,0,0:0:0:0:
168,188,231508,2,0,L|63:247,1,120.000000000001,0|0,1:0|1:0,0:0:0:0:
151,327,232189,1,8,1:2:0:0:
256,272,232530,1,0,0:0:0:0:
361,217,232871,6,0,P|397:165|403:103,1,120.000000000001,0|0,1:0|1:0,0:0:0:0:
302,44,233553,1,8,1:2:0:0:
297,163,233894,1,0,0:0:0:0:
197,99,234235,1,0,1:2:0:0:
96,33,234576,1,0,1:0:0:0:
92,154,234917,1,8,1:2:0:0:
85,273,235258,2,0,L|85:340,1,60.0000000000003
145,328,235598,6,0,L|192:218,2,120.000000000001,0|0|8,1:0|1:0|1:2,0:0:0:0:
256,281,236621,1,0,0:0:0:0:
366,328,236962,2,0,L|320:218,2,120.000000000001,0|0|8,1:0|1:0|1:2,0:0:0:0:
256,281,237985,1,0,0:0:0:0:
256,160,238326,1,0,1:2:0:0:
256,160,239008,1,8,1:2:0:0:
138,135,239348,1,0,1:2:0:0:
30,187,239689,6,0,L|12:315,1,120.000000000001,4|0,1:2|1:0,0:0:0:0:
115,368,240370,2,0,L|133:240,1,120.000000000001,8|0,1:2|0:0,0:0:0:0:
138,135,241052,1,0,1:0:0:0:
225,53,241393,1,0,1:0:0:0:
342,78,241734,2,0,P|400:108|443:148,1,120.000000000001,8|0,1:2|0:0,0:0:0:0:
419,263,242416,5,0,1:0:0:0:
348,360,242757,1,0,1:0:0:0:
301,249,243098,2,0,L|330:189,2,60.0000000000003,8|0|0,1:2|0:0|0:0,0:0:0:0:
229,345,243779,2,0,P|165:348|105:315,1,120.000000000001,0|0,1:0|1:0,0:0:0:0:
70,284,244291,1,0,0:0:0:0:
70,284,244461,2,0,P|60:216|28:168,1,120.000000000001,8|0,1:2|0:0,0:0:0:0:
127,98,245143,6,0,P|190:67|245:51,1,120.000000000001,0|0,1:0|1:0,0:0:0:0:
290,160,245825,2,0,P|227:191|172:207,2,120.000000000001,8|0|0,1:2|0:0|1:0,0:0:0:0:
392,97,246848,2,0,L|348:55,2,60.0000000000003,0|0|8,1:0|0:0|1:2,0:0:0:0:
464,192,247529,1,0,0:0:0:0:
392,287,247870,5,0,1:0:0:0:
318,192,248211,1,0,1:0:0:0:
275,304,248552,2,0,L|197:338,2,60.0000000000003,8|0|0,1:2|0:0|0:0,0:0:0:0:
198,210,249234,2,0,L|71:265,2,120.000000000001,0|0|12,1:2|1:0|1:2,0:0:0:0:
198,210,250598,6,0,P|191:152|197:82,1,120.000000000001,4|0,1:2|1:0,0:0:0:0:
316,90,251279,2,0,P|321:150|293:276,1,180.000000000001,8|0,1:2|0:0,0:0:0:0:
259,314,251961,2,0,P|201:337|143:330,1,120.000000000001,0|0,1:0|1:0,0:0:0:0:
83,226,252643,2,0,P|141:203|199:210,1,120.000000000001,8|0,1:2|0:0,0:0:0:0:
317,210,253325,5,0,1:2:0:0:
432,179,253666,1,0,1:2:0:0:
317,210,254007,2,0,L|253:101,1,120.000000000001,8|0,1:2|0:0,0:0:0:0:
198,87,254518,1,0,0:0:0:0:
198,87,254689,2,0,L|63:95,1,120.000000000001,0|0,1:0|1:0,0:0:0:0:
70,213,255370,2,0,L|205:205,1,120.000000000001,8|0,1:2|0:0,0:0:0:0:
256,106,256052,5,0,1:0:0:0:
373,83,256393,1,0,1:0:0:0:
333,196,256734,2,0,L|290:317,1,120.000000000001,8|0,1:2|0:0,0:0:0:0:
215,217,257416,1,0,1:0:0:0:
256,106,257757,1,0,1:0:0:0:
137,124,258098,2,0,L|1:147,1,120.000000000001,8|0,1:2|0:0,0:0:0:0:
98,237,258779,5,0,1:0:0:0:
215,217,259120,1,0,1:0:0:0:
256,106,259461,2,0,P|321:166|325:258,1,180.000000000001,8|0,1:2|1:0,0:0:0:0:
314,311,260143,2,0,L|180:326,2,120.000000000001,0|0|4,1:0|1:0|1:2,0:0:0:0:
