osu file format v14

[General]
AudioFilename: NOX - Firesong.mp3
AudioLeadIn: 0
PreviewTime: 36498
Countdown: 0
SampleSet: Soft
StackLeniency: 0.7
Mode: 0
LetterboxInBreaks: 1
StoryFireInFront: 0
EpilepsyWarning: 1
WidescreenStoryboard: 1

[Editor]
Bookmarks: 11963,31054,36508,47417,58326,59690,81508,102474,103326,114225,125144,126508,137407,148316,159235,164689,170144,172871,194689,215655,216508,227417,238326,239689,250598,260825
DistanceSpacing: 1
BeatDivisor: 8
GridSize: 16
TimelineZoom: 2.1

[Metadata]
Title:Firesong
TitleUnicode:Firesong
Artist:NOX
ArtistUnicode:NOX
Creator:Shiro
Version:NOX
Source:
Tags:Odaril Bűvölet Buvolet Péter Peter Szabó Szabo Szilvia hungarian magyar Folk World Country Tűztánc Tuztanc Charles445
BeatmapID:662928
BeatmapSetID:294935

[Difficulty]
HPDrainRate:6
CircleSize:4
OverallDifficulty:8.5
ApproachRate:9.3
SliderMultiplier:3.2
SliderTickRate:1

[Events]
//Background and Video events
0,0,"background.png",0,0
//Break Periods
//Storyboard Layer 0 (Background)
//Storyboard Layer 1 (Fail)
//Storyboard Layer 2 (Pass)
//Storyboard Layer 3 (Foreground)
//Storyboard Sound Samples

[TimingPoints]
1054,681.818181818182,4,2,2,50,1,0
9229,-200,4,2,2,35,0,0
36508,-100,4,2,1,75,0,1
58326,-100,4,2,1,50,0,0
59007,-100,4,2,1,48,0,0
59178,-100,4,2,1,46,0,0
59348,-100,4,2,1,44,0,0
59518,-100,4,2,1,42,0,0
59689,-200,4,2,2,35,0,0
59690,681.818181818182,4,2,2,35,1,0
59690,-200,4,2,2,20,0,0
81507,-133.333333333333,4,2,2,35,0,0
102302,-133.333333333333,4,2,1,35,0,0
103326,-100,4,2,1,75,0,1
125144,-100,4,2,1,50,0,0
126508,681.818181818182,4,2,1,75,1,1
126508,-66.6666666666667,4,2,1,75,0,1
148326,-66.6666666666667,4,2,2,50,0,0
150370,-66.6666666666667,4,2,2,50,0,0
150427,-66.6666666666667,4,2,2,45,0,0
150484,-66.6666666666667,4,2,2,40,0,0
150541,-66.6666666666667,4,2,2,35,0,0
150597,-66.6666666666667,4,2,2,30,0,0
150654,-66.6666666666667,4,2,2,25,0,0
150711,-66.6666666666667,4,2,2,50,0,0
155825,-66.6666666666667,4,2,2,50,0,0
155882,-66.6666666666667,4,2,2,45,0,0
155938,-66.6666666666667,4,2,2,40,0,0
155995,-66.6666666666667,4,2,2,35,0,0
156052,-66.6666666666667,4,2,2,30,0,0
156109,-66.6666666666667,4,2,2,25,0,0
156166,-66.6666666666667,4,2,2,50,0,0
159234,-57.1428571428571,4,2,2,65,0,0
160597,-66.6666666666667,4,2,2,50,0,0
161962,-80,4,2,2,40,0,0
164689,-66.6666666666667,4,2,2,50,0,0
165030,-66.6666666666667,4,2,2,60,0,0
165712,-66.6666666666667,4,2,2,65,0,0
166053,-57.1428571428571,4,2,2,70,0,0
166394,-57.1428571428571,4,2,2,70,0,0
167076,-57.1428571428571,4,2,2,75,0,0
167416,-50,4,2,2,80,0,0
170143,-100,4,2,1,85,0,0
170655,-100,4,2,1,65,0,0
171167,-100,4,2,1,45,0,0
171678,-100,4,2,1,25,0,0
172189,-100,4,2,1,5,0,0
172871,-133.333333333333,4,2,1,20,0,0
194178,-133.333333333333,4,2,1,20,0,0
194348,-133.333333333333,4,2,1,30,0,0
194519,-133.333333333333,4,2,1,40,0,0
194689,-100,4,2,1,50,0,0
216508,-66.6666666666667,4,2,1,75,0,1
238326,-66.6666666666667,4,2,1,75,0,0
239689,681.818181818182,4,2,2,75,1,1
239689,-50,4,2,2,75,0,1
260825,-50,4,2,2,50,0,0

[Colours]
Combo1 : 255,255,0
Combo2 : 255,0,0
Combo3 : 255,128,0

[HitObjects]
82,258,11963,5,2,1:2:0:0:
152,105,12304,1,2,1:2:0:0:
221,65,12644,2,0,B|241:65|256:48|256:48|271:65|290:64,1,80
260,139,13326,2,0,B|296:153|337:133|337:133|352:176|389:191,1,160
469,189,14349,1,0,0:0:0:0:
430,258,14690,5,2,1:2:0:0:
360,105,15031,2,0,B|320:105|290:71|290:71|260:105|220:104,1,160,2|0,1:2|0:0,0:0:0:0:
141,92,16054,1,0,0:0:0:0:
61,87,16394,2,0,P|96:158|188:157,1,160
222,105,17417,5,2,1:2:0:0:
290,279,17758,1,2,1:2:0:0:
356,322,18099,2,0,B|403:350|403:350|432:288|408:238,1,160
362,184,19122,1,0,0:0:0:0:
291,146,19463,2,0,B|256:127|256:127|221:146,1,80
150,184,20144,5,2,1:2:0:0:
362,184,20485,1,2,1:2:0:0:
362,184,20826,2,0,P|382:110|337:46,1,160
256,48,21849,1,0,0:0:0:0:
180,74,22190,2,0,L|160:39,2,40
202,107,22701,1,0,0:0:0:0:
225,139,22872,5,2,1:2:0:0:
160,285,23213,1,2,1:2:0:0:
246,173,23554,1,0,2:0:0:0:
198,279,23894,1,0,2:0:0:0:
270,210,24235,2,0,B|260:227|267:248|267:248|245:253|237:270,1,80
299,322,24917,1,0,0:0:0:0:
337,285,25144,2,0,L|375:312,2,26.6666666666667
344,232,25599,5,2,1:2:0:0:
168,152,25940,1,2,1:2:0:0:
168,152,26281,2,0,B|161:126|161:126|182:95|189:53|189:53|216:95|211:123,1,160
301,102,27304,2,0,B|296:95|323:53|323:53|330:95|351:126|351:126|344:152,1,160
308,222,28326,5,2,1:2:0:0:
168,152,28667,2,0,B|156:128|156:128|119:133|88:105,1,80,2|0,1:2|0:0,0:0:0:0:
145,48,29349,1,0,0:0:0:0:
184,50,29519,1,0,0:0:0:0:
216,72,29690,2,0,B|237:88|237:88|296:88|330:118,1,120
335,152,30372,2,0,P|306:181|255:184,1,80
228,181,30883,1,0,0:0:0:0:
189,171,31054,6,0,L|160:212,1,40,2|0,1:2|0:0,0:0:0:0:
118,267,31394,1,0,1:0:0:0:
269,209,31565,2,0,L|240:250,1,40,2|0,0:2|0:0,0:0:0:0:
198,305,31906,1,0,0:0:0:0:
282,315,32076,1,2,0:0:0:0:
355,346,32247,1,0,0:0:0:0:
428,313,32417,5,2,2:2:0:0:
442,234,32588,1,0,0:0:0:0:
442,234,32758,1,0,2:0:0:0:
503,285,32929,1,2,0:0:0:0:
366,260,33099,1,0,0:0:0:0:
366,260,33269,1,0,0:0:0:0:
329,126,33440,1,0,0:0:0:0:
329,126,33610,1,0,0:0:0:0:
275,66,33781,5,2,1:2:0:0:
250,141,33951,1,0,0:0:0:0:
250,141,34122,1,0,1:2:0:0:
329,126,34292,1,2,0:0:0:0:
196,78,34463,1,0,0:0:0:0:
196,78,34633,1,0,0:0:0:0:
275,66,34804,1,2,0:0:0:0:
222,217,34974,1,2,0:0:0:0:
118,98,35144,2,0,L|85:65,2,40,2|0|0,0:0|0:0|0:0,0:0:0:0:
172,155,35656,5,0,1:0:0:0:
250,141,35826,1,0,1:0:0:0:
222,217,35997,1,0,1:0:0:0:
147,231,36167,1,0,1:0:0:0:
196,78,36338,1,0,1:0:0:0:
302,197,36508,6,0,L|356:255,1,80,6|0,1:2|0:0,0:0:0:0:
196,293,36849,2,0,L|103:341,1,80,2|0,1:2|0:0,0:0:0:0:
118,169,37190,2,0,B|103:110|103:110|151:81|216:76,1,160,10|2,1:2|0:0,0:0:0:0:
353,45,37701,1,0,1:2:0:0:
419,90,37872,1,2,1:2:0:0:
374,156,38042,1,0,2:2:0:0:
307,111,38213,1,2,1:2:0:0:
176,19,38383,1,0,0:0:0:0:
118,169,38554,2,0,L|83:248,1,80,10|0,1:2|0:0,0:0:0:0:
272,192,38894,1,2,0:0:0:0:
329,341,39065,1,0,0:0:0:0:
429,217,39235,6,0,L|508:174,1,80,2|0,1:2|0:0,0:0:0:0:
378,72,39576,2,0,L|304:21,1,80,2|0,1:2|0:0,0:0:0:0:
272,192,39917,1,10,1:2:0:0:
162,242,40088,1,0,0:0:0:0:
52,192,40258,1,2,0:0:0:0:
162,242,40429,1,0,1:0:0:0:
259,311,40599,2,0,P|329:348|408:334,1,160,2|2,1:2|1:2,0:0:0:0:
348,229,41110,1,0,0:0:0:0:
436,147,41281,2,0,P|366:110|287:124,1,160,10|2,1:2|0:0,0:0:0:0:
42,51,41963,6,0,L|31:137,1,80,2|0,1:2|0:0,0:0:0:0:
183,78,42304,2,0,L|280:68,1,80,2|0,1:2|0:0,0:0:0:0:
177,205,42644,2,0,B|163:249|163:249|178:322|260:318,1,160,10|2,1:2|0:0,0:0:0:0:
399,286,43156,1,0,1:0:0:0:
469,248,43326,1,2,1:2:0:0:
403,201,43497,1,0,0:0:0:0:
333,241,43667,1,2,1:2:0:0:
177,205,43838,1,0,0:0:0:0:
285,87,44008,2,0,L|348:23,1,80,10|0,1:2|0:0,0:0:0:0:
456,141,44349,1,2,0:0:0:0:
333,241,44519,1,0,0:0:0:0:
123,178,44690,6,0,L|42:141,1,80,2|0,1:2|0:0,0:0:0:0:
210,113,45031,2,0,L|284:86,1,80,2|0,1:2|0:0,0:0:0:0:
228,236,45372,1,10,1:2:0:0:
130,289,45542,1,0,0:0:0:0:
228,236,45713,1,2,0:0:0:0:
325,289,45883,1,0,1:0:0:0:
423,236,46054,2,0,P|420:163|356:183,1,160,2|2,1:2|1:2,0:0:0:0:
325,289,46565,1,0,0:0:0:0:
271,187,46735,2,0,P|310:130|357:182,1,160,14|2,1:2|0:0,0:0:0:0:
83,55,47417,6,0,P|62:91|55:135,1,80,6|0,1:2|0:0,0:0:0:0:
199,154,47758,2,0,P|238:171|271:204,1,80,2|0,1:2|0:0,0:0:0:0:
126,189,48099,2,0,B|76:199|76:199|49:218|24:260|50:310,1,160,10|2,1:2|0:0,0:0:0:0:
122,270,48610,1,0,1:0:0:0:
260,207,48781,2,0,P|299:188|336:166,1,80,2|0,1:2|0:0,0:0:0:0:
199,154,49122,2,0,P|161:169|115:194,1,80,2|0,1:2|0:0,0:0:0:0:
185,320,49463,2,0,P|221:306|269:280,1,80,10|0,1:2|0:0,0:0:0:0:
328,249,49804,1,2,0:0:0:0:
191,237,49974,1,0,0:0:0:0:
328,249,50144,6,0,L|412:256,1,80,2|0,1:2|0:0,0:0:0:0:
294,160,50485,2,0,L|378:167,1,80,2|0,1:2|0:0,0:0:0:0:
260,71,50826,2,0,L|344:78,1,80,10|0,1:2|0:0,0:0:0:0:
419,88,51167,1,2,0:0:0:0:
486,267,51338,1,0,1:0:0:0:
248,246,51508,2,0,L|164:239,1,80,2|0,1:2|0:0,0:0:0:0:
214,157,51849,2,0,L|130:150,1,80,2|0,1:2|0:0,0:0:0:0:
180,68,52190,2,0,L|96:61,1,80,10|0,1:2|0:0,0:0:0:0:
22,50,52531,1,2,0:0:0:0:
89,229,52701,1,0,0:0:0:0:
328,249,52872,6,0,L|412:256,1,80,2|0,1:2|0:0,0:0:0:0:
311,127,53213,2,0,L|275:50,1,80,2|0,1:2|0:0,0:0:0:0:
213,202,53554,2,0,L|164:271,1,80,10|0,1:2|0:0,0:0:0:0:
247,281,53894,1,2,0:0:0:0:
226,116,54065,1,0,1:0:0:0:
377,179,54235,2,0,P|409:218|409:258,1,80,2|0,1:2|0:0,0:0:0:0:
278,353,54576,2,0,P|228:361|193:341,1,80,2|0,1:2|0:0,0:0:0:0:
142,108,54917,2,0,P|159:60|194:40,1,80,10|0,1:2|0:0,0:0:0:0:
226,116,55258,1,2,0:0:0:0:
245,257,55429,1,0,0:0:0:0:
376,327,55599,6,0,L|469:320,1,80,2|0,1:2|0:0,0:0:0:0:
325,251,55940,2,0,L|232:258,1,80,2|0,1:2|0:0,0:0:0:0:
132,349,56281,2,0,L|225:342,1,80,10|0,0:0|0:0,0:0:0:0:
291,333,56622,1,2,0:0:0:0:
189,209,56792,1,0,1:0:0:0:
136,57,56963,2,0,L|43:64,1,80,2|0,1:2|0:0,0:0:0:0:
187,133,57304,2,0,L|280:126,1,80,2|0,1:2|0:0,0:0:0:0:
380,35,57644,2,0,L|287:42,1,80,10|0,0:0|0:0,0:0:0:0:
221,51,57985,1,2,0:0:0:0:
314,183,58156,1,0,0:0:0:0:
133,177,58326,6,0,L|40:183,1,80,6|0,1:2|0:0,0:0:0:0:
188,260,58667,2,0,L|268:317,1,80,2|0,1:2|0:0,0:0:0:0:
244,149,59008,1,4,1:2:0:0:
252,67,59179,1,0,1:2:0:0:
330,53,59349,1,0,1:2:0:0:
369,121,59519,1,0,1:2:0:0:
314,183,59690,6,0,P|294:226|295:268,1,80,0|0,1:2|0:0,0:0:0:0:
413,263,60371,2,0,P|433:220|432:178,1,80
429,127,60883,1,0,0:0:0:0:
369,121,61053,2,0,P|340:110|311:60,1,80
200,71,61735,2,0,P|228:81|258:132,1,80
24,284,62417,2,0,P|72:285|115:267,1,80
155,248,62928,1,0,0:0:0:0:
186,196,63099,1,0,0:0:0:0:
205,314,63440,1,0,0:0:0:0:
295,236,63780,2,0,P|314:228|336:225,1,40
393,228,64121,1,0,0:0:0:0:
421,344,64462,2,0,P|373:345|330:327,1,80
310,90,65144,5,0,0:0:0:0:
203,144,65485,1,0,0:0:0:0:
91,100,65826,1,0,0:0:0:0:
109,219,66167,1,0,0:0:0:0:
153,178,66337,1,0,0:0:0:0:
203,144,66508,2,0,P|266:135|302:137,1,80
388,192,67190,2,0,P|325:201|289:199,1,80
404,115,67871,2,0,P|430:110|460:122,1,40
461,185,68212,1,0,0:0:0:0:
500,62,68553,2,0,P|462:43|419:34,1,80
386,157,69235,2,0,P|424:176|467:185,1,80
364,82,69917,1,0,0:0:0:0:
276,167,70258,1,0,0:0:0:0:
111,98,70599,6,0,P|53:130|38:184,1,120
72,227,71280,1,0,0:0:0:0:
72,227,71621,1,0,0:0:0:0:
125,334,71962,2,0,P|170:293|184:230,1,120
180,177,72644,1,0,0:0:0:0:
72,227,72985,1,0,0:0:0:0:
119,116,73326,1,0,0:0:0:0:
119,116,73667,2,0,P|181:128|219:173,1,120
233,227,74349,1,0,0:0:0:0:
233,227,74690,2,0,P|295:270|391:258,1,160
329,154,75712,1,0,0:0:0:0:
233,227,76053,6,0,P|191:240|151:240,1,80
91,139,76735,1,0,0:0:0:0:
207,110,77076,1,0,0:0:0:0:
233,227,77417,2,0,P|220:291|163:346,1,120
107,354,78099,2,0,P|119:289|176:234,1,120
310,146,78780,1,0,0:0:0:0:
426,110,79121,2,0,B|437:174|348:186|360:250,1,160
152,248,80144,2,0,B|163:187|73:174|85:110,1,160
256,89,81167,1,0,0:0:0:0:
256,309,81508,5,0,1:0:0:0:
256,309,81849,1,0,1:0:0:0:
375,295,82190,1,0,0:0:0:0:
483,345,82530,1,0,0:0:0:0:
304,241,82871,2,0,B|260:223|260:223|258:175|235:162|211:149|217:98,1,180.000006866455
129,241,83553,2,0,B|173:223|173:223|175:175|198:162|222:149|216:98,1,180.000006866455
331,39,84235,1,0,1:0:0:0:
331,39,84576,1,0,1:0:0:0:
383,161,84746,2,0,P|357:214|304:240,1,120.000004577637
287,143,85258,1,0,0:0:0:0:
287,143,85599,2,0,P|260:90|144:82,1,180.000006866455
92,95,86280,1,0,0:0:0:0:
191,163,86621,1,0,0:0:0:0:
290,231,86962,5,0,1:0:0:0:
182,283,87303,1,0,1:0:0:0:
191,163,87644,2,0,P|231:125|371:143,1,180.000006866455
290,231,88326,2,0,P|321:313|401:350,1,180.000006866455
410,229,89008,2,0,P|465:160|471:124,1,120.000004577637
350,126,89690,1,0,1:0:0:0:
290,231,90030,1,0,1:0:0:0:
230,125,90371,1,0,0:0:0:0:
172,230,90712,2,0,L|137:291,1,60.0000022888184
101,202,91053,1,0,0:0:0:0:
111,125,91224,2,0,L|50:118,1,60.0000022888184
230,125,91735,2,0,P|305:115|344:84,1,120.000004577637
373,40,92246,1,0,0:0:0:0:
375,206,92417,5,0,1:0:0:0:
375,206,92758,1,0,1:0:0:0:
294,295,93099,1,0,0:0:0:0:
187,238,93440,1,0,0:0:0:0:
230,125,93780,1,0,0:0:0:0:
230,125,94121,1,0,0:0:0:0:
111,145,94462,2,0,P|73:197|71:263,1,120.000004577637
138,348,95144,1,0,1:0:0:0:
68,250,95485,1,0,1:0:0:0:
138,348,95655,2,0,P|204:359|261:340,1,120.000004577637
192,241,96167,1,0,0:0:0:0:
192,241,96508,2,0,P|265:223|356:284,1,180.000006866455
253,344,97190,1,0,0:0:0:0:
138,348,97530,1,0,0:0:0:0:
127,137,97871,5,0,1:0:0:0:
75,244,98212,1,0,1:0:0:0:
192,241,98553,1,0,0:0:0:0:
245,133,98894,1,0,0:0:0:0:
300,294,99235,2,0,P|376:312|464:265,1,180.000006866455
407,161,99917,2,0,P|331:116|244:132,1,180.000006866455
192,241,100599,1,0,1:0:0:0:
75,244,100940,1,0,1:0:0:0:
127,137,101280,1,0,0:0:0:0:
75,244,101621,1,0,0:0:0:0:
244,134,101962,1,0,1:2:0:0:
244,134,102474,5,0,1:2:0:0:
333,135,102644,1,8,1:2:0:0:
288,213,102815,1,0,1:2:0:0:
289,54,102985,1,0,1:2:0:0:
377,214,103155,1,0,1:2:0:0:
199,212,103326,6,0,L|112:211,1,80,6|0,1:2|0:0,0:0:0:0:
333,135,103667,2,0,L|436:91,1,80,2|0,1:2|0:0,0:0:0:0:
152,131,104008,2,0,L|65:130,2,80,10|0|2,0:0|0:0|0:0,0:0:0:0:
244,134,104519,1,0,1:2:0:0:
377,214,104690,1,2,1:2:0:0:
222,227,104860,1,0,0:2:0:0:
339,125,105030,1,2,1:2:0:0:
304,276,105201,1,0,0:2:0:0:
152,131,105371,2,0,L|83:88,1,80,10|0,1:2|0:0,0:0:0:0:
296,195,105712,1,2,0:0:0:0:
232,304,105883,1,0,0:0:0:0:
122,235,106053,6,0,L|43:208,1,80,2|0,1:2|0:0,0:0:0:0:
296,195,106394,2,0,L|392:183,1,80,2|0,1:2|0:0,0:0:0:0:
152,131,106735,1,10,0:0:0:0:
16,143,106905,1,0,0:0:0:0:
122,235,107076,1,2,0:0:0:0:
233,134,107246,1,0,1:0:0:0:
256,268,107417,2,0,B|310:325|310:325|332:290|383:276,1,160,2|2,1:2|1:2,0:0:0:0:
328,133,107928,1,0,0:0:0:0:
256,268,108099,2,0,B|201:325|201:325|179:290|128:276,1,160,10|2,0:0|0:0,0:0:0:0:
184,133,108610,1,0,0:0:0:0:
320,218,108780,6,0,L|374:277,1,80,2|0,1:2|0:0,0:0:0:0:
127,196,109121,2,0,L|44:173,1,80,2|0,1:2|0:0,0:0:0:0:
305,135,109462,2,0,L|398:115,2,80,10|0|2,1:2|0:0|0:0,0:0:0:0:
226,155,109974,1,0,1:0:0:0:
135,301,110144,1,2,1:2:0:0:
295,236,110315,1,0,0:0:0:0:
127,196,110485,1,2,1:2:0:0:
239,326,110655,1,0,0:0:0:0:
140,89,110826,2,0,L|106:8,1,80,10|0,1:2|0:0,0:0:0:0:
292,163,111167,1,2,0:0:0:0:
239,326,111337,1,0,0:0:0:0:
127,196,111508,6,0,L|41:143,1,80,2|0,1:2|0:0,0:0:0:0:
330,135,111849,2,0,L|416:128,1,80,2|0,1:2|0:0,0:0:0:0:
295,236,112190,1,10,1:2:0:0:
239,326,112360,1,0,0:0:0:0:
135,301,112530,1,2,2:2:0:0:
127,196,112701,1,0,1:0:0:0:
239,326,112871,2,0,B|267:357|267:357|301:357|340:342|357:290,1,160,2|2,1:2|1:2,0:0:0:0:
295,236,113383,1,0,2:2:0:0:
135,301,113553,2,0,B|95:315|95:315|65:300|37:269|46:215,1,160,14|2,1:2|0:0,0:0:0:0:
328,82,114235,6,0,P|371:76|421:80,1,80,6|0,1:2|0:0,0:0:0:0:
295,236,114576,2,0,P|275:274|247:310,1,80,2|0,1:2|0:0,0:0:0:0:
178,130,114917,2,0,B|150:90|150:90|116:80|70:103|60:143,1,160,10|2,1:2|0:0,0:0:0:0:
52,218,115428,1,0,1:0:0:0:
261,309,115599,2,0,P|297:328|351:347,1,80,2|0,1:2|0:0,0:0:0:0:
330,164,115940,2,0,P|294:142|256:132,1,80,2|0,1:2|0:0,0:0:0:0:
120,249,116280,2,0,P|153:268|210:287,1,80,10|0,1:2|0:0,0:0:0:0:
336,340,116621,1,2,0:0:0:0:
256,133,116792,1,0,0:0:0:0:
120,249,116962,6,0,L|58:300,1,80,2|0,1:2|0:0,0:0:0:0:
111,160,117303,2,0,L|32:167,1,80,2|0,1:2|0:0,0:0:0:0:
155,83,117644,2,0,L|86:43,1,80,10|0,1:2|0:0,0:0:0:0:
236,45,117985,1,2,0:0:0:0:
256,251,118155,1,0,1:0:0:0:
392,135,118326,2,0,L|453:83,1,80,2|0,1:2|0:0,0:0:0:0:
400,223,118667,2,0,L|479:216,1,80,2|0,1:2|0:0,0:0:0:0:
356,300,119008,2,0,L|425:340,1,80,10|0,1:2|0:0,0:0:0:0:
275,338,119349,1,2,0:0:0:0:
256,133,119519,1,0,0:0:0:0:
88,252,119690,6,0,L|37:331,1,80,2|0,1:2|0:0,0:0:0:0:
131,177,120030,2,0,L|88:93,1,80,2|0,1:2|0:0,0:0:0:0:
174,251,120371,2,0,L|267:255,1,80,10|0,1:2|0:0,0:0:0:0:
131,326,120712,1,2,0:0:0:0:
43,177,120883,1,0,1:0:0:0:
216,175,121053,2,0,P|255:170|292:147,1,80,2|0,1:2|0:0,0:0:0:0:
322,264,121394,2,0,P|351:237|368:197,1,80,2|0,1:2|0:0,0:0:0:0:
459,276,121735,2,0,P|467:237|458:195,1,80,10|0,1:2|0:0,0:0:0:0:
410,55,122076,1,2,0:0:0:0:
256,241,122246,1,0,0:0:0:0:
102,55,122417,6,0,L|20:26,1,80,2|0,1:2|0:0,0:0:0:0:
200,89,122758,2,0,L|266:32,1,80,2|0,1:2|0:0,0:0:0:0:
121,156,123099,2,0,L|136:241,1,80,10|0,1:2|0:0,0:0:0:0:
189,331,123440,1,2,0:0:0:0:
256,143,123610,1,0,1:0:0:0:
410,329,123780,2,0,L|492:358,1,80,2|0,1:2|0:0,0:0:0:0:
312,295,124121,2,0,L|245:351,1,80,2|0,1:2|0:0,0:0:0:0:
391,228,124462,2,0,L|375:142,1,80,10|0,1:2|0:0,0:0:0:0:
323,53,124803,1,2,0:2:0:0:
256,241,124974,1,0,0:0:0:0:
126,88,125144,6,0,L|70:22,1,80,6|0,1:2|0:0,0:0:0:0:
95,161,125485,2,0,L|84:251,1,80,2|0,1:2|0:0,0:0:0:0:
174,155,125826,1,0,1:2:0:0:
252,140,125996,1,0,1:0:0:0:
225,216,126167,1,0,1:0:0:0:
202,82,126337,1,0,1:0:0:0:
329,129,126508,6,0,L|441:169,1,120.000004577637,6|0,1:2|0:0,0:0:0:0:
225,216,126848,2,0,L|87:268,1,120.000004577637,2|0,1:2|0:0,0:0:0:0:
332,300,127189,2,0,L|444:340,2,120.000004577637,10|0|2,1:2|0:0|0:0,0:0:0:0:
217,338,127701,1,0,1:0:0:0:
115,270,127871,1,2,1:2:0:0:
225,216,128042,1,0,0:0:0:0:
217,338,128212,1,2,1:2:0:0:
17,205,128383,1,0,0:0:0:0:
233,98,128553,2,0,L|374:27,1,120.000004577637,10|0,1:2|0:0,0:0:0:0:
332,164,128894,1,2,0:0:0:0:
217,338,129064,1,0,0:0:0:0:
124,151,129235,6,0,L|69:38,1,120.000004577637,2|0,1:2|0:0,0:0:0:0:
316,79,129576,2,0,L|443:68,1,120.000004577637,2|0,1:2|0:0,0:0:0:0:
314,284,129917,1,10,1:2:0:0:
211,345,130087,1,0,0:0:0:0:
150,242,130258,1,2,0:0:0:0:
253,181,130428,1,0,1:0:0:0:
91,346,130598,2,0,B|36:318|36:318|1:267|9:188|55:144,1,240.000009155274,2|2,1:2|1:2,0:0:0:0:
233,263,131110,1,0,0:0:0:0:
223,46,131280,2,0,B|273:30|346:61|374:117|374:117|372:179,1,240.000009155274,10|2,1:2|0:0,0:0:0:0:
48,151,131962,6,0,L|106:37,1,120.000004577637,2|0,1:2|0:0,0:0:0:0:
287,194,132303,2,0,L|401:247,1,120.000004577637,2|0,1:2|0:0,0:0:0:0:
159,291,132644,2,0,L|38:339,2,120.000004577637,10|0|2,1:2|0:0|0:0,0:0:0:0:
277,314,133155,1,0,1:0:0:0:
287,194,133326,1,2,1:2:0:0:
170,171,133496,1,0,0:0:0:0:
159,291,133667,1,2,1:2:0:0:
386,263,133837,1,0,0:0:0:0:
248,80,134008,2,0,L|127:48,1,120.000004577637,10|0,1:2|0:0,0:0:0:0:
331,102,134348,1,2,0:0:0:0:
469,285,134519,1,0,0:0:0:0:
242,313,134689,6,0,L|100:276,1,120.000004577637,2|0,1:2|0:0,0:0:0:0:
314,170,135030,2,0,L|417:65,1,120.000004577637,2|0,1:2|0:0,0:0:0:0:
180,80,135371,1,10,1:2:0:0:
33,166,135542,1,0,0:0:0:0:
63,49,135712,1,2,0:0:0:0:
150,197,135883,1,0,1:0:0:0:
297,111,136053,2,0,B|346:87|346:87|400:90|438:189|408:245,1,240.000009155274,2|2,1:2|1:2,0:0:0:0:
188,147,136564,1,0,0:0:0:0:
122,311,136735,2,0,B|66:322|-16:256|-4:204|-4:204|33:164,1,240.000009155274,10|6,1:2|0:0,0:0:0:0:
358,297,137417,6,0,P|412:329|469:342,1,120.000004577637,6|0,1:2|0:0,0:0:0:0:
409,156,137758,2,0,P|355:128|298:111,1,120.000004577637,2|0,1:2|0:0,0:0:0:0:
111,171,138098,2,0,B|168:195|168:195|200:249|157:332|89:332,1,240.000009155274,10|2,1:2|0:0,0:0:0:0:
14,244,138610,1,0,1:0:0:0:
256,48,138780,2,0,P|319:41|383:43,1,120.000004577637,2|0,1:2|0:0,0:0:0:0:
291,236,139121,2,0,P|265:294|231:348,1,120.000004577637,2|0,1:2|0:0,0:0:0:0:
111,171,139462,2,0,P|73:119|43:63,1,120.000004577637,10|0,1:2|0:0,0:0:0:0:
165,88,139803,1,2,0:0:0:0:
211,322,139973,1,0,0:0:0:0:
391,165,140144,6,0,L|480:80,1,120.000004577637,2|0,1:2|0:0,0:0:0:0:
304,147,140485,2,0,L|365:44,1,120.000004577637,2|0,1:2|0:0,0:0:0:0:
215,162,140826,2,0,L|248:46,1,120.000004577637,10|0,1:2|0:0,0:0:0:0:
137,65,141167,1,2,0:0:0:0:
307,176,141337,1,0,1:0:0:0:
120,218,141508,2,0,L|32:304,1,120.000004577637,2|0,1:2|0:0,0:0:0:0:
208,237,141848,2,0,L|146:339,1,120.000004577637,2|0,1:2|0:0,0:0:0:0:
297,222,142189,2,0,L|264:338,1,120.000004577637,10|0,1:2|0:0,0:0:0:0:
375,319,142530,1,2,0:0:0:0:
205,208,142701,1,0,0:0:0:0:
381,99,142871,6,0,L|482:35,1,120.000004577637,2|0,1:2|0:0,0:0:0:0:
454,198,143212,2,0,L|458:317,1,120.000004577637,2|0,1:2|0:0,0:0:0:0:
331,211,143553,2,0,L|225:155,1,120.000004577637,10|0,1:2|0:0,0:0:0:0:
381,99,143894,1,2,0:0:0:0:
404,310,144064,1,0,1:0:0:0:
154,271,144235,2,0,P|88:268|32:279,1,120.000004577637,2|0,1:2|0:0,0:0:0:0:
205,208,144576,2,0,P|152:167|100:144,1,120.000004577637,2|0,1:2|0:0,0:0:0:0:
282,185,144917,2,0,P|262:121|232:73,1,120.000004577637,10|0,1:2|0:0,0:0:0:0:
358,210,145258,1,2,0:0:0:0:
142,58,145428,1,0,0:0:0:0:
358,210,145598,6,0,L|473:295,1,120.000004577637,2|0,1:2|0:0,0:0:0:0:
282,185,145939,2,0,L|150:242,1,120.000004577637,2|0,1:2|0:0,0:0:0:0:
341,131,146280,2,0,L|357:-11,1,120.000004577637,10|0,1:2|0:0,0:0:0:0:
452,81,146621,1,2,0:2:0:0:
295,264,146792,1,0,1:2:0:0:
139,174,146962,1,6,0:2:0:0:
139,174,147133,1,0,1:2:0:0:
201,343,147303,1,2,1:2:0:0:
439,323,147473,1,0,0:2:0:0:
452,81,147644,1,14,1:2:0:0:
357,300,147814,1,0,1:2:0:0:
303,66,147985,1,2,1:2:0:0:
485,224,148155,1,0,1:0:0:0:
244,202,148326,6,0,B|212:222|188:194|164:166|132:186,1,120.000004577637,6|0,1:2|0:0,0:0:0:0:
324,80,148667,1,2,1:2:0:0:
372,114,148752,1,0,0:0:0:0:
399,167,148837,1,0,0:0:0:0:
400,226,148922,1,0,0:0:0:0:
374,280,149008,2,0,B|359:314|323:305|287:296|273:331,1,120.000004577637,10|0,1:2|0:0,0:0:0:0:
245,342,149263,1,2,0:0:0:0:
215,349,149348,1,2,0:0:0:0:
305,190,149519,1,2,1:2:0:0:
274,196,149604,1,0,0:0:0:0:
244,202,149689,6,0,B|206:200|199:236|192:273|155:271,1,120.000004577637,2|0,0:2|0:0,0:0:0:0:
127,280,149945,1,2,0:0:0:0:
97,287,150030,1,2,1:2:0:0:
189,125,150201,1,2,0:0:0:0:
158,134,150286,1,0,0:0:0:0:
126,140,150371,2,0,L|86:149,5,40.000001525879,10|2|2|2|2|0,1:2|0:0|0:0|0:0|0:0|0:0,0:0:0:0:
66,154,150712,2,0,P|40:93|76:54,1,120.000004577637,2|0,0:0|0:0,0:0:0:0:
127,36,150968,1,2,0:0:0:0:
187,22,151053,6,0,B|243:2|291:106|347:86,1,180.000006866455,2|0,1:2|0:0,0:0:0:0:
376,80,151394,1,2,1:2:0:0:
422,304,151564,1,0,0:0:0:0:
392,314,151649,1,2,0:0:0:0:
362,322,151735,1,10,1:2:0:0:
307,215,151905,1,2,0:0:0:0:
275,224,151990,1,0,0:0:0:0:
244,232,152076,1,2,0:0:0:0:
189,130,152247,1,0,1:0:0:0:
158,136,152332,1,0,0:0:0:0:
126,140,152417,6,0,L|86:149,5,40.000001525879,2|2|2|2|0|0,1:2|0:0|0:0|0:0|0:0|0:0,0:0:0:0:
66,154,152758,2,0,P|24:212|26:263,1,120.000004577637,2|0,1:2|0:0,0:0:0:0:
25,287,153013,1,2,0:0:0:0:
48,306,153098,2,0,P|105:289|165:300,1,120.000004577637,10|0,1:2|0:0,0:0:0:0:
185,320,153354,1,2,0:0:0:0:
205,341,153439,1,2,0:0:0:0:
246,112,153610,1,2,0:0:0:0:
286,154,153695,1,0,0:0:0:0:
326,196,153780,6,0,B|361:207|355:244|349:280|385:292,1,120.000004577637,6|0,1:2|0:0,0:0:0:0:
163,299,154121,1,2,1:2:0:0:
103,299,154206,1,0,0:0:0:0:
56,264,154291,1,0,0:0:0:0:
42,206,154376,1,0,0:0:0:0:
66,154,154462,2,0,B|100:141|92:104|84:68|119:55,1,120.000004577637,10|0,1:2|0:0,0:0:0:0:
143,35,154718,1,2,0:0:0:0:
167,19,154803,1,2,0:0:0:0:
185,230,154973,1,2,1:2:0:0:
212,208,155058,1,2,0:0:0:0:
238,186,155144,6,0,B|272:173|264:136|256:100|291:87,1,120.000004577637,2|0,0:2|0:0,0:0:0:0:
315,67,155400,1,2,0:0:0:0:
339,51,155485,1,2,1:2:0:0:
360,259,155655,1,2,0:0:0:0:
385,240,155740,1,2,0:0:0:0:
410,218,155826,2,0,L|456:189,5,40.000001525879,8|2|2|2|2|0,1:2|0:0|0:0|0:0|0:0|0:0,0:0:0:0:
458,186,156167,2,0,P|491:241|474:294,1,120.000004577637,2|0,0:0|0:0,0:0:0:0:
454,312,156422,1,2,0:2:0:0:
431,332,156508,6,0,B|374:366|311:320|255:354,1,180.000006866455,2|0,1:2|0:0,0:0:0:0:
230,369,156848,1,2,1:2:0:0:
87,153,157019,1,0,0:0:0:0:
115,135,157104,1,0,0:0:0:0:
142,118,157189,1,10,1:2:0:0:
228,205,157360,1,2,0:0:0:0:
251,186,157445,1,0,0:0:0:0:
276,168,157530,1,2,0:0:0:0:
365,261,157700,1,2,1:2:0:0:
387,240,157785,1,0,0:0:0:0:
410,218,157871,6,0,L|456:189,5,40.000001525879,0|2|2|2|0|0,0:2|0:0|0:0|0:0|0:0|0:0,0:0:0:0:
458,186,158212,2,0,P|446:122|402:85,1,120.000004577637,2|0,1:2|0:0,0:0:0:0:
377,78,158468,1,2,0:0:0:0:
347,76,158553,2,0,P|278:105|229:107,1,120.000004577637,10|0,1:2|0:0,0:0:0:0:
187,109,158809,1,2,0:0:0:0:
142,118,158894,1,2,0:2:0:0:
187,312,159064,1,2,0:0:0:0:
144,292,159149,1,2,0:2:0:0:
97,270,159235,6,0,B|36:248|36:248|36:141,1,140.000001335144,6|0,1:2|0:0,0:0:0:0:
283,329,159576,1,2,1:2:0:0:
316,314,159661,1,0,0:0:0:0:
349,299,159746,1,2,0:2:0:0:
382,285,159831,1,0,0:0:0:0:
415,270,159917,2,0,B|476:248|476:248|476:172,1,140.000001335144,10|0,1:2|0:0,0:0:0:0:
476,137,160172,1,0,0:0:0:0:
476,101,160258,1,2,0:0:0:0:
380,202,160428,1,0,1:0:0:0:
348,216,160513,1,0,0:0:0:0:
321,229,160598,6,0,P|248:244|199:234,1,120.000004577637,2|0,0:2|0:0,0:0:0:0:
31,155,160940,2,0,P|90:147|141:117,1,120.000004577637,2|0,1:2|0:0,0:0:0:0:
164,97,161195,1,2,0:0:0:0:
187,78,161280,1,10,1:2:0:0:
233,211,161451,1,2,0:0:0:0:
256,192,161536,1,0,0:0:0:0:
279,173,161621,1,2,0:0:0:0:
325,306,161792,1,0,0:0:0:0:
371,268,161877,1,2,0:0:0:0:
417,230,161962,6,0,P|442:179|442:129,1,100,2|0,1:2|0:0,0:0:0:0:
279,344,162303,2,0,P|222:350|175:332,1,100,2|0,1:2|0:0,0:0:0:0:
160,324,162559,1,2,0:0:0:0:
138,312,162644,1,10,1:2:0:0:
233,211,162814,1,2,0:0:0:0:
207,213,162899,1,0,0:0:0:0:
182,216,162985,1,2,0:0:0:0:
201,78,163155,1,0,1:0:0:0:
180,94,163240,1,2,0:0:0:0:
160,108,163326,6,0,L|127:135,5,33.3333333333333,2|0|0|0|0|0,0:2|0:0|0:0|0:0|0:0|0:0,0:0:0:0:
113,145,163667,2,0,P|64:190|31:229,1,100,2|0,1:2|0:0,0:0:0:0:
31,237,163922,1,2,0:0:0:0:
24,261,164008,2,0,P|76:289|118:308,1,100,10|0,1:2|0:0,0:0:0:0:
160,324,164263,1,2,0:0:0:0:
207,343,164348,1,2,0:0:0:0:
333,43,164519,1,2,0:0:0:0:
365,94,164604,1,2,0:0:0:0:
399,145,164689,6,0,B|432:195|432:195|432:259,1,120.000004577637,6|0,1:2|0:0,0:0:0:0:
333,43,165030,1,2,1:2:0:0:
331,72,165115,1,2,0:0:0:0:
329,102,165200,1,2,0:0:0:0:
328,132,165285,1,2,0:0:0:0:
327,163,165371,2,0,B|325:223|325:223|288:275,1,120.000004577637,10|0,1:2|0:0,0:0:0:0:
18,105,165712,1,2,0:2:0:0:
19,144,165797,1,2,0:0:0:0:
21,183,165882,1,2,1:2:0:0:
23,221,165967,1,2,0:0:0:0:
24,261,166053,6,0,B|26:331|26:331|73:385,1,140.000001335144,2|0,1:2|0:0,0:0:0:0:
45,55,166394,1,2,1:2:0:0:
78,100,166479,1,2,0:0:0:0:
113,145,166564,1,2,0:2:0:0:
147,188,166649,1,2,0:0:0:0:
181,235,166735,2,0,B|225:290|225:290|291:310,1,140.000001335144,10|0,1:2|0:0,0:0:0:0:
461,37,167076,1,2,0:2:0:0:
395,57,167161,1,2,0:0:0:0:
328,76,167246,1,2,0:2:0:0:
262,99,167331,1,2,0:0:0:0:
196,122,167417,6,0,B|113:145|113:145|60:209,1,160,2|0,1:2|0:0,0:0:0:0:
385,138,167758,2,0,B|439:204|439:204|445:278,1,160,2|0,1:2|0:0,0:0:0:0:
448,318,168013,1,2,0:0:0:0:
449,357,168098,1,10,1:2:0:0:
305,262,168269,1,0,0:0:0:0:
305,262,168354,1,2,0:0:0:0:
305,262,168439,1,2,0:0:0:0:
167,84,168610,1,2,1:2:0:0:
139,114,168695,1,0,0:0:0:0:
113,145,168780,6,0,B|61:209|61:209|54:318,1,160,2|0,1:2|0:0,0:0:0:0:
53,326,169036,1,2,0:0:0:0:
51,364,169121,1,2,1:2:0:0:
191,267,169292,1,0,0:0:0:0:
191,267,169377,1,2,0:0:0:0:
191,267,169462,1,10,1:2:0:0:
323,53,169633,1,0,0:2:0:0:
442,274,169803,1,0,1:2:0:0:
191,267,169973,1,0,1:2:0:0:
191,267,170059,1,0,1:2:0:0:
191,267,170144,1,4,1:2:0:0:
256,192,170314,12,0,172530,0:0:0:0:
128,77,172871,6,0,P|184:67|249:79,1,120.000004577637
181,246,173553,2,0,P|125:256|60:244,1,120.000004577637
15,168,174064,1,0,0:0:0:0:
194,154,174405,1,0,0:0:0:0:
264,211,174576,2,0,P|266:278|235:320,2,120.000004577637
462,65,175598,6,0,P|473:132|468:192,1,120.000004577637
446,271,176110,1,0,0:0:0:0:
383,206,176280,2,0,P|337:167|283:140,1,120.000004577637
259,228,176792,2,0,P|304:266|358:293,1,120.000004577637
446,271,177303,1,0,0:0:0:0:
377,104,177644,1,0,0:0:0:0:
207,163,177985,1,0,0:0:0:0:
60,58,178326,6,0,P|36:117|26:179,1,120.000004577637
207,163,179008,1,0,0:0:0:0:
362,74,179348,1,0,0:0:0:0:
371,163,179519,1,0,0:0:0:0:
361,252,179689,2,0,P|318:299|267:335,1,120.000004577637
207,163,180371,1,0,0:0:0:0:
60,58,180712,1,0,0:0:0:0:
60,326,181053,5,0,0:0:0:0:
60,326,181394,2,0,P|126:336|182:328,1,120.000004577637
337,243,182076,2,0,L|384:190,1,60.0000022888184
289,173,182417,2,0,L|297:102,1,60.0000022888184
209,143,182758,2,0,P|170:98|116:72,2,120.000004577637
382,29,183780,6,0,P|411:81|417:140,1,120.000004577637
343,193,184292,1,0,0:0:0:0:
417,243,184462,2,0,P|410:302|381:354,1,120.000004577637
202,340,185144,2,0,P|263:308|304:265,1,120.000004577637
256,192,185655,1,0,0:0:0:0:
298,111,185826,2,0,P|254:69|201:43,1,120.000004577637
36,117,186508,5,0,0:0:0:0:
92,287,186848,1,0,0:0:0:0:
256,192,187189,1,0,0:0:0:0:
420,287,187530,1,0,0:0:0:0:
476,117,187871,2,0,P|427:77|372:55,1,120.000004577637
256,192,188553,2,0,P|200:168|154:130,1,120.000004577637
174,42,189064,1,0,0:0:0:0:
248,93,189235,6,0,P|299:123|357:137,1,120.000004577637
264,291,189917,2,0,P|323:286|379:264,1,120.000004577637
218,192,190598,2,0,P|161:172|113:136,1,120.000004577637
56,307,191280,2,0,P|21:258|1:201,1,120.000004577637
79,38,191962,6,0,L|145:43,1,60.0000022888184
148,132,192303,2,0,P|209:158|266:161,1,120.000004577637
408,56,192985,1,0,0:0:0:0:
363,134,193155,2,0,P|348:191|363:250,1,120.000004577637
408,328,193667,2,0,P|441:279|447:218,1,120.000004577637
447,129,194178,5,0,1:0:0:0:
324,61,194348,1,0,1:0:0:0:
482,115,194519,1,0,1:0:0:0:
289,75,194689,5,0,1:0:0:0:
223,309,195030,1,0,1:0:0:0:
223,309,195371,1,0,0:0:0:0:
107,198,195712,1,0,0:0:0:0:
313,327,196053,2,0,P|395:300|446:246,1,160
284,240,196735,1,0,0:0:0:0:
301,162,196905,5,0,0:0:0:0:
175,169,197076,1,0,0:0:0:0:
329,122,197246,1,0,0:0:0:0:
147,208,197417,5,0,1:0:0:0:
334,64,197758,2,0,P|417:67|456:133,1,160,0|0,1:0|0:0,0:0:0:0:
410,192,198269,1,0,0:0:0:0:
455,257,198439,2,0,P|410:320|334:320,1,160
264,278,198951,1,0,0:0:0:0:
246,200,199121,2,0,P|216:139|134:98,1,160
56,88,199633,5,0,0:0:0:0:
41,207,199803,1,0,0:0:0:0:
36,56,199973,1,0,0:0:0:0:
60,238,200143,5,0,1:0:0:0:
255,96,200485,1,0,1:0:0:0:
255,96,200826,2,0,P|322:153|391:175,1,160
468,162,201337,1,0,0:0:0:0:
444,238,201508,2,0,P|377:295|308:317,1,160
172,233,202189,1,0,0:0:0:0:
134,162,202360,5,0,0:0:0:0:
81,269,202530,1,0,0:0:0:0:
167,146,202701,1,0,0:0:0:0:
47,284,202871,5,0,1:0:0:0:
269,194,203212,1,0,1:0:0:0:
269,194,203553,2,0,P|357:222|406:272,1,160
391,348,204064,1,0,0:0:0:0:
329,296,204235,2,0,L|239:304,1,80
199,366,204576,2,0,P|121:316|86:255,1,160
96,179,205087,5,0,0:0:0:0:
216,187,205258,1,0,0:0:0:0:
70,153,205428,1,0,2:0:0:0:
241,212,205599,5,0,1:0:0:0:
61,53,205939,1,0,1:0:0:0:
61,53,206110,1,0,0:0:0:0:
140,44,206280,2,0,P|221:49|301:64,1,160
241,212,206962,1,0,0:0:0:0:
298,63,207303,1,0,0:0:0:0:
298,63,207473,1,0,0:0:0:0:
362,110,207644,1,0,0:0:0:0:
398,180,207814,5,0,0:0:0:0:
376,298,207985,1,0,0:0:0:0:
427,155,208155,1,0,0:0:0:0:
346,322,208326,5,0,1:0:0:0:
109,287,208667,1,0,1:0:0:0:
109,287,208837,1,0,0:0:0:0:
144,215,209008,2,0,P|155:139|127:58,1,160
48,61,209519,1,0,0:0:0:0:
13,132,209689,2,0,P|2:208|30:289,1,160
188,281,210371,1,0,0:0:0:0:
265,260,210542,5,0,0:0:0:0:
330,159,210712,1,0,0:0:0:0:
268,298,210883,1,0,0:0:0:0:
326,120,211053,5,0,1:0:0:0:
342,359,211394,1,0,1:0:0:0:
342,359,211564,1,0,0:0:0:0:
403,307,211735,2,0,P|451:226|461:157,1,160
382,179,212246,1,0,0:0:0:0:
326,120,212417,2,0,P|245:72|176:62,1,160
73,180,213098,1,0,0:0:0:0:
132,233,213269,5,0,0:0:0:0:
247,264,213439,1,0,0:0:0:0:
100,248,213610,1,0,0:0:0:0:
278,248,213780,5,0,1:0:0:0:
52,329,214121,1,0,1:0:0:0:
52,329,214292,2,0,P|134:347|212:333,1,160
247,264,214803,1,0,0:0:0:0:
185,161,214973,1,0,0:0:0:0:
100,248,215144,1,0,1:0:0:0:
100,248,215655,5,0,1:2:0:0:
280,380,215826,1,8,1:2:0:0:
305,158,215996,1,0,1:2:0:0:
152,365,216167,1,0,1:2:0:0:
176,144,216337,1,0,1:2:0:0:
356,276,216508,6,0,L|454:344,1,120.000004577637,6|0,1:2|0:0,0:0:0:0:
466,140,216848,2,0,L|498:25,1,120.000004577637,2|0,1:2|0:0,0:0:0:0:
292,113,217189,2,0,L|175:143,1,120.000004577637,10|0,1:2|0:0,0:0:0:0:
100,248,217530,1,2,0:0:0:0:
282,211,217701,1,0,1:2:0:0:
445,236,217871,1,2,1:2:0:0:
386,82,218043,1,0,0:0:0:0:
352,297,218213,1,2,1:2:0:0:
486,132,218383,1,0,0:0:0:0:
274,99,218553,2,0,L|151:81,1,120.000004577637,10|0,1:2|0:0,0:0:0:0:
32,251,218894,2,0,L|155:269,1,120.000004577637,2|0,0:0|0:0,0:0:0:0:
471,251,219235,6,0,L|486:132,1,120.000004577637,2|0,1:2|0:0,0:0:0:0:
274,99,219576,2,0,L|153:43,1,120.000004577637,2|0,1:2|0:0,0:0:0:0:
9,184,219917,1,10,1:2:0:0:
126,351,220087,1,0,0:0:0:0:
256,192,220258,1,2,0:0:0:0:
386,351,220428,1,0,1:0:0:0:
503,184,220598,2,0,B|511:127|478:58|423:34|423:34|358:49,1,240.000009155274,2|2,1:2|1:2,0:0:0:0:
256,192,221110,1,0,0:0:0:0:
146,47,221280,2,0,B|89:34|89:34|34:58|1:127|9:184,1,240.000009155274,10|2,1:2|0:0,0:0:0:0:
78,283,221792,1,0,0:0:0:0:
324,271,221962,6,0,L|451:267,1,120.000004577637,2|0,1:2|0:0,0:0:0:0:
232,129,222303,2,0,L|146:47,1,120.000004577637,2|0,1:2|0:0,0:0:0:0:
78,283,222644,2,0,L|164:365,1,120.000004577637,10|0,1:2|0:0,0:0:0:0:
324,271,222985,1,2,0:0:0:0:
400,121,223155,1,0,1:2:0:0:
233,130,223326,1,2,1:2:0:0:
247,291,223496,1,0,0:0:0:0:
450,178,223667,1,2,1:2:0:0:
259,52,223837,1,0,0:0:0:0:
23,70,224008,2,0,L|9:195,1,120.000004577637,10|0,1:2|0:0,0:0:0:0:
242,349,224348,2,0,L|256:224,1,120.000004577637,2|0,0:0|0:0,0:0:0:0:
464,58,224689,6,0,L|450:183,1,120.000004577637,2|0,1:2|0:0,0:0:0:0:
259,52,225030,2,0,L|138:17,1,120.000004577637,2|0,1:2|0:0,0:0:0:0:
106,246,225371,1,10,1:2:0:0:
235,334,225542,1,0,0:0:0:0:
247,179,225712,1,2,0:0:0:0:
376,267,225883,1,0,1:0:0:0:
388,112,226053,2,0,B|396:53|396:53|473:56|506:127|496:179,1,240.000009155274,2|2,1:2|1:2,0:0:0:0:
376,267,226564,1,0,0:0:0:0:
247,179,226735,2,0,B|216:127|216:127|146:160|144:238|173:282,1,240.000009155274,14|2,1:2|0:0,0:0:0:0:
376,267,227246,1,0,0:0:0:0:
297,98,227417,6,0,P|262:55|201:30,1,120.000004577637,6|0,1:2|0:0,0:0:0:0:
154,203,227758,2,0,P|134:255|143:320,1,120.000004577637,2|0,1:2|0:0,0:0:0:0:
316,274,228098,2,0,P|371:265|423:225,1,120.000004577637,10|0,1:2|0:0,0:0:0:0:
441,87,228439,1,2,0:0:0:0:
318,184,228610,1,0,1:0:0:0:
91,66,228780,2,0,P|44:97|14:155,1,120.000004577637,2|0,1:2|0:0,0:0:0:0:
240,360,229121,2,0,P|286:328|316:270,1,120.000004577637,2|0,1:2|0:0,0:0:0:0:
154,203,229462,2,0,P|134:255|143:320,1,120.000004577637,10|0,1:2|0:0,0:0:0:0:
444,358,229803,1,2,0:0:0:0:
400,157,229973,1,0,0:0:0:0:
210,71,230144,6,0,L|91:66,1,120.000004577637,2|0,1:2|0:0,0:0:0:0:
154,203,230485,2,0,L|268:239,1,120.000004577637,2|0,1:2|0:0,0:0:0:0:
172,361,230826,2,0,L|70:296,1,120.000004577637,10|0,1:2|0:0,0:0:0:0:
4,102,231167,1,2,0:0:0:0:
154,203,231337,1,0,1:0:0:0:
301,312,231508,2,0,L|421:318,1,120.000004577637,2|0,1:2|0:0,0:0:0:0:
358,181,231849,2,0,L|243:144,1,120.000004577637,2|0,1:2|0:0,0:0:0:0:
340,23,232190,2,0,L|441:87,1,120.000004577637,10|0,1:2|0:0,0:0:0:0:
508,282,232530,1,2,0:0:0:0:
358,181,232700,1,0,0:0:0:0:
147,286,232871,6,0,L|40:341,1,120.000004577637,2|0,1:2|0:0,0:0:0:0:
102,176,233212,2,0,L|108:56,1,120.000004577637,2|0,1:2|0:0,0:0:0:0:
220,192,233553,2,0,L|320:257,1,120.000004577637,10|0,1:2|0:0,0:0:0:0:
148,368,233894,1,2,0:0:0:0:
31,136,234064,1,0,1:0:0:0:
290,150,234235,2,0,P|357:144|402:120,1,120.000004577637,2|0,1:2|0:0,0:0:0:0:
220,192,234576,2,0,P|191:253|189:303,1,120.000004577637,2|0,1:2|0:0,0:0:0:0:
218,110,234917,2,0,P|179:54|136:28,1,120.000004577637,10|0,1:2|0:0,0:0:0:0:
109,217,235258,1,2,0:0:0:0:
298,288,235428,1,0,0:0:0:0:
364,97,235598,6,0,L|472:43,1,120.000004577637,2|0,1:2|0:0,0:0:0:0:
410,208,235939,2,0,L|403:327,1,120.000004577637,2|0,1:2|0:0,0:0:0:0:
292,192,236280,2,0,L|191:126,1,120.000004577637,10|0,1:2|0:0,0:0:0:0:
260,27,236621,1,2,0:0:0:0:
410,208,236792,1,0,1:0:0:0:
147,286,236962,2,0,L|40:341,1,120.000004577637,2|0,1:2|0:0,0:0:0:0:
102,176,237303,2,0,L|108:56,1,120.000004577637,2|0,1:2|0:0,0:0:0:0:
220,192,237644,2,0,L|320:257,1,120.000004577637,10|0,1:2|0:0,0:0:0:0:
252,357,237985,1,2,1:2:0:0:
333,136,238156,1,0,0:0:0:0:
333,136,238326,5,2,1:2:0:0:
483,317,238496,1,0,1:2:0:0:
252,357,238667,2,0,L|121:358,1,120.000004577637,0|0,1:2|0:0,0:0:0:0:
384,105,239008,1,12,1:2:0:0:
252,357,239178,1,0,1:2:0:0:
210,75,239348,1,0,1:2:0:0:
411,278,239519,1,0,1:2:0:0:
128,231,239689,6,0,P|51:192|12:129,1,160,6|0,1:2|0:0,0:0:0:0:
210,75,240029,1,2,1:2:0:0:
247,87,240115,1,0,0:0:0:0:
281,108,240200,1,2,0:0:0:0:
307,138,240285,1,0,0:0:0:0:
325,174,240370,2,0,P|339:261|326:337,1,160,10|0,1:2|0:0,0:0:0:0:
292,352,240626,1,2,0:0:0:0:
252,357,240711,1,2,0:0:0:0:
207,187,240882,1,2,1:2:0:0:
207,187,240967,1,2,0:0:0:0:
207,187,241052,5,2,1:2:0:0:
427,364,241223,1,0,0:0:0:0:
354,91,241393,1,2,1:2:0:0:
252,357,241564,1,2,0:0:0:0:
490,201,241734,2,0,P|491:114|474:42,1,160,10|0,1:2|0:0,0:0:0:0:
235,258,242075,1,2,0:0:0:0:
45,279,242245,1,0,0:0:0:0:
28,241,242331,1,2,0:0:0:0:
22,201,242416,6,0,P|27:118|49:42,1,160,2|0,1:2|0:0,0:0:0:0:
277,258,242757,1,2,1:2:0:0:
467,279,242927,1,0,0:0:0:0:
484,241,243013,1,2,0:0:0:0:
490,201,243098,1,10,1:2:0:0:
376,51,243268,1,2,0:0:0:0:
226,165,243439,1,2,0:0:0:0:
340,315,243609,1,0,1:2:0:0:
490,201,243779,5,2,1:2:0:0:
487,161,243864,1,0,0:0:0:0:
479,122,243949,1,2,0:0:0:0:
465,84,244034,1,0,0:0:0:0:
446,49,244120,2,0,P|378:51|279:79,1,160,0|0,1:2|0:0,0:0:0:0:
257,98,244376,1,2,0:0:0:0:
229,126,244461,1,10,1:2:0:0:
420,266,244632,1,0,0:0:0:0:
203,361,244802,1,2,0:0:0:0:
12,221,244973,1,2,0:2:0:0:
8,181,245058,1,2,0:0:0:0:
11,141,245143,6,0,P|55:67|123:37,1,160,2|0,1:2|0:0,0:0:0:0:
376,114,245484,1,0,1:2:0:0:
395,149,245570,1,0,0:0:0:0:
409,187,245655,1,2,0:0:0:0:
417,226,245740,1,0,0:0:0:0:
420,266,245825,2,0,P|385:343|311:373,1,160,10|0,1:2|0:0,0:0:0:0:
279,376,246081,1,2,0:0:0:0:
239,369,246166,1,2,0:0:0:0:
66,349,246336,1,0,1:2:0:0:
66,349,246421,1,2,0:0:0:0:
66,349,246507,5,2,1:2:0:0:
180,91,246677,1,0,0:0:0:0:
239,369,246848,1,2,1:2:0:0:
29,178,247019,1,2,0:0:0:0:
311,209,247189,2,0,P|394:201|466:168,1,160,10|0,1:2|0:0,0:0:0:0:
174,33,247529,1,2,0:0:0:0:
29,178,247700,1,0,0:0:0:0:
26,217,247785,1,2,0:0:0:0:
40,254,247870,6,0,P|101:301|183:328,1,160,2|0,1:2|0:0,0:0:0:0:
338,33,248211,1,2,1:2:0:0:
483,178,248382,1,0,0:0:0:0:
486,217,248467,1,2,0:0:0:0:
472,254,248552,1,10,1:2:0:0:
271,341,248723,1,2,0:0:0:0:
184,140,248893,1,2,0:0:0:0:
385,53,249064,1,0,1:0:0:0:
472,254,249234,5,2,1:2:0:0:
452,288,249319,1,0,0:0:0:0:
424,317,249404,1,2,0:0:0:0:
390,337,249489,1,0,0:0:0:0:
352,348,249575,2,0,P|270:341|188:318,1,160,2|0,1:2|0:0,0:0:0:0:
158,303,249831,1,2,0:0:0:0:
123,282,249916,1,10,1:2:0:0:
407,204,250086,1,2,0:0:0:0:
99,128,250257,1,2,0:0:0:0:
448,100,250427,1,2,0:0:0:0:
448,100,250512,1,0,0:0:0:0:
448,100,250598,6,0,P|475:169|471:258,1,160,6|0,1:2|0:0,0:0:0:0:
290,88,250939,1,2,1:2:0:0:
254,70,251024,1,0,0:0:0:0:
216,60,251109,1,2,0:0:0:0:
176,58,251194,1,0,0:0:0:0:
137,64,251279,2,0,P|63:95|5:162,1,160,10|0,1:2|0:0,0:0:0:0:
256,192,251620,1,2,0:0:0:0:
383,129,251791,1,0,1:0:0:0:
397,166,251876,1,2,0:0:0:0:
407,204,251962,6,0,P|389:276|335:346,1,160,2|0,1:2|0:0,0:0:0:0:
30,267,252302,2,0,P|47:194|101:124,1,160,2|0,1:2|0:0,0:0:0:0:
393,35,252643,2,0,P|446:86|480:168,1,160,10|0,1:2|0:0,0:0:0:0:
256,192,252984,1,2,0:0:0:0:
137,64,253154,1,0,0:0:0:0:
103,88,253240,1,0,0:0:0:0:
80,118,253325,6,0,P|43:189|30:268,1,160,2|0,1:2|0:0,0:0:0:0:
358,353,253666,2,0,P|394:282|407:204,1,160,2|0,1:2|0:0,0:0:0:0:
397,166,253921,1,0,0:0:0:0:
383,129,254007,2,0,P|311:92|232:79,1,160,10|0,1:2|0:0,0:0:0:0:
229,337,254348,1,2,0:0:0:0:
484,333,254518,1,2,1:2:0:0:
448,80,254689,5,2,1:2:0:0:
417,54,254774,1,0,0:0:0:0:
383,33,254859,1,2,0:0:0:0:
346,17,254944,1,0,0:0:0:0:
307,7,255029,2,0,P|224:7|141:32,1,160,0|0,1:2|0:0,0:0:0:0:
117,50,255285,1,2,0:0:0:0:
87,77,255370,1,10,1:2:0:0:
346,192,255541,1,2,0:0:0:0:
50,279,255711,1,2,0:0:0:0:
493,294,255882,1,2,0:0:0:0:
493,294,255967,1,2,0:0:0:0:
493,294,256052,6,0,P|495:202|483:133,1,160,2|0,1:2|0:0,0:0:0:0:
203,51,256393,2,0,P|201:143|213:212,1,160,2|0,1:2|0:0,0:0:0:0:
245,232,256649,1,2,0:0:0:0:
284,232,256734,2,0,P|286:139|274:70,1,160,10|0,1:2|0:0,0:0:0:0:
41,34,257075,1,2,0:0:0:0:
37,73,257160,1,0,0:0:0:0:
38,113,257245,1,2,1:2:0:0:
42,153,257330,1,0,0:0:0:0:
50,192,257416,6,0,P|101:268|150:318,1,160,2|0,1:2|0:0,0:0:0:0:
418,259,257757,2,0,P|366:182|317:132,1,160,2|0,1:2|0:0,0:0:0:0:
280,135,258013,1,2,0:0:0:0:
248,157,258098,2,0,P|299:233|348:283,1,160,10|0,1:2|0:0,0:0:0:0:
448,80,258439,1,2,0:2:0:0:
417,54,258524,1,0,0:0:0:0:
383,33,258609,1,2,0:0:0:0:
346,17,258694,1,0,0:0:0:0:
307,7,258779,6,0,P|224:7|141:32,1,160,2|0,1:2|0:0,0:0:0:0:
328,295,259120,2,0,P|370:222|390:138,1,160,2|0,1:2|0:0,0:0:0:0:
69,168,259461,2,0,P|110:241|173:300,1,160,10|0,1:2|0:0,0:0:0:0:
200,311,259717,1,2,0:0:0:0:
238,319,259802,1,2,0:0:0:0:
389,149,259973,1,2,1:2:0:0:
151,27,260144,1,2,1:2:0:0:
164,293,260314,1,0,1:2:0:0:
307,7,260484,1,2,1:2:0:0:
69,168,260655,1,2,1:2:0:0:
328,295,260825,1,6,1:2:0:0:
