osu file format v14

[General]
AudioFilename: NOX - Firesong.mp3
AudioLeadIn: 0
PreviewTime: 36498
Countdown: 0
SampleSet: Soft
StackLeniency: 0.7
Mode: 0
LetterboxInBreaks: 1
StoryFireInFront: 0
EpilepsyWarning: 1
WidescreenStoryboard: 1

[Editor]
Bookmarks: 11963,31054,36508,47417,58326,59690,81508,102474,103326,114225,125144,126508,137407,148316,159235,164689,170144,172871,194689,215655,216508,227417,238326,239689,250598,260825
DistanceSpacing: 1.6
BeatDivisor: 4
GridSize: 4
TimelineZoom: 2.1

[Metadata]
Title:Firesong
TitleUnicode:Firesong
Artist:NOX
ArtistUnicode:NOX
Creator:Shiro
Version:Hard445
Source:
Tags:Odaril Bűvölet Buvolet Péter Peter Szabó Szabo Szilvia hungarian magyar Folk World Country Tűztánc Tuztanc Charles445
BeatmapID:723265
BeatmapSetID:294935

[Difficulty]
HPDrainRate:5
CircleSize:4
OverallDifficulty:7
ApproachRate:7
SliderMultiplier:2.8
SliderTickRate:1

[Events]
//Background and Video events
0,0,"background.png",0,0
//Break Periods
2,170344,171971
//Storyboard Layer 0 (Background)
//Storyboard Layer 1 (Fail)
//Storyboard Layer 2 (Pass)
//Storyboard Layer 3 (Foreground)
//Storyboard Sound Samples

[TimingPoints]
1054,681.818181818182,4,2,2,50,1,0
9229,-133.333333333333,4,2,2,35,0,0
30713,-117.647058823529,4,2,2,35,0,0
36508,-100,4,2,1,75,0,1
58326,-100,4,2,1,50,0,0
59007,-100,4,2,1,48,0,0
59178,-100,4,2,1,46,0,0
59348,-100,4,2,1,44,0,0
59518,-100,4,2,1,42,0,0
59689,-133.333333333333,4,2,2,20,0,0
59690,681.818181818182,4,2,2,20,1,0
59690,-133.333333333333,4,2,2,20,0,0
81507,-117.647058823529,4,2,2,35,0,0
102302,-117.647058823529,4,2,1,35,0,0
103326,-100,4,2,1,75,0,1
125144,-100,4,2,1,50,0,0
126508,681.818181818182,4,2,1,75,1,1
137076,-100,4,2,1,55,0,1
137246,-100,4,2,1,75,0,1
148326,-100,4,2,2,50,0,0
150370,-100,4,2,2,50,0,0
150427,-100,4,2,2,45,0,0
150484,-100,4,2,2,40,0,0
150541,-100,4,2,2,35,0,0
150597,-100,4,2,2,30,0,0
150654,-100,4,2,2,25,0,0
150711,-100,4,2,2,50,0,0
155825,-100,4,2,2,50,0,0
155882,-100,4,2,2,45,0,0
155938,-100,4,2,2,40,0,0
155995,-100,4,2,2,35,0,0
156052,-100,4,2,2,30,0,0
156109,-100,4,2,2,25,0,0
156166,-100,4,2,2,50,0,0
159234,-100,4,2,2,65,0,0
160597,-100,4,2,2,50,0,0
161962,-100,4,2,2,40,0,0
164689,-100,4,2,2,50,0,0
165030,-100,4,2,2,60,0,0
165712,-100,4,2,2,65,0,0
166053,-100,4,2,2,70,0,0
166394,-100,4,2,2,70,0,0
167076,-100,4,2,2,75,0,0
167416,-100,4,2,2,80,0,0
170143,-100,4,2,1,85,0,0
172871,-133.333333333333,4,2,2,20,0,0
194178,-117.647058823529,4,2,2,20,0,0
194348,-117.647058823529,4,2,2,30,0,0
194519,-117.647058823529,4,2,2,40,0,0
194689,-117.647058823529,4,2,2,50,0,0
216508,-100,4,2,1,75,0,1
238326,-100,4,2,1,75,0,0
239689,681.818181818182,4,2,2,75,1,1
239689,-100,4,2,2,75,0,1
260825,-100,4,2,2,50,0,0

[Colours]
Combo1 : 255,255,0
Combo2 : 255,0,0
Combo3 : 255,128,0

[HitObjects]
256,192,11963,5,0,1:2:0:0:
256,192,12304,1,0,1:0:0:0:
362,287,12644,2,0,P|446:309|500:258,1,157.500006008148,2|0,0:0|0:0,0:0:0:0:
424,236,13326,2,0,P|396:188|416:36,1,210.000008010865,2|2,0:0|0:0,0:0:0:0:
206,116,14349,2,0,L|148:148,1,52.5000020027161
80,184,14690,5,2,1:2:0:0:
184,292,15031,2,0,P|256:324|372:272,1,210.000008010865,2|0,1:2|0:0,0:0:0:0:
432,136,16054,1,2,0:0:0:0:
256,192,17417,5,2,1:2:0:0:
256,192,17758,1,0,1:2:0:0:
160,296,18099,2,0,P|256:332|352:296,2,210.000008010865,2|2|2,0:0|0:0|0:0,0:0:0:0:
320,52,20144,5,2,1:2:0:0:
192,52,20485,1,0,1:2:0:0:
256,164,20826,2,0,P|272:232|209:318,1,157.500006008148
175,223,21508,1,2,0:0:0:0:
344,121,21849,1,0,0:0:0:0:
344,121,22019,2,0,L|438:169,2,105.000004005432
256,68,22872,5,2,1:2:0:0:
256,68,23213,1,0,1:2:0:0:
156,188,23554,2,0,P|144:240|224:384,2,210.000008010865,2|2|2,0:0|0:0|0:0,0:0:0:0:
256,68,25258,2,0,P|288:60|328:60,1,52.5000020027161
396,92,25599,5,2,1:2:0:0:
342,217,25940,2,0,P|242:241|154:185,1,210.000008010865,2|0,1:2|0:0,0:0:0:0:
100,56,26963,1,2,0:0:0:0:
256,320,28326,5,2,1:2:0:0:
256,320,28667,1,0,1:2:0:0:
160,200,29008,2,0,P|256:236|352:200,2,210.000008010865,0|2|2,0:0|0:0|0:0,0:0:0:0:
256,92,30713,1,0,0:0:0:0:
352,200,31054,6,0,P|365:229|365:257,1,59.5000011348725,2|0,1:2|0:0,0:0:0:0:
336,340,31394,1,0,1:0:0:0:
264,288,31565,2,0,P|232:280|176:288,1,59.5000011348725,2|0,0:0|0:0,0:0:0:0:
124,316,31906,1,0,0:0:0:0:
136,228,32076,5,2,0:0:0:0:
136,228,32247,1,0,0:0:0:0:
104,144,32417,6,0,L|80:80,2,59.5000011348725,2|0|0,0:0|0:0|0:0,0:0:0:0:
212,152,32929,2,0,L|232:207,2,59.5000011348725,2|0|0,0:0|0:0|0:0,0:0:0:0:
284,76,33440,2,0,L|260:12,1,59.5000011348725,2|0,0:0|0:0,0:0:0:0:
348,140,33781,6,0,P|380:148|412:144,1,59.5000011348725,2|0,1:2|0:0,0:0:0:0:
488,108,34122,1,0,1:2:0:0:
476,200,34292,2,0,L|468:272,1,59.5000011348725,2|0,0:0|0:0,0:0:0:0:
456,352,34633,1,0,0:0:0:0:
372,288,34804,5,2,0:0:0:0:
372,288,34974,1,0,0:0:0:0:
280,232,35144,6,0,P|248:228|212:236,1,59.5000011348725,2|0,1:2|0:0,0:0:0:0:
136,284,35485,1,0,0:0:0:0:
204,144,35656,5,0,1:0:0:0:
308,144,35826,1,0,1:0:0:0:
196,144,35997,1,0,1:0:0:0:
316,144,36167,1,0,1:0:0:0:
188,144,36338,1,0,1:0:0:0:
324,144,36508,6,0,P|344:208|328:288,1,140,4|0,1:2|1:2,0:0:0:0:
256,352,37019,1,0,0:0:0:0:
179,278,37190,2,0,P|167:210|188:144,1,140,8|0,1:2|0:0,0:0:0:0:
256,64,37701,1,0,0:0:0:0:
324,144,37872,6,0,P|372:148|412:140,1,70,0|0,1:2|0:0,0:0:0:0:
256,64,38213,2,0,P|208:60|168:68,1,70,0|0,1:2|0:0,0:0:0:0:
324,144,38554,2,0,P|348:216|328:292,1,140,8|0,1:2|0:0,0:0:0:0:
248,216,39065,1,0,0:0:0:0:
156,268,39235,6,0,P|100:280|8:260,2,140,0|0|8,1:2|1:2|1:2,0:0:0:0:
248,216,40088,1,0,0:0:0:0:
324,144,40258,2,0,P|336:104|328:64,1,70
352,244,40599,6,0,P|392:272|488:276,1,140,0|0,1:2|1:2,0:0:0:0:
160,140,41281,2,0,P|120:112|24:108,1,140,8|0,1:2|0:0,0:0:0:0:
72,204,41792,1,0,0:0:0:0:
140,284,41963,6,0,P|216:320|300:300,1,140,0|0,1:2|1:2,0:0:0:0:
224,220,42474,1,0,0:0:0:0:
327,204,42644,2,0,P|397:158|425:76,1,140,8|0,1:2|0:0,0:0:0:0:
318,99,43156,1,0,0:0:0:0:
220,140,43326,6,0,P|176:144|128:136,1,70,0|0,1:2|0:0,0:0:0:0:
320,96,43667,2,0,P|364:92|412:100,1,70,0|0,1:2|0:0,0:0:0:0:
297,299,44008,2,0,P|241:323|157:307,1,140,8|0,1:2|0:0,0:0:0:0:
224,220,44519,1,0,0:0:0:0:
297,299,44690,6,0,P|365:311|457:275,2,140,0|0|8,1:2|1:2|1:2,0:0:0:0:
224,220,45542,1,0,0:0:0:0:
324,192,45713,1,0,0:0:0:0:
251,113,45883,1,0,0:0:0:0:
350,85,46054,6,0,P|419:75|487:93,1,140,0|0,1:2|1:2,0:0:0:0:
160,296,46735,2,0,P|91:306|28:272,1,140,12|0,1:2|0:0,0:0:0:0:
112,197,47247,1,0,0:0:0:0:
224,220,47417,6,0,P|293:214|352:178,1,140,4|0,1:2|1:2,0:0:0:0:
418,95,47929,1,0,0:0:0:0:
466,189,48099,2,0,P|412:277|320:325,1,210,8|0,1:2|0:0,0:0:0:0:
224,220,48781,6,0,P|212:184|216:152,1,70,0|0,1:0|0:0,0:0:0:0:
288,40,49122,2,0,P|296:76|296:108,1,70,0|0,1:0|0:0,0:0:0:0:
140,260,49463,2,0,P|120:188|132:120,1,140,8|0,1:2|0:0,0:0:0:0:
206,52,49974,1,0,0:0:0:0:
295,108,50144,6,0,P|371:116|447:104,2,140,0|0|8,1:0|1:0|1:2,0:0:0:0:
206,52,50997,1,0,0:0:0:0:
130,124,51167,2,0,L|78:177,1,70
32,296,51508,6,0,P|107:265|171:279,1,140,0|0,1:0|1:0,0:0:0:0:
256,324,52019,1,0,0:0:0:0:
349,275,52190,2,0,P|417:266|480:296,1,140,8|0,1:2|0:0,0:0:0:0:
396,152,52701,1,0,0:0:0:0:
300,192,52872,6,0,P|224:212|164:192,1,140,0|0,1:0|1:0,0:0:0:0:
232,108,53383,1,0,0:0:0:0:
300,192,53554,2,0,P|318:219|327:254,1,70,8|0,1:2|0:0,0:0:0:0:
167,194,53894,2,0,P|146:168|135:133,1,70
236,288,54235,6,0,P|176:312|88:304,1,140,0|0,1:0|1:0,0:0:0:0:
288,96,54917,2,0,P|348:72|436:80,1,140,8|0,1:2|0:0,0:0:0:0:
368,168,55429,1,0,0:0:0:0:
436,248,55599,6,0,P|436:308|396:380,2,140,0|0|8,1:0|1:0|1:2,0:0:0:0:
368,168,56451,1,0,0:0:0:0:
302,251,56622,2,0,P|270:255|230:247,1,70
324,84,56963,6,0,P|264:64|164:100,1,140,0|0,1:0|0:0,0:0:0:0:
436,248,57644,2,0,P|376:268|276:232,1,140,8|0,1:2|0:0,0:0:0:0:
256,148,58156,1,0,0:0:0:0:
210,251,58326,6,0,L|136:272,1,70,4|0,1:2|0:0,0:0:0:0:
340,172,58667,2,0,L|407:152,1,70,0|0,1:0|0:0,0:0:0:0:
184,92,59008,1,4,1:2:0:0:
184,92,59179,1,0,0:0:0:0:
304,44,59349,1,0,0:0:0:0:
304,44,59519,1,0,0:0:0:0:
340,172,59690,6,0,P|348:223|340:275,1,105.000004005432,0|0,1:0|0:0,0:0:0:0:
95,195,60371,2,0,P|83:118|94:40,1,157.500006008148,2|0,0:0|0:0,0:0:0:0:
184,92,61053,2,0,L|247:128,2,52.5000020027161,2|0|0,0:0|0:0|0:0,0:0:0:0:
216,244,61735,2,0,P|288:264|372:240,1,157.500006008148
428,160,62417,6,0,P|432:108|416:56,1,105.000004005432,2|0,0:0|0:0,0:0:0:0:
332,120,62928,2,0,P|256:140|180:120,1,157.500006008148,2|0,0:0|0:0,0:0:0:0:
94,57,63610,2,0,P|80:107|84:160,1,105.000004005432,0|2,0:0|0:0,0:0:0:0:
120,252,64121,1,0,0:0:0:0:
256,344,64462,1,0,0:0:0:0:
392,252,64803,1,0,0:0:0:0:
392,252,64974,1,0,0:0:0:0:
392,252,65144,6,0,P|400:200|388:140,1,105.000004005432,2|0,0:0|0:0,0:0:0:0:
204,48,65826,2,0,P|235:90|286:124,1,105.000004005432,2|0,0:0|0:0,0:0:0:0:
392,252,66508,2,0,P|328:224|176:260,1,210.000008010865,2|2,0:0|0:0,0:0:0:0:
32,104,67530,1,0,0:0:0:0:
32,104,67701,1,0,0:0:0:0:
32,104,67871,6,0,P|92:128|144:124,1,105.000004005432,2|2,0:0|0:0,0:0:0:0:
344,72,68553,2,0,P|284:48|232:52,1,105.000004005432,2|0,0:0|0:0,0:0:0:0:
272,148,69065,2,0,P|260:200|224:244,1,105.000004005432,2|2,0:0|0:0,0:0:0:0:
144,296,69576,1,0,0:0:0:0:
344,240,69917,1,2,0:0:0:0:
196,95,70258,1,0,0:0:0:0:
196,95,70428,1,0,0:0:0:0:
196,95,70599,6,0,P|136:80|72:88,1,105.000004005432,2|0,0:0|0:0,0:0:0:0:
241,227,71280,2,0,P|301:242|365:234,1,105.000004005432,2|0,0:0|0:0,0:0:0:0:
440,208,71792,1,2,0:0:0:0:
328,100,72133,1,2,0:0:0:0:
328,100,72303,1,0,0:0:0:0:
240,228,72644,2,0,P|224:284|244:348,1,105.000004005432,2|0,0:0|0:0,0:0:0:0:
318,286,73155,1,0,0:0:0:0:
233,328,73326,6,0,P|180:340|104:316,2,105.000004005432,0|0|2,0:0|0:0|0:0,0:0:0:0:
380,192,74349,1,0,0:0:0:0:
380,192,74519,1,2,0:0:0:0:
256,96,74860,1,2,0:0:0:0:
256,96,75030,1,0,0:0:0:0:
131,192,75371,2,0,P|120:244|132:296,1,105.000004005432,2|0,0:0|0:0,0:0:0:0:
224,244,75883,1,0,0:0:0:0:
308,296,76053,6,0,L|352:323,2,52.5000020027161,2|0|0,0:0|0:0|0:0,0:0:0:0:
213,130,76735,2,0,P|203:82|218:24,1,105.000004005432,2|0,0:0|0:0,0:0:0:0:
403,92,77417,2,0,P|410:169|373:237,1,157.500006008148
308,296,78099,1,2,0:0:0:0:
224,168,78440,1,0,0:0:0:0:
224,168,78610,1,0,0:0:0:0:
224,168,78780,5,2,0:0:0:0:
112,280,79121,2,0,P|76:212|98:81,1,210.000008010865,2|0,0:0|0:0,0:0:0:0:
244,24,80144,2,0,P|268:20|304:24,2,52.5000020027161,2|0|0,0:0|0:0|0:0,0:0:0:0:
360,184,80826,6,0,L|404:248,1,52.5000020027161
288,248,81167,2,0,L|292:312,1,52.5000020027161
200,292,81508,6,0,P|140:304|80:288,1,119.000002269745,2|0,1:2|0:0,0:0:0:0:
172,112,82190,2,0,P|232:100|292:116,1,119.000002269745,2|0,0:0|0:0,0:0:0:0:
360,184,82701,1,0,0:0:0:0:
428,108,82871,2,0,L|472:62,2,59.5000011348725,2|0|0,0:0|0:0|0:0,0:0:0:0:
230,202,83553,2,0,P|170:214|110:198,1,119.000002269745,2|0,0:0|0:0,0:0:0:0:
39,123,84065,1,0,0:0:0:0:
114,200,84235,6,0,P|119:280|96:337,1,119.000002269745,2|0,1:2|0:0,0:0:0:0:
206,280,84746,2,0,P|245:266|334:270,1,119.000002269745,2|0,0:0|0:0,0:0:0:0:
409,321,85258,1,2,0:0:0:0:
421,158,85599,2,0,P|420:99|392:48,1,119.000002269745,2|0,0:0|0:0,0:0:0:0:
256,181,86280,1,2,0:0:0:0:
120,48,86621,1,0,0:0:0:0:
120,48,86792,1,0,0:0:0:0:
120,48,86962,6,0,P|88:120|96:176,1,119.000002269745,2|0,1:2|0:0,0:0:0:0:
273,278,87644,2,0,P|305:206|297:150,1,119.000002269745,2|0,0:0|0:0,0:0:0:0:
90,158,88326,2,0,P|160:252|288:276,1,238.00000453949,2|2,0:0|0:0,0:0:0:0:
428,140,89349,2,0,P|432:100|424:68,1,59.5000011348725
356,20,89690,6,0,P|336:104|376:224,1,178.500003404617,2|2,1:2|0:0,0:0:0:0:
412,272,90371,1,0,0:0:0:0:
256,168,90712,1,0,0:0:0:0:
100,272,91053,1,2,0:0:0:0:
100,272,91224,1,0,0:0:0:0:
100,272,91394,2,0,P|80:212|84:156,1,119.000002269745
228,40,92076,2,0,P|256:36|288:40,1,59.5000011348725
332,128,92417,6,0,P|380:188|488:220,1,178.500003404617,2|0,1:2|0:0,0:0:0:0:
400,288,93099,2,0,P|336:304|272:292,1,119.000002269745,2|0,0:0|0:0,0:0:0:0:
200,252,93610,1,0,0:0:0:0:
256,96,93951,1,0,0:0:0:0:
256,96,94121,1,0,0:0:0:0:
100,140,94462,2,0,P|88:200|104:256,1,119.000002269745,2|0,0:0|0:0,0:0:0:0:
200,252,94974,1,0,0:0:0:0:
284,296,95144,6,0,P|344:304|408:288,1,119.000002269745,2|0,1:2|0:0,0:0:0:0:
459,200,95655,2,0,P|400:191|342:204,1,119.000002269745,2|0,0:0|0:0,0:0:0:0:
405,296,96167,1,0,0:0:0:0:
512,120,96508,2,0,P|394:103|279:129,1,238.00000453949,2|0,0:0|0:0,0:0:0:0:
125,38,97530,1,2,0:0:0:0:
81,197,97871,6,0,P|106:281|178:330,1,178.500003404617,2|0,1:2|0:0,0:0:0:0:
257,294,98553,2,0,P|318:292|379:318,1,119.000002269745,2|0,0:0|0:0,0:0:0:0:
469,150,99235,2,0,P|399:188|290:180,1,178.500003404617,2|0,0:0|0:0,0:0:0:0:
199,127,99917,2,0,P|269:89|378:97,1,178.500003404617,2|0,0:0|0:0,0:0:0:0:
302,184,100599,6,0,L|249:241,2,59.5000011348725,2|0|0,1:2|0:0|0:0,0:0:0:0:
331,310,101280,2,0,P|260:333|200:317,1,119.000002269745,2|0,0:0|0:0,0:0:0:0:
167,242,101792,1,0,0:0:0:0:
114,324,101962,1,0,1:0:0:0:
204,108,102474,5,0,1:0:0:0:
308,108,102644,1,8,1:2:0:0:
196,108,102815,1,0,1:0:0:0:
316,108,102985,1,0,1:0:0:0:
188,108,103156,1,0,1:0:0:0:
320,108,103326,6,0,P|340:172|324:252,1,140,0|0,1:2|1:0,0:0:0:0:
256,324,103837,1,0,0:0:0:0:
184,242,104008,2,0,P|116:224|44:248,1,140,8|0,1:2|0:0,0:0:0:0:
116,120,104519,1,0,0:0:0:0:
215,151,104690,6,0,P|249:159|284:156,1,70,0|0,1:0|0:0,0:0:0:0:
384,40,105030,2,0,P|350:32|315:35,1,70,0|0,1:0|0:0,0:0:0:0:
388,164,105371,2,0,P|400:232|376:324,1,140,8|0,1:2|0:0,0:0:0:0:
300,232,105883,1,0,0:0:0:0:
216,304,106053,6,0,P|144:316|80:300,2,140,0|0|8,1:0|1:0|1:2,0:0:0:0:
300,232,106905,1,0,0:0:0:0:
264,128,107076,2,0,P|256:96|264:56,1,70
388,164,107417,6,0,P|404:228|376:324,1,140,0|0,1:0|1:0,0:0:0:0:
124,164,108099,2,0,P|108:228|136:324,1,140,8|0,1:2|0:0,0:0:0:0:
210,234,108610,1,0,0:0:0:0:
308,280,108780,6,0,P|372:296|444:276,1,140,0|0,1:0|1:0,0:0:0:0:
372,192,109292,1,0,0:0:0:0:
442,106,109462,2,0,P|375:88|308:103,1,140,8|0,1:2|0:0,0:0:0:0:
212,156,109974,1,0,0:0:0:0:
124,88,110144,6,0,P|112:52|112:16,1,70,0|0,1:0|0:0,0:0:0:0:
112,200,110485,2,0,P|113:234|124:267,1,70,0|0,1:0|0:0,0:0:0:0:
212,156,110826,2,0,P|272:136|364:152,1,140,8|0,1:2|0:0,0:0:0:0:
412,232,111337,1,0,0:0:0:0:
368,332,111508,6,0,P|308:352|216:336,2,140,0|0|8,1:0|1:0|1:2,0:0:0:0:
412,232,112360,1,0,0:0:0:0:
305,253,112530,1,0,0:0:0:0:
349,154,112701,1,0,0:0:0:0:
242,176,112871,6,0,P|172:192|104:172,1,140,0|0,1:0|1:0,0:0:0:0:
340,60,113553,2,0,P|410:44|478:64,1,140,8|0,1:2|0:0,0:0:0:0:
406,148,114065,1,0,0:0:0:0:
436,252,114235,6,0,P|404:304|332:328,1,140,4|0,1:2|1:0,0:0:0:0:
256,248,114746,1,0,0:0:0:0:
180,327,114917,2,0,P|114:308|76:252,1,140,8|0,1:2|0:0,0:0:0:0:
56,144,115428,1,0,0:0:0:0:
164,168,115599,6,0,P|200:172|232:164,1,70,0|0,1:0|0:0,0:0:0:0:
344,80,115940,2,0,P|308:76|276:84,1,70,0|0,1:0|0:0,0:0:0:0:
256,248,116280,2,0,P|288:300|388:336,1,140,8|0,1:2|0:0,0:0:0:0:
456,284,116792,1,0,0:0:0:0:
372,216,116962,6,0,P|356:160|384:80,2,140,0|0|8,1:0|1:0|1:2,0:0:0:0:
464,156,117815,1,0,0:0:0:0:
380,84,117985,2,0,P|348:72|284:76,1,70
208,104,118326,6,0,P|132:124|68:104,1,140,0|0,1:0|1:0,0:0:0:0:
8,192,118837,1,0,0:0:0:0:
74,276,119008,2,0,P|141:259|208:280,1,140,8|0,1:2|0:0,0:0:0:0:
305,336,119519,1,0,0:0:0:0:
376,248,119690,6,0,P|396:188|384:112,1,140,0|0,1:0|1:0,0:0:0:0:
324,20,120201,1,0,0:0:0:0:
228,76,120371,2,0,P|218:118|228:162,1,70,8|0,1:2|0:0,0:0:0:0:
376,248,120712,2,0,P|333:238|289:248,1,70
196,348,121053,6,0,P|272:356|344:328,1,140,0|0,1:0|1:0,0:0:0:0:
316,36,121735,2,0,P|240:28|168:56,1,140,8|0,1:2|0:0,0:0:0:0:
99,121,122246,1,0,0:0:0:0:
159,212,122417,6,0,P|161:280|128:352,2,140,0|0|8,1:0|1:0|1:2,0:0:0:0:
226,125,123269,1,0,0:0:0:0:
313,191,123440,2,0,P|349:197|397:190,1,70
484,66,123780,6,0,P|416:44|347:54,1,140,0|0,1:0|1:0,0:0:0:0:
80,276,124462,2,0,P|148:298|217:288,1,140,8|0,1:2|0:0,0:0:0:0:
288,208,124974,1,0,0:0:0:0:
356,292,125144,6,0,L|440:320,1,70,4|0,1:2|0:0,0:0:0:0:
184,200,125485,2,0,L|117:177,1,70,0|0,1:0|0:0,0:0:0:0:
352,108,125826,1,8,1:2:0:0:
352,108,125996,1,0,1:0:0:0:
256,56,126167,1,0,1:0:0:0:
256,56,126337,1,0,1:0:0:0:
159,108,126508,6,0,P|144:172|160:244,1,140,4|0,1:2|1:0,0:0:0:0:
256,300,127019,1,0,0:0:0:0:
352,243,127189,2,0,P|368:175|353:108,1,140,8|0,1:2|0:0,0:0:0:0:
256,56,127701,1,0,0:0:0:0:
160,108,127871,6,0,P|120:116|80:112,1,70,0|0,1:0|0:0,0:0:0:0:
250,179,128212,2,0,P|290:171|330:175,1,70,0|0,1:0|0:0,0:0:0:0:
151,227,128553,2,0,P|139:295|167:367,1,140,8|0,1:2|0:0,0:0:0:0:
241,285,129064,1,0,0:0:0:0:
321,359,129235,6,0,P|394:368|460:335,2,140,0|0|8,1:0|1:0|1:2,0:0:0:0:
376,264,130087,1,0,0:0:0:0:
295,190,130258,1,0,0:0:0:0:
350,95,130429,1,0,0:0:0:0:
269,21,130598,6,0,P|207:50|109:44,1,140,0|0,1:0|1:0,0:0:0:0:
37,282,131280,2,0,P|99:253|197:259,1,140,8|0,1:2|0:0,0:0:0:0:
256,320,131792,1,0,0:0:0:0:
342,251,131962,6,0,P|356:176|340:116,1,140,0|0,1:0|1:0,0:0:0:0:
256,44,132473,1,0,0:0:0:0:
172,115,132644,2,0,P|155:183|169:251,1,140,8|0,1:2|0:0,0:0:0:0:
256,320,133155,1,0,0:0:0:0:
364,344,133326,6,0,P|404:340|452:308,1,70,0|0,1:0|0:0,0:0:0:0:
440,184,133667,2,0,P|400:188|352:220,1,70,0|0,1:0|0:0,0:0:0:0:
256,320,134008,2,0,P|184:324|124:288,1,140,8|0,1:2|0:0,0:0:0:0:
84,192,134519,1,0,0:0:0:0:
126,92,134689,6,0,P|187:59|256:64,2,140,0|0|8,1:2|1:0|1:2,0:0:0:0:
212,164,135542,1,0,0:0:0:0:
172,268,135712,2,0,P|172:304|192:344,1,70
280,276,136053,6,0,P|344:252|416:260,1,140,0|0,1:0|1:0,0:0:0:0:
332,68,136735,2,0,P|268:92|196:84,1,140,8|4,1:2|0:0,0:0:0:0:
104,32,137246,1,0,0:0:0:0:
96,140,137417,6,0,L|76:340,1,140,4|0,1:2|1:0,0:0:0:0:
172,220,137928,1,0,0:0:0:0:
256,292,138098,2,0,P|352:308|464:252,1,210,8|0,1:2|0:0,0:0:0:0:
337,151,138780,6,0,P|333:185|345:223,1,70,0|0,1:0|0:0,0:0:0:0:
439,109,139121,2,0,P|422:77|395:56,1,70,0|0,1:0|0:0,0:0:0:0:
233,156,139462,2,0,P|233:230|266:308,1,140,8|0,1:2|0:0,0:0:0:0:
342,218,139973,1,0,0:0:0:0:
255,291,140144,6,0,P|184:311|97:289,2,140,0|0|8,1:0|1:0|1:2,0:0:0:0:
362,313,140996,1,0,0:0:0:0:
453,252,141167,2,0,P|458:214|450:172,1,70
456,72,141508,6,0,P|408:121|340:131,1,140,0|0,1:2|1:0,0:0:0:0:
256,56,142019,1,0,0:0:0:0:
171,131,142189,2,0,P|103:121|56:72,1,140,8|0,1:2|0:0,0:0:0:0:
156,28,142701,1,0,0:0:0:0:
171,131,142871,6,0,P|164:204|112:272,1,140,0|0,1:0|1:0,0:0:0:0:
28,308,143383,1,0,0:0:0:0:
127,259,143553,2,0,P|164:256|216:264,1,70,8|0,1:2|0:0,0:0:0:0:
300,300,143894,2,0,P|336:303|388:295,1,70
468,256,144235,6,0,P|484:192|464:120,1,140,0|0,1:0|1:0,0:0:0:0:
256,36,144917,2,0,P|240:100|260:172,1,140,8|0,0:2|0:0,0:0:0:0:
344,100,145428,1,0,0:0:0:0:
356,208,145598,6,0,P|344:276|292:340,2,140,0|0|8,1:0|1:0|0:2,0:0:0:0:
344,100,146451,1,0,0:0:0:0:
258,170,146621,2,0,P|224:176|184:168,1,70,0|0,0:0|1:0,0:0:0:0:
174,61,146962,6,0,P|141:72|112:92,1,70,4|0,0:0|1:0,0:0:0:0:
25,163,147303,2,0,P|9:251|73:319,1,140,0|12,1:0|1:2,0:0:0:0:
121,349,147814,1,0,1:0:0:0:
144,244,147985,1,0,1:0:0:0:
228,312,148155,1,0,1:0:0:0:
312,244,148326,6,0,P|384:260|448:240,2,140,6|0|10,1:2|0:0|0:0,0:0:0:0:
384,112,149178,2,0,P|376:148|380:192,1,70,0|2,0:0|0:0,0:0:0:0:
300,44,149519,1,0,0:0:0:0:
204,87,149689,6,0,P|169:92|134:89,1,70,2|0,0:0|0:0,0:0:0:0:
40,176,150030,2,0,P|69:194|101:207,1,70,2|0,0:0|0:0,0:0:0:0:
256,168,150371,2,0,P|226:230|233:299,1,140,10|2,0:0|0:0,0:0:0:0:
332,249,150883,1,0,0:0:0:0:
233,299,151053,6,0,P|160:280|88:308,2,140,2|0|10,0:0|0:0|0:0,0:0:0:0:
332,249,151905,1,2,0:0:0:0:
256,168,152076,2,0,P|248:116|253:76,1,70,2|0,0:0|0:0,0:0:0:0:
356,45,152417,6,0,P|347:122|381:202,1,140,2|2,0:0|0:0,0:0:0:0:
248,98,152928,1,2,0:0:0:0:
150,146,153098,2,0,P|112:152|69:150,1,70,8|0,0:0|0:0,0:0:0:0:
206,252,153439,2,0,P|170:267|128:276,1,70,2|0,0:0|0:0,0:0:0:0:
287,339,153780,6,0,P|332:321|443:331,2,140,2|0|10,0:0|0:0|0:0,0:0:0:0:
375,220,154633,2,0,P|335:221|289:235,1,70,0|2,0:0|0:0,0:0:0:0:
422,132,154973,1,0,0:0:0:0:
344,57,155144,6,0,P|309:54|272:59,1,70,2|0,0:0|0:0,0:0:0:0:
182,154,155485,2,0,P|210:174|245:188,1,70,2|0,0:0|0:0,0:0:0:0:
86,89,155826,2,0,P|77:169|104:242,1,140,10|2,0:0|0:0,0:0:0:0:
176,297,156337,1,0,0:0:0:0:
272,245,156508,6,0,P|341:258|408:245,2,140,2|0|10,0:0|0:0|0:0,0:0:0:0:
338,99,157360,2,0,P|344:136|337:171,2,70,2|2|2,0:0|0:0|0:0,0:0:0:0:
208,27,157871,6,0,P|190:90|213:189,1,140,2|2,0:0|0:0,0:0:0:0:
272,245,158383,1,0,0:0:0:0:
163,258,158553,2,0,L|86:295,1,70,10|0,0:0|0:0,0:0:0:0:
285,159,158894,2,0,L|362:122,1,70,2|0,0:0|0:0,0:0:0:0:
470,242,159235,6,0,P|404:288|324:285,2,140,6|2|10,0:0|0:0|0:0,0:0:0:0:
376,184,160087,1,0,0:0:0:0:
274,224,160258,2,0,L|198:251,1,70,2|0,0:0|0:0,0:0:0:0:
88,110,160598,6,0,P|154:156|234:153,2,140,2|2|10,0:0|0:0|0:0,0:0:0:0:
182,52,161450,1,0,0:0:0:0:
284,92,161621,2,0,L|360:119,1,70,2|0,0:0|0:0,0:0:0:0:
274,224,161962,6,0,P|289:271|278:363,2,140,2|2|10,0:0|0:0|0:0,0:0:0:0:
192,297,162814,1,0,0:0:0:0:
274,224,162985,2,0,P|327:214|364:221,1,70,2|0,0:0|0:0,0:0:0:0:
448,97,163326,6,0,P|364:126|296:117,1,140,2|2,0:0|0:0,0:0:0:0:
225,58,163837,1,2,0:0:0:0:
126,105,164008,2,0,L|52:141,1,70,10|0,0:0|0:0,0:0:0:0:
251,152,164348,2,0,L|313:121,1,70,2|0,0:0|0:0,0:0:0:0:
208,252,164689,6,0,P|234:312|320:351,2,140,2|2|10,0:0|0:0|0:0,0:0:0:0:
252,152,165542,1,0,0:0:0:0:
320,236,165712,2,0,P|344:232|396:240,1,70,2|0,0:0|0:0,0:0:0:0:
405,125,166053,6,0,P|465:151|504:237,2,140,2|2|10,0:0|0:0|0:0,0:0:0:0:
305,169,166906,1,0,0:0:0:0:
389,236,167076,2,0,P|384:271|390:306,1,70,2|0,0:0|0:0,0:0:0:0:
305,169,167417,6,0,P|236:188|168:172,2,140,2|2|10,0:0|0:0|0:0,0:0:0:0:
224,36,168269,2,0,P|236:68|236:112,1,70,0|2,0:0|0:0,0:0:0:0:
128,88,168610,1,0,0:0:0:0:
80,183,168780,6,0,P|78:218|86:252,1,70,2|2,0:0|0:0,0:0:0:0:
228,340,169121,2,0,P|196:324|160:320,1,70,2|0,0:0|0:0,0:0:0:0:
268,224,169462,2,0,P|316:232|412:192,1,140,10|0,0:0|0:0,0:0:0:0:
460,112,169973,1,0,0:0:0:0:
352,108,170144,5,4,0:0:0:0:
368,112,172871,6,0,P|380:164|364:240,1,105.000004005432,2|0,0:0|0:0,0:0:0:0:
279,319,173553,2,0,P|259:247|279:167,1,157.500006008148,2|0,0:0|0:0,0:0:0:0:
368,112,174235,2,0,L|430:83,2,52.5000020027161,2|0|0,0:0|0:0|0:0,0:0:0:0:
216,37,174917,1,2,0:0:0:0:
68,108,175258,1,0,0:0:0:0:
68,108,175428,1,0,0:0:0:0:
68,108,175598,6,0,P|56:172|72:224,1,105.000004005432,2|0,0:0|0:0,0:0:0:0:
160,156,176110,2,0,P|192:148|320:192,1,157.500006008148,2|0,0:0|0:0,0:0:0:0:
416,196,176792,2,0,P|384:256|332:292,1,105.000004005432,0|2,0:0|0:0,0:0:0:0:
256,260,177303,1,0,0:0:0:0:
372,124,177644,1,0,0:0:0:0:
192,96,177985,1,0,0:0:0:0:
192,96,178155,1,0,0:0:0:0:
192,96,178326,6,0,P|128:92|80:108,1,105.000004005432,2|0,0:0|0:0,0:0:0:0:
160,308,179008,2,0,P|224:312|272:296,1,105.000004005432,2|0,0:0|0:0,0:0:0:0:
352,244,179519,1,0,0:0:0:0:
352,244,179689,1,2,0:0:0:0:
204,192,180030,1,0,0:0:0:0:
352,140,180371,2,0,L|465:98,1,105.000004005432,2|2,0:0|0:0,0:0:0:0:
448,272,181053,6,0,L|444:332,2,52.5000020027161,2|0|2,0:0|0:0|0:0,0:0:0:0:
352,140,181735,2,0,P|288:120|228:132,1,105.000004005432,0|2,0:0|0:0,0:0:0:0:
160,168,182246,1,0,0:0:0:0:
160,168,182417,1,2,0:0:0:0:
48,72,182758,1,0,0:0:0:0:
12,208,183098,2,0,P|16:272|48:320,1,105.000004005432
100,236,183610,1,0,0:0:0:0:
172,300,183780,6,0,P|222:312|274:307,1,105.000004005432,2|0,0:0|0:0,0:0:0:0:
420,160,184462,2,0,P|369:147|317:152,1,105.000004005432,2|2,0:0|0:0,0:0:0:0:
232,184,184973,1,0,0:0:0:0:
232,184,185144,1,2,0:0:0:0:
120,64,185485,1,0,0:0:0:0:
68,216,185826,2,0,P|64:280|120:360,1,157.500006008148,2|0,0:0|0:0,0:0:0:0:
172,244,186508,6,0,P|172:196|148:144,1,105.000004005432,2|0,0:0|0:0,0:0:0:0:
200,56,187019,2,0,P|236:120|320:160,1,157.500006008148,2|2,0:0|0:0,0:0:0:0:
408,152,187701,1,0,0:0:0:0:
408,152,187871,1,2,0:0:0:0:
370,296,188212,1,0,0:0:0:0:
232,240,188553,2,0,P|164:232|108:248,1,105.000004005432,0|2,0:0|0:0,0:0:0:0:
34,271,189064,1,0,0:0:0:0:
64,176,189235,6,0,P|76:104|48:20,1,157.500006008148,2|0,0:0|0:0,0:0:0:0:
174,46,189917,2,0,L|328:78,1,157.500006008148,2|0,0:0|0:0,0:0:0:0:
390,157,190598,2,0,L|467:173,2,52.5000020027161,2|0|0,0:0|0:0|0:0,0:0:0:0:
202,160,191280,2,0,P|181:213|217:333,1,157.500006008148,2|0,0:0|0:0,0:0:0:0:
279,232,191962,5,2,0:0:0:0:
410,321,192303,2,0,P|438:248|426:158,1,157.500006008148,2|0,0:0|0:0,0:0:0:0:
397,80,192985,1,2,0:0:0:0:
242,124,193326,2,0,P|172:135|80:107,1,157.500006008148,2|0,0:0|0:0,0:0:0:0:
156,225,194008,5,0,0:0:0:0:
241,325,194178,2,0,L|170:312,1,59.5000011348725,0|0,1:0|1:0,1:0:0:0:
310,216,194519,1,0,1:0:0:0:
423,297,194689,6,0,P|443:246|440:161,1,119.000002269745,2|0,1:2|0:0,0:0:0:0:
233,132,195371,2,0,P|259:183|336:219,1,119.000002269745,2|0,0:0|0:0,0:0:0:0:
339,110,195883,1,0,0:0:0:0:
157,54,196223,1,0,0:0:0:0:
157,54,196394,2,0,P|127:117|134:189,1,119.000002269745,0|2,0:0|0:0,0:0:0:0:
209,297,196905,6,0,L|168:247,1,59.5000011348725
232,132,197246,1,0,0:0:0:0:
336,236,197417,6,0,P|396:244|468:220,1,119.000002269745,2|0,1:2|0:0,0:0:0:0:
503,126,197928,2,0,P|443:118|371:142,1,119.000002269745,2|0,0:0|0:0,0:0:0:0:
304,60,198439,1,2,0:0:0:0:
304,60,198610,1,0,0:0:0:0:
212,188,198951,1,0,0:0:0:0:
212,188,199121,1,2,0:0:0:0:
116,64,199462,5,0,0:0:0:0:
60,192,199633,2,0,L|32:136,1,59.5000011348725
136,304,199973,1,0,0:0:0:0:
212,188,200144,6,0,P|272:160|328:168,1,119.000002269745,2|2,1:2|0:0,0:0:0:0:
440,317,200826,2,0,P|352:312|283:257,1,178.500003404617,2|0,0:0|0:0,0:0:0:0:
322,166,201508,2,0,P|332:136|329:90,2,59.5000011348725,2|0|0,0:0|0:0|0:0,0:0:0:0:
152,97,202189,5,0,0:0:0:0:
210,215,202360,2,0,P|182:226|138:225,1,59.5000011348725
322,166,202701,1,0,0:0:0:0:
289,274,202871,6,0,P|318:327|385:355,1,119.000002269745,2|0,1:2|0:0,0:0:0:0:
402,238,203383,2,0,P|422:179|414:112,1,119.000002269745,2|0,0:0|0:0,0:0:0:0:
367,43,203894,1,0,0:0:0:0:
282,94,204064,2,0,P|206:98|145:75,1,119.000002269745
58,171,204576,2,0,P|134:167|195:190,1,119.000002269745
337,158,205087,6,0,L|278:197,1,59.5000011348725
432,88,205428,1,0,0:0:0:0:
448,203,205598,6,0,P|445:264|360:339,1,178.500003404617,2|0,1:2|0:0,0:0:0:0:
268,298,206280,2,0,P|204:291|143:306,1,119.000002269745,2|0,0:0|0:0,0:0:0:0:
175,198,206792,2,0,P|198:143|190:78,1,119.000002269745
92,131,207303,1,0,0:0:0:0:
290,42,207644,5,2,0:0:0:0:
373,147,207814,2,0,L|295:127,1,59.5000011348725
455,224,208155,1,0,0:0:0:0:
331,260,208326,6,0,P|272:270|213:260,1,119.000002269745,2|0,1:2|0:0,0:0:0:0:
132,58,209008,2,0,P|190:48|249:58,1,119.000002269745,2|0,0:0|0:0,0:0:0:0:
339,109,209519,1,0,0:0:0:0:
188,192,209860,1,0,0:0:0:0:
188,192,210030,1,0,0:0:0:0:
339,275,210371,5,2,0:0:0:0:
204,300,210542,2,0,L|244:356,1,59.5000011348725
80,244,210883,1,0,0:0:0:0:
188,192,211053,6,0,P|220:124|216:68,1,119.000002269745,2|0,1:2|0:0,0:0:0:0:
400,40,211735,2,0,P|388:124|412:192,1,119.000002269745,2|0,0:0|0:0,0:0:0:0:
456,332,212417,2,0,P|388:312|256:332,1,178.500003404617,2|0,0:0|0:0,0:0:0:0:
164,360,213098,5,2,0:0:0:0:
240,216,213269,2,0,L|196:272,1,59.5000011348725
128,144,213610,1,0,0:0:0:0:
260,84,213780,6,0,P|312:76|396:92,1,119.000002269745,2|2,1:2|0:0,0:0:0:0:
436,176,214292,2,0,P|440:252|360:340,1,178.500003404617,0|2,0:0|0:0,0:0:0:0:
291,274,214973,1,0,0:0:0:0:
205,336,215144,1,2,0:0:0:0:
204,136,215655,5,0,1:2:0:0:
308,136,215825,1,8,1:2:0:0:
196,136,215996,1,0,1:2:0:0:
316,136,216166,1,0,1:2:0:0:
188,136,216337,1,0,1:2:0:0:
320,136,216508,6,0,P|340:200|324:280,1,140,4|0,1:2|1:0,0:0:0:0:
256,352,217019,1,0,0:0:0:0:
183,270,217189,2,0,P|171:202|192:136,1,140,8|0,1:2|0:0,0:0:0:0:
256,48,217701,1,0,0:0:0:0:
320,136,217871,2,0,P|356:140|392:136,1,70,0|0,1:0|0:0,0:0:0:0:
256,48,218212,2,0,P|220:44|184:48,1,70,0|0,1:0|0:0,0:0:0:0:
319,135,218553,2,0,P|340:201|329:270,1,140,8|0,1:2|0:0,0:0:0:0:
240,208,219064,1,0,0:0:0:0:
168,292,219235,6,0,P|94:326|34:323,2,140,0|0|8,1:0|1:0|1:2,0:0:0:0:
82,231,220087,1,0,0:0:0:0:
156,156,220258,1,0,0:0:0:0:
70,95,220428,1,0,0:0:0:0:
144,21,220598,6,0,P|208:46|287:33,1,140,0|0,1:0|1:0,0:0:0:0:
364,255,221280,2,0,P|299:229|220:242,1,140,8|0,1:2|0:0,0:0:0:0:
114,221,221792,1,0,0:0:0:0:
21,290,221962,6,0,P|89:334|153:330,1,140,0|0,1:0|1:0,0:0:0:0:
256,364,222473,1,0,0:0:0:0:
359,330,222644,2,0,P|428:328|484:288,1,140,8|0,1:2|0:0,0:0:0:0:
396,220,223155,1,0,0:0:0:0:
288,244,223326,6,0,P|248:248|208:240,1,70,0|0,1:0|0:0,0:0:0:0:
136,80,223667,2,0,P|176:76|216:84,1,70,0|0,1:0|0:0,0:0:0:0:
364,128,224008,2,0,P|304:156|216:156,1,140,8|0,1:2|0:0,0:0:0:0:
136,80,224519,1,0,0:0:0:0:
80,172,224689,6,0,P|64:220|76:320,2,140,0|0|8,1:0|1:0|1:2,0:0:0:0:
164,244,225542,1,0,0:0:0:0:
268,208,225712,2,0,P|308:204|352:208,1,70
436,255,226053,6,0,P|385:303|318:319,1,140,0|0,1:0|1:0,0:0:0:0:
44,120,226735,2,0,P|94:72|161:56,1,140,12|0,1:2|0:0,0:0:0:0:
256,111,227246,1,0,0:0:0:0:
350,55,227417,6,0,P|364:120|336:192,1,140,4|0,1:2|1:0,0:0:0:0:
448,176,227928,1,0,0:0:0:0:
396,272,228098,2,0,P|336:316|180:304,1,210,8|0,1:2|0:0,0:0:0:0:
283,167,228780,6,0,P|285:130|275:95,1,70,0|0,1:0|0:0,0:0:0:0:
139,66,229121,2,0,P|136:102|146:137,1,70,0|0,1:0|0:0,0:0:0:0:
271,255,229462,2,0,P|336:231|369:171,1,140,8|0,1:2|0:0,0:0:0:0:
376,60,229973,1,0,0:0:0:0:
272,100,230144,6,0,P|200:96|136:64,2,140,0|0|8,1:0|1:0|1:2,0:0:0:0:
376,60,230996,1,0,0:0:0:0:
448,144,231167,2,0,P|460:180|452:228,1,70
444,320,231508,6,0,P|376:328|308:300,1,140,0|0,1:0|1:0,0:0:0:0:
256,208,232019,1,0,0:0:0:0:
201,302,232189,2,0,P|136:327|68:320,1,140,8|0,1:2|0:0,0:0:0:0:
124,224,232701,1,0,0:0:0:0:
188,124,232871,6,0,P|264:104|324:124,1,140,0|0,1:0|1:0,0:0:0:0:
256,208,233382,1,0,0:0:0:0:
188,124,233553,2,0,P|170:97|161:62,1,70,8|0,1:2|0:0,0:0:0:0:
321,122,233894,2,0,P|342:148|353:183,1,70
256,312,234235,6,0,P|196:336|108:328,1,140,0|0,1:1|1:0,0:0:0:0:
256,72,234917,2,0,P|316:48|404:56,1,140,8|0,1:2|0:0,0:0:0:0:
448,144,235428,1,0,0:0:0:0:
428,252,235598,6,0,P|384:312|312:336,2,140,0|0|8,1:0|1:0|0:2,0:0:0:0:
344,180,236451,1,0,0:0:0:0:
256,244,236621,2,0,P|216:256|180:252,1,70
92,200,236962,6,0,P|83:268|109:332,1,140,0|0,1:0|1:0,0:0:0:0:
420,184,237644,2,0,P|428:115|402:51,1,140,8|0,1:2|0:0,0:0:0:0:
324,128,238155,1,0,0:0:0:0:
224,84,238326,6,0,L|170:28,1,70,0|0,1:0|1:0,0:0:0:0:
297,217,238667,2,0,L|345:267,1,70,0|0,1:0|0:0,0:0:0:0:
121,208,239008,1,12,1:2:0:0:
121,208,239178,1,0,1:2:0:0:
204,308,239348,1,0,1:2:0:0:
204,308,239519,1,0,1:2:0:0:
297,217,239689,6,0,P|360:233|438:203,1,140,4|0,1:2|1:0,0:0:0:0:
356,128,240200,1,0,0:0:0:0:
280,48,240370,2,0,P|212:76|144:72,1,140,8|0,1:2|0:0,0:0:0:0:
64,144,240882,1,0,0:0:0:0:
144,216,241052,6,0,P|140:248|148:288,1,70,0|0,1:0|0:0,0:0:0:0:
296,180,241393,2,0,P|269:161|230:150,1,70,0|0,1:0|0:0,0:0:0:0:
260,296,241734,2,0,P|312:328|408:324,1,140,8|0,1:2|0:0,0:0:0:0:
480,268,242245,1,0,0:0:0:0:
404,188,242416,6,0,P|416:120|400:48,2,140,0|0|8,1:0|1:0|1:2,0:0:0:0:
320,120,243268,1,0,0:0:0:0:
236,188,243439,1,0,0:0:0:0:
152,120,243609,1,0,0:0:0:0:
68,188,243779,6,0,P|92:252|72:336,1,140,0|0,1:0|1:0,0:0:0:0:
176,268,244291,1,0,0:0:0:0:
280,300,244461,2,8,P|256:236|276:152,1,140,8|0,0:2|0:2,0:2:0:0:
304,64,244973,1,0,0:0:0:0:
200,96,245143,6,0,P|124:80|64:96,1,140,0|0,1:0|1:0,0:0:0:0:
116,192,245654,1,0,0:0:0:0:
64,288,245825,2,8,P|132:304|200:288,1,140,8|0,0:2|0:2,0:2:0:0:
276,208,246336,1,0,0:0:0:0:
360,280,246507,6,0,P|392:280|440:296,1,70,0|0,1:0|0:0,0:0:0:0:
276,208,246848,2,0,P|243:196|214:176,1,70,0|0,1:0|0:0,0:0:0:0:
416,80,247189,2,0,P|356:112|264:108,1,140,8|0,1:2|0:0,0:0:0:0:
188,60,247700,1,0,0:0:0:0:
100,128,247870,6,0,P|116:196|84:284,2,140,0|0|8,1:0|1:0|1:2,0:0:0:0:
188,60,248723,1,0,0:0:0:0:
272,128,248893,2,0,P|304:124|344:132,1,70
220,216,249234,6,0,P|240:268|228:352,1,140,0|0,1:0|1:0,0:0:0:0:
136,292,249745,1,0,0:0:0:0:
220,216,249916,2,0,P|264:208|304:216,1,70,12|0,1:2|0:0,0:0:0:0:
416,136,250257,2,0,P|372:144|332:136,1,70
188,60,250598,6,0,P|244:44|336:60,2,140,4|0|8,1:2|1:0|1:2,0:0:0:0:
108,136,251450,1,0,0:0:0:0:
192,208,251620,2,0,P|199:241|197:276,1,70
284,144,251961,2,0,P|340:160|420:132,2,140,0|0|8,1:0|1:0|1:2,0:0:0:0:
344,52,252814,1,0,0:0:0:0:
415,135,252984,2,0,P|432:180|432:216,1,70
328,328,253325,6,0,P|380:304|472:324,2,140,0|0|8,1:0|1:0|1:2,0:0:0:0:
256,244,254177,1,0,0:0:0:0:
184,328,254348,2,0,P|153:311|119:303,1,70
63,208,254689,6,0,P|131:190|187:149,1,140,0|0,1:0|1:0,0:0:0:0:
256,64,255200,1,0,0:0:0:0:
324,149,255370,2,0,P|350:172|380:190,1,70,8|0,1:2|0:0,0:0:0:0:
376,324,255711,2,0,P|345:306|319:283,1,70
188,248,256052,6,0,P|124:288|52:296,2,140,0|0|8,1:0|1:0|1:2,0:0:0:0:
224,144,256904,1,0,0:0:0:0:
296,228,257075,2,0,P|344:240|392:232,1,70
368,120,257416,6,0,P|432:160|504:168,2,140,0|0|8,1:0|1:0|1:2,0:0:0:0:
296,40,258268,1,0,0:0:0:0:
208,108,258439,2,0,P|160:120|112:112,1,70
35,264,258779,6,0,P|99:235|168:232,1,140,0|0,1:0|1:0,0:0:0:0:
500,156,259461,2,0,P|436:184|367:187,1,140,8|0,1:2|0:0,0:0:0:0:
256,152,259973,1,0,1:0:0:0:
204,252,260143,5,0,1:0:0:0:
308,252,260313,1,0,1:0:0:0:
196,252,260484,1,0,1:0:0:0:
316,252,260654,1,0,1:0:0:0:
256,352,260825,1,4,1:2:0:0:
