osu file format v14

[General]
AudioFilename: DJ HERO - Noisia Groundhog (Beat Juggle).mp3
AudioLeadIn: 0
PreviewTime: 70972
Countdown: 0
SampleSet: Soft
StackLeniency: 0.7
Mode: 3
LetterboxInBreaks: 0
SpecialStyle: 0
WidescreenStoryboard: 0

[Editor]
DistanceSpacing: 1
BeatDivisor: 6
GridSize: 8
TimelineZoom: 1.1

[Metadata]
Title:Groundhog (Beat Juggle)
TitleUnicode:Groundhog (Beat Juggle)
Artist:NOISIA
ArtistUnicode:NOISIA
Creator:Raspberriel
Version:Have I Really Met My Match?
Source:DJ Hero
Tags:dj hero beat juggle scratch perverts
BeatmapID:1251092
BeatmapSetID:591171

[Difficulty]
HPDrainRate:8
CircleSize:4
OverallDifficulty:7.5
ApproachRate:5
SliderMultiplier:1.4
SliderTickRate:1

[Events]
//Background and Video events
0,0,"GroundhogDay.png",0,0
//Break Periods
//Storyboard Layer 0 (Background)
//Storyboard Layer 1 (Fail)
//Storyboard Layer 2 (Pass)
//Storyboard Layer 3 (Foreground)
//Storyboard Sound Samples

[TimingPoints]
35,443.360673908224,4,2,0,20,1,0
70972,-100,4,2,0,20,0,1
84938,-100,4,2,0,20,0,0
85160,-100,4,2,0,20,0,1
99347,-100,4,2,0,20,0,0
156097,-100,4,2,0,20,0,1
170063,-100,4,2,0,20,0,0
170285,-100,4,2,0,20,0,1
184473,-100,4,2,0,20,0,0
198660,-100,4,2,0,20,0,1
212848,-100,4,2,0,20,0,0
227035,-100,4,2,0,20,0,1
241035,-100,4,2,0,20,0,0
241223,-100,4,2,0,20,0,1
255410,-100,4,2,0,20,0,0

[HitObjects]
320,192,35,5,0,2:0:0:0:
448,192,35,128,0,478:2:0:0:0:
64,192,35,128,0,404:2:0:0:0:
192,192,404,1,0,2:0:0:0:
320,192,478,1,0,2:0:0:0:
320,192,700,1,0,2:0:0:0:
64,192,921,1,0,2:0:0:0:
192,192,1069,1,0,2:0:0:0:
448,192,1143,128,0,1291:2:0:0:0:
320,192,1143,128,0,1291:2:0:0:0:
64,192,1291,1,0,2:0:0:0:
192,192,1365,1,0,2:0:0:0:
320,192,1586,1,0,2:0:0:0:
64,192,1734,1,0,2:0:0:0:
448,192,1734,1,0,2:0:0:0:
192,192,1808,1,0,2:0:0:0:
320,192,1956,1,0,2:0:0:0:
64,192,1956,1,0,2:0:0:0:
192,192,2177,1,0,2:0:0:0:
448,192,2177,1,0,2:0:0:0:
320,192,2399,1,0,2:0:0:0:
64,192,2399,1,0,2:0:0:0:
448,192,2621,128,0,2916:2:0:0:0:
192,192,2621,1,0,2:0:0:0:
320,192,2695,128,0,2916:2:0:0:0:
64,192,2916,1,0,2:0:0:0:
448,192,3064,1,0,2:0:0:0:
64,192,3138,128,0,3360:2:0:0:0:
320,192,3360,128,0,3581:2:0:0:0:
64,192,3581,128,0,4025:2:0:0:0:
192,192,3581,1,0,2:0:0:0:
448,192,3581,128,0,3951:2:0:0:0:
320,192,3951,1,0,2:0:0:0:
192,192,4025,1,0,2:0:0:0:
192,192,4246,1,0,2:0:0:0:
448,192,4468,1,0,2:0:0:0:
320,192,4616,1,0,2:0:0:0:
192,192,4690,128,0,4838:2:0:0:0:
64,192,4690,128,0,4838:2:0:0:0:
448,192,4838,1,0,2:0:0:0:
320,192,4911,1,0,2:0:0:0:
192,192,5133,1,0,2:0:0:0:
64,192,5281,1,0,2:0:0:0:
448,192,5281,1,0,2:0:0:0:
320,192,5355,1,0,2:0:0:0:
448,192,5503,1,0,2:0:0:0:
192,192,5503,1,0,2:0:0:0:
64,192,5724,1,0,2:0:0:0:
320,192,5724,1,0,2:0:0:0:
448,192,5946,1,0,2:0:0:0:
192,192,5946,1,0,2:0:0:0:
320,192,6168,1,0,2:0:0:0:
64,192,6168,128,0,6463:2:0:0:0:
192,192,6242,128,0,6463:2:0:0:0:
448,192,6463,1,0,2:0:0:0:
64,192,6611,1,0,2:0:0:0:
448,192,6685,128,0,7128:2:0:0:0:
192,192,6907,1,0,2:0:0:0:
320,192,7128,5,0,2:0:0:0:
64,192,7128,128,0,7572:2:0:0:0:
192,192,7128,128,0,7498:2:0:0:0:
448,192,7498,1,0,2:0:0:0:
320,192,7572,1,0,2:0:0:0:
192,192,7793,1,0,2:0:0:0:
448,192,8015,1,0,2:0:0:0:
320,192,8163,1,0,2:0:0:0:
64,192,8237,128,0,8375:2:0:0:0:
192,192,8237,128,0,8375:2:0:0:0:
448,192,8384,1,0,2:0:0:0:
320,192,8458,1,0,2:0:0:0:
192,192,8680,1,0,2:0:0:0:
448,192,8828,1,0,2:0:0:0:
64,192,8828,1,0,2:0:0:0:
320,192,8902,1,0,2:0:0:0:
192,192,9050,1,0,2:0:0:0:
64,192,9050,1,0,2:0:0:0:
320,192,9271,1,0,2:0:0:0:
448,192,9271,1,0,2:0:0:0:
64,192,9493,1,0,2:0:0:0:
192,192,9493,1,0,2:0:0:0:
64,192,9715,1,0,2:0:0:0:
448,192,9715,128,0,10010:2:0:0:0:
192,192,9788,128,0,10010:2:0:0:0:
320,192,10010,1,0,2:0:0:0:
192,192,10158,1,0,2:0:0:0:
448,192,10232,128,0,10453:2:0:0:0:
64,192,10453,128,0,10675:2:0:0:0:
192,192,10675,5,0,2:0:0:0:
448,192,10675,128,0,11119:2:0:0:0:
320,192,10675,128,0,11045:2:0:0:0:
64,192,11045,1,0,2:0:0:0:
192,192,11119,1,0,2:0:0:0:
320,192,11340,1,0,2:0:0:0:
64,192,11562,1,0,2:0:0:0:
192,192,11710,1,0,2:0:0:0:
320,192,11784,128,0,11931:2:0:0:0:
448,192,11784,128,0,11931:2:0:0:0:
64,192,11931,1,0,2:0:0:0:
192,192,12005,1,0,2:0:0:0:
320,192,12227,1,0,2:0:0:0:
448,192,12375,1,0,2:0:0:0:
64,192,12375,1,0,2:0:0:0:
320,192,12449,1,0,2:0:0:0:
192,192,12596,1,0,2:0:0:0:
64,192,12596,1,0,2:0:0:0:
448,192,12818,1,0,2:0:0:0:
320,192,12818,1,0,2:0:0:0:
64,192,12892,128,0,13114:2:0:0:0:
192,192,12892,128,0,13114:2:0:0:0:
320,192,13040,1,0,2:0:0:0:
448,192,13114,1,0,2:0:0:0:
192,192,13261,1,0,2:0:0:0:
320,192,13335,128,0,13557:2:0:0:0:
64,192,13335,128,0,13557:2:0:0:0:
448,192,13483,1,0,2:0:0:0:
192,192,13557,1,0,2:0:0:0:
320,192,13705,1,0,2:0:0:0:
448,192,13779,128,0,14000:2:0:0:0:
64,192,13779,128,0,14000:2:0:0:0:
192,192,13926,1,0,2:0:0:0:
320,192,14000,1,0,2:0:0:0:
192,192,14148,1,0,2:0:0:0:
64,192,14222,128,0,14444:2:0:0:0:
320,192,14222,128,0,14592:2:0:0:0:
448,192,14222,128,0,14592:2:0:0:0:
192,192,14592,1,0,2:0:0:0:
64,192,14592,1,0,2:0:0:0:
320,192,14665,1,0,2:0:0:0:
448,192,14665,1,0,2:0:0:0:
192,192,14887,1,0,2:0:0:0:
448,192,15109,1,0,2:0:0:0:
320,192,15109,1,0,2:0:0:0:
192,192,15257,1,0,2:0:0:0:
64,192,15330,1,0,2:0:0:0:
448,192,15478,1,0,2:0:0:0:
320,192,15478,1,0,2:0:0:0:
192,192,15552,1,0,2:0:0:0:
64,192,15774,1,0,2:0:0:0:
192,192,15922,1,0,2:0:0:0:
448,192,15922,1,0,2:0:0:0:
320,192,15995,1,0,2:0:0:0:
192,192,16143,1,0,2:0:0:0:
64,192,16143,1,0,2:0:0:0:
320,192,16365,1,0,2:0:0:0:
448,192,16365,1,0,2:0:0:0:
192,192,16439,1,0,2:0:0:0:
64,192,16587,1,0,2:0:0:0:
320,192,16587,1,0,2:0:0:0:
192,192,16808,1,0,2:0:0:0:
448,192,16808,1,0,2:0:0:0:
320,192,16882,1,0,2:0:0:0:
64,192,16882,1,0,2:0:0:0:
192,192,17104,1,0,2:0:0:0:
448,192,17252,1,0,2:0:0:0:
320,192,17252,1,0,2:0:0:0:
192,192,17326,1,0,2:0:0:0:
64,192,17326,1,0,2:0:0:0:
448,192,17547,1,0,2:0:0:0:
320,192,17547,1,0,2:0:0:0:
448,192,17769,128,0,17991:2:0:0:0:
64,192,17769,128,0,17991:2:0:0:0:
192,192,17991,128,0,18212:2:0:0:0:
320,192,18138,1,0,2:0:0:0:
448,192,18138,1,0,2:0:0:0:
64,192,18212,128,0,18656:2:0:0:0:
192,192,18656,1,0,2:0:0:0:
448,192,18656,128,0,18877:2:0:0:0:
320,192,18656,1,0,2:0:0:0:
64,192,18877,128,0,19099:2:0:0:0:
192,192,19025,1,0,2:0:0:0:
448,192,19025,1,0,2:0:0:0:
320,192,19099,128,0,19321:2:0:0:0:
192,192,19321,128,0,19542:2:0:0:0:
448,192,19542,128,0,19764:2:0:0:0:
64,192,19542,1,0,2:0:0:0:
320,192,19542,1,0,2:0:0:0:
64,192,19764,128,0,19986:2:0:0:0:
192,192,19912,1,0,2:0:0:0:
448,192,19912,1,0,2:0:0:0:
320,192,19986,128,0,20207:2:0:0:0:
192,192,20207,128,0,20429:2:0:0:0:
320,192,20429,128,0,20651:2:0:0:0:
64,192,20429,1,0,2:0:0:0:
448,192,20429,1,0,2:0:0:0:
448,192,20651,128,0,21205:2:0:0:0:
64,192,20799,1,0,2:0:0:0:
192,192,20799,1,0,2:0:0:0:
320,192,20872,128,0,21205:2:0:0:0:
64,192,21316,128,0,23089:2:0:0:0:
448,192,21316,1,0,2:0:0:0:
320,192,21316,1,0,2:0:0:0:
192,192,21685,1,0,2:0:0:0:
448,192,21685,1,0,2:0:0:0:
320,192,21759,1,0,2:0:0:0:
192,192,21981,1,0,2:0:0:0:
448,192,22203,1,0,2:0:0:0:
320,192,22203,1,0,2:0:0:0:
192,192,22350,1,0,2:0:0:0:
448,192,22424,1,0,2:0:0:0:
320,192,22572,1,0,2:0:0:0:
192,192,22572,1,0,2:0:0:0:
448,192,22646,1,0,2:0:0:0:
320,192,22868,1,0,2:0:0:0:
192,192,23089,128,0,23976:2:0:0:0:
448,192,23089,1,0,2:0:0:0:
320,192,23089,1,0,2:0:0:0:
64,192,23311,1,0,2:0:0:0:
448,192,23459,1,0,2:0:0:0:
320,192,23459,1,0,2:0:0:0:
64,192,23533,1,0,2:0:0:0:
320,192,23754,1,0,2:0:0:0:
320,192,23976,128,0,24863:2:0:0:0:
64,192,23976,1,0,2:0:0:0:
448,192,23976,1,0,2:0:0:0:
448,192,24198,1,0,2:0:0:0:
64,192,24345,128,0,24419:2:0:0:0:
192,192,24345,128,0,24419:2:0:0:0:
448,192,24419,1,0,2:0:0:0:
192,192,24641,1,0,2:0:0:0:
448,192,24863,128,0,28188:2:0:0:0:
192,192,24863,1,0,2:0:0:0:
64,192,24863,1,0,2:0:0:0:
320,192,25084,1,0,2:0:0:0:
192,192,25232,1,0,2:0:0:0:
64,192,25232,1,0,2:0:0:0:
320,192,25306,1,0,2:0:0:0:
320,192,25528,1,0,2:0:0:0:
64,192,25749,1,0,2:0:0:0:
320,192,25749,1,0,2:0:0:0:
192,192,25897,1,0,2:0:0:0:
64,192,25971,1,0,2:0:0:0:
192,192,26119,1,0,2:0:0:0:
320,192,26119,1,0,2:0:0:0:
64,192,26193,1,0,2:0:0:0:
64,192,26414,1,0,2:0:0:0:
320,192,26562,1,0,2:0:0:0:
192,192,26636,1,0,2:0:0:0:
64,192,26636,1,0,2:0:0:0:
320,192,26858,1,0,2:0:0:0:
64,192,27006,1,0,2:0:0:0:
192,192,27080,1,0,2:0:0:0:
320,192,27080,1,0,2:0:0:0:
64,192,27301,1,0,2:0:0:0:
192,192,27449,1,0,2:0:0:0:
64,192,27523,128,0,28188:2:0:0:0:
320,192,27523,1,0,2:0:0:0:
192,192,27671,1,0,2:0:0:0:
320,192,27745,1,0,2:0:0:0:
192,192,27892,1,0,2:0:0:0:
320,192,27966,128,0,28188:2:0:0:0:
192,192,28188,128,0,28410:2:0:0:0:
448,192,28410,1,0,2:0:0:0:
64,192,28410,128,0,28631:2:0:0:0:
320,192,28410,128,0,28631:2:0:0:0:
448,192,28631,128,0,28742:2:0:0:0:
64,192,28742,128,0,28853:2:0:0:0:
448,192,28853,128,0,28964:2:0:0:0:
320,192,28964,1,0,2:0:0:0:
192,192,29075,1,0,2:0:0:0:
64,192,29075,1,0,2:0:0:0:
448,192,29185,1,0,2:0:0:0:
320,192,29185,1,0,2:0:0:0:
192,192,29296,1,0,2:0:0:0:
192,192,29407,1,0,2:0:0:0:
64,192,29518,128,0,29740:2:0:0:0:
320,192,29518,128,0,29740:2:0:0:0:
192,192,29851,128,0,30072:2:0:0:0:
448,192,29851,128,0,30072:2:0:0:0:
64,192,30183,128,0,30405:2:0:0:0:
320,192,30183,128,0,30405:2:0:0:0:
448,192,30183,1,0,2:0:0:0:
448,192,30405,128,0,30516:2:0:0:0:
64,192,30516,128,0,30626:2:0:0:0:
448,192,30626,128,0,30737:2:0:0:0:
320,192,30737,1,0,2:0:0:0:
64,192,30848,1,0,2:0:0:0:
192,192,30848,1,0,2:0:0:0:
320,192,30959,1,0,2:0:0:0:
448,192,30959,1,0,2:0:0:0:
192,192,31070,1,0,2:0:0:0:
192,192,31181,1,0,2:0:0:0:
64,192,31291,128,0,31402:2:0:0:0:
320,192,31291,128,0,31402:2:0:0:0:
448,192,31513,128,0,31956:2:0:0:0:
192,192,31513,1,0,2:0:0:0:
64,192,31513,1,0,2:0:0:0:
64,192,31956,128,0,32178:2:0:0:0:
192,192,31956,1,0,2:0:0:0:
320,192,31956,128,0,32178:2:0:0:0:
448,192,32178,128,0,32289:2:0:0:0:
192,192,32289,128,0,32400:2:0:0:0:
448,192,32400,128,0,32511:2:0:0:0:
192,192,32511,1,0,2:0:0:0:
320,192,32622,1,0,2:0:0:0:
320,192,32732,1,0,2:0:0:0:
320,192,32843,1,0,2:0:0:0:
64,192,32843,1,0,2:0:0:0:
192,192,32954,1,0,2:0:0:0:
448,192,33065,128,0,33287:2:0:0:0:
64,192,33065,128,0,33287:2:0:0:0:
192,192,33397,128,0,33619:2:0:0:0:
320,192,33397,128,0,33619:2:0:0:0:
448,192,33730,1,0,2:0:0:0:
64,192,33730,128,0,33952:2:0:0:0:
320,192,33730,128,0,33952:2:0:0:0:
448,192,33952,128,0,34062:2:0:0:0:
64,192,34062,128,0,34173:2:0:0:0:
448,192,34173,128,0,34284:2:0:0:0:
320,192,34284,1,0,2:0:0:0:
192,192,34395,1,0,2:0:0:0:
64,192,34395,1,0,2:0:0:0:
320,192,34506,1,0,2:0:0:0:
448,192,34506,1,0,2:0:0:0:
192,192,34617,1,0,2:0:0:0:
192,192,34727,1,0,2:0:0:0:
64,192,34838,128,0,34949:2:0:0:0:
320,192,34838,128,0,34949:2:0:0:0:
448,192,35060,128,0,35503:2:0:0:0:
64,192,35060,1,0,2:0:0:0:
192,192,35060,1,0,2:0:0:0:
320,192,35503,128,0,35725:2:0:0:0:
192,192,35503,128,0,35725:2:0:0:0:
64,192,35503,1,0,2:0:0:0:
64,192,35725,128,0,35836:2:0:0:0:
448,192,35836,128,0,35947:2:0:0:0:
64,192,35947,128,0,36058:2:0:0:0:
192,192,36058,1,0,2:0:0:0:
320,192,36168,1,0,2:0:0:0:
448,192,36168,1,0,2:0:0:0:
64,192,36279,1,0,2:0:0:0:
192,192,36279,1,0,2:0:0:0:
320,192,36390,1,0,2:0:0:0:
320,192,36501,1,0,2:0:0:0:
192,192,36612,128,0,36833:2:0:0:0:
448,192,36612,128,0,36833:2:0:0:0:
320,192,36944,128,0,37166:2:0:0:0:
64,192,36944,128,0,37166:2:0:0:0:
192,192,37277,128,0,37498:2:0:0:0:
448,192,37277,128,0,37498:2:0:0:0:
64,192,37277,1,0,2:0:0:0:
64,192,37498,128,0,37609:2:0:0:0:
320,192,37609,128,0,37720:2:0:0:0:
64,192,37720,128,0,37831:2:0:0:0:
320,192,37831,1,0,2:0:0:0:
192,192,37942,1,0,2:0:0:0:
192,192,38053,1,0,2:0:0:0:
192,192,38164,1,0,2:0:0:0:
448,192,38164,1,0,2:0:0:0:
320,192,38274,1,0,2:0:0:0:
64,192,38385,128,0,38496:2:0:0:0:
448,192,38385,128,0,38496:2:0:0:0:
64,192,38607,128,0,39050:2:0:0:0:
320,192,38607,1,0,2:0:0:0:
448,192,38607,1,0,2:0:0:0:
192,192,39050,1,0,2:0:0:0:
320,192,39050,128,0,39272:2:0:0:0:
448,192,39050,128,0,39272:2:0:0:0:
64,192,39272,128,0,39383:2:0:0:0:
448,192,39383,128,0,39494:2:0:0:0:
64,192,39494,128,0,39604:2:0:0:0:
192,192,39604,1,0,2:0:0:0:
64,192,39715,1,0,2:0:0:0:
320,192,39715,1,0,2:0:0:0:
192,192,39826,1,0,2:0:0:0:
448,192,39826,1,0,2:0:0:0:
320,192,39937,1,0,2:0:0:0:
320,192,40048,1,0,2:0:0:0:
64,192,40159,128,0,40380:2:0:0:0:
192,192,40159,128,0,40380:2:0:0:0:
320,192,40491,128,0,40713:2:0:0:0:
448,192,40491,128,0,40713:2:0:0:0:
192,192,40824,128,0,41045:2:0:0:0:
64,192,40824,128,0,41045:2:0:0:0:
320,192,41156,128,0,41378:2:0:0:0:
448,192,41156,128,0,41378:2:0:0:0:
192,192,41489,128,0,41710:2:0:0:0:
64,192,41489,128,0,41710:2:0:0:0:
320,192,41821,128,0,42043:2:0:0:0:
448,192,41821,128,0,42043:2:0:0:0:
64,192,42154,128,0,42486:2:0:0:0:
192,192,42154,128,0,42486:2:0:0:0:
448,192,42154,128,0,42486:2:0:0:0:
448,192,42597,1,0,2:0:0:0:
320,192,42597,128,0,42819:2:0:0:0:
64,192,42597,128,0,42819:2:0:0:0:
448,192,42819,128,0,42930:2:0:0:0:
64,192,42930,128,0,43040:2:0:0:0:
448,192,43040,128,0,43151:2:0:0:0:
320,192,43151,1,0,2:0:0:0:
192,192,43262,1,0,2:0:0:0:
64,192,43262,1,0,2:0:0:0:
320,192,43373,1,0,2:0:0:0:
448,192,43373,1,0,2:0:0:0:
192,192,43484,1,0,2:0:0:0:
192,192,43595,1,0,2:0:0:0:
320,192,43706,128,0,43927:2:0:0:0:
64,192,43706,128,0,43927:2:0:0:0:
192,192,44038,128,0,44260:2:0:0:0:
448,192,44038,128,0,44260:2:0:0:0:
64,192,44371,128,0,44592:2:0:0:0:
448,192,44371,1,0,2:0:0:0:
320,192,44371,128,0,44592:2:0:0:0:
448,192,44592,128,0,44703:2:0:0:0:
64,192,44703,128,0,44814:2:0:0:0:
448,192,44814,128,0,44925:2:0:0:0:
320,192,44925,1,0,2:0:0:0:
64,192,45036,1,0,2:0:0:0:
192,192,45036,1,0,2:0:0:0:
448,192,45146,1,0,2:0:0:0:
320,192,45146,1,0,2:0:0:0:
192,192,45257,1,0,2:0:0:0:
192,192,45368,1,0,2:0:0:0:
64,192,45479,128,0,45590:2:0:0:0:
320,192,45479,128,0,45590:2:0:0:0:
192,192,45701,1,0,2:0:0:0:
64,192,45701,1,0,2:0:0:0:
448,192,45701,128,0,46144:2:0:0:0:
64,192,46144,128,0,46366:2:0:0:0:
192,192,46144,1,0,2:0:0:0:
320,192,46144,128,0,46366:2:0:0:0:
448,192,46366,128,0,46477:2:0:0:0:
192,192,46477,128,0,46587:2:0:0:0:
448,192,46587,128,0,46698:2:0:0:0:
192,192,46698,1,0,2:0:0:0:
320,192,46809,1,0,2:0:0:0:
320,192,46920,1,0,2:0:0:0:
320,192,47031,1,0,2:0:0:0:
64,192,47031,1,0,2:0:0:0:
192,192,47142,1,0,2:0:0:0:
448,192,47252,128,0,47474:2:0:0:0:
64,192,47252,128,0,47474:2:0:0:0:
192,192,47585,128,0,47807:2:0:0:0:
320,192,47585,128,0,47807:2:0:0:0:
64,192,47917,128,0,48139:2:0:0:0:
320,192,47917,128,0,48139:2:0:0:0:
448,192,47917,1,0,2:0:0:0:
448,192,48139,128,0,48250:2:0:0:0:
64,192,48250,128,0,48361:2:0:0:0:
448,192,48361,128,0,48472:2:0:0:0:
320,192,48472,1,0,2:0:0:0:
192,192,48582,1,0,2:0:0:0:
64,192,48582,1,0,2:0:0:0:
320,192,48693,1,0,2:0:0:0:
448,192,48693,1,0,2:0:0:0:
192,192,48804,1,0,2:0:0:0:
192,192,48915,1,0,2:0:0:0:
320,192,49026,128,0,49137:2:0:0:0:
64,192,49026,128,0,49137:2:0:0:0:
448,192,49248,128,0,49691:2:0:0:0:
192,192,49248,1,0,2:0:0:0:
64,192,49248,1,0,2:0:0:0:
64,192,49691,1,0,2:0:0:0:
192,192,49691,128,0,49913:2:0:0:0:
320,192,49691,128,0,49913:2:0:0:0:
64,192,49913,128,0,50023:2:0:0:0:
448,192,50023,128,0,50134:2:0:0:0:
64,192,50134,128,0,50245:2:0:0:0:
192,192,50245,1,0,2:0:0:0:
320,192,50356,1,0,2:0:0:0:
448,192,50356,1,0,2:0:0:0:
64,192,50467,1,0,2:0:0:0:
192,192,50467,1,0,2:0:0:0:
320,192,50578,1,0,2:0:0:0:
320,192,50688,1,0,2:0:0:0:
192,192,50799,128,0,51021:2:0:0:0:
448,192,50799,128,0,51021:2:0:0:0:
64,192,51132,128,0,51353:2:0:0:0:
320,192,51132,128,0,51353:2:0:0:0:
192,192,51464,128,0,51686:2:0:0:0:
448,192,51464,128,0,51686:2:0:0:0:
64,192,51464,1,0,2:0:0:0:
64,192,51686,128,0,51797:2:0:0:0:
320,192,51797,128,0,51908:2:0:0:0:
64,192,51908,128,0,52019:2:0:0:0:
320,192,52019,1,0,2:0:0:0:
192,192,52129,1,0,2:0:0:0:
192,192,52240,1,0,2:0:0:0:
192,192,52351,1,0,2:0:0:0:
448,192,52351,1,0,2:0:0:0:
320,192,52462,1,0,2:0:0:0:
448,192,52573,128,0,52684:2:0:0:0:
64,192,52573,128,0,52684:2:0:0:0:
320,192,52794,1,0,2:0:0:0:
64,192,52794,128,0,53238:2:0:0:0:
448,192,52794,1,0,2:0:0:0:
320,192,53238,128,0,53459:2:0:0:0:
448,192,53238,128,0,53459:2:0:0:0:
192,192,53238,1,0,2:0:0:0:
64,192,53459,128,0,53570:2:0:0:0:
448,192,53570,128,0,53681:2:0:0:0:
64,192,53681,128,0,53792:2:0:0:0:
192,192,53792,1,0,2:0:0:0:
64,192,53903,1,0,2:0:0:0:
320,192,53903,1,0,2:0:0:0:
192,192,54014,1,0,2:0:0:0:
448,192,54014,1,0,2:0:0:0:
320,192,54125,1,0,2:0:0:0:
320,192,54235,1,0,2:0:0:0:
192,192,54346,128,0,54568:2:0:0:0:
64,192,54346,128,0,54568:2:0:0:0:
448,192,54679,128,0,54900:2:0:0:0:
320,192,54679,128,0,54900:2:0:0:0:
64,192,55011,128,0,55233:2:0:0:0:
192,192,55011,128,0,55233:2:0:0:0:
320,192,55344,128,0,55565:2:0:0:0:
448,192,55344,128,0,55565:2:0:0:0:
192,192,55676,128,0,55898:2:0:0:0:
64,192,55676,128,0,55898:2:0:0:0:
320,192,56009,128,0,56230:2:0:0:0:
448,192,56009,128,0,56230:2:0:0:0:
448,192,56341,128,0,56674:2:0:0:0:
64,192,56341,128,0,56674:2:0:0:0:
192,192,56341,128,0,56674:2:0:0:0:
64,192,56785,128,0,57006:2:0:0:0:
320,192,56785,128,0,57006:2:0:0:0:
448,192,56785,128,0,57006:2:0:0:0:
192,192,57228,1,0,2:0:0:0:
320,192,57376,1,0,2:0:0:0:
64,192,57450,1,0,2:0:0:0:
448,192,57450,128,0,58115:2:0:0:0:
64,192,57597,1,0,2:0:0:0:
192,192,57671,1,0,2:0:0:0:
64,192,57893,1,0,2:0:0:0:
64,192,58041,1,0,2:0:0:0:
192,192,58115,1,0,2:0:0:0:
320,192,58263,1,0,2:0:0:0:
64,192,58336,1,0,2:0:0:0:
64,192,58484,1,0,2:0:0:0:
192,192,58558,1,0,2:0:0:0:
320,192,58780,1,0,2:0:0:0:
320,192,58928,1,0,2:0:0:0:
448,192,59001,1,0,2:0:0:0:
64,192,59149,1,0,2:0:0:0:
320,192,59223,1,0,2:0:0:0:
320,192,59371,1,0,2:0:0:0:
192,192,59445,1,0,2:0:0:0:
320,192,59667,1,0,2:0:0:0:
320,192,59814,1,0,2:0:0:0:
448,192,59888,128,0,60221:2:0:0:0:
192,192,59999,128,0,60332:2:0:0:0:
64,192,60110,128,0,60332:2:0:0:0:
320,192,60332,1,0,2:0:0:0:
448,192,60332,1,0,2:0:0:0:
192,192,60553,1,0,2:0:0:0:
192,192,60701,1,0,2:0:0:0:
64,192,60775,1,0,2:0:0:0:
448,192,60923,1,0,2:0:0:0:
192,192,60997,1,0,2:0:0:0:
192,192,61144,1,0,2:0:0:0:
320,192,61218,1,0,2:0:0:0:
192,192,61440,1,0,2:0:0:0:
192,192,61588,1,0,2:0:0:0:
64,192,61662,1,0,2:0:0:0:
448,192,61809,1,0,2:0:0:0:
192,192,61883,1,0,2:0:0:0:
192,192,62031,1,0,2:0:0:0:
448,192,62105,128,0,62253:2:0:0:0:
320,192,62327,1,0,2:0:0:0:
320,192,62474,1,0,2:0:0:0:
192,192,62548,128,0,62696:2:0:0:0:
64,192,62770,1,0,2:0:0:0:
64,192,62918,1,0,2:0:0:0:
448,192,62918,128,0,63878:2:0:0:0:
320,192,62918,128,0,63435:2:0:0:0:
192,192,63435,128,0,63878:2:0:0:0:
320,192,63878,1,0,2:0:0:0:
64,192,63878,128,0,65652:2:0:0:0:
320,192,64322,1,0,2:0:0:0:
320,192,64765,1,0,2:0:0:0:
320,192,65209,1,0,2:0:0:0:
192,192,65652,128,0,66539:2:0:0:0:
448,192,65652,1,0,2:0:0:0:
448,192,66095,1,0,2:0:0:0:
320,192,66539,128,0,67425:2:0:0:0:
64,192,66539,1,0,2:0:0:0:
64,192,66982,128,0,67204:2:0:0:0:
192,192,67093,128,0,67204:2:0:0:0:
448,192,67204,1,0,2:0:0:0:
192,192,67425,1,0,2:0:0:0:
64,192,67425,1,0,2:0:0:0:
448,192,67425,128,0,69199:2:0:0:0:
192,192,67869,128,0,68201:2:0:0:0:
320,192,68312,1,0,2:0:0:0:
64,192,68312,1,0,2:0:0:0:
192,192,68312,1,0,2:0:0:0:
320,192,68755,128,0,69088:2:0:0:0:
320,192,69199,1,0,2:0:0:0:
192,192,69199,1,0,2:0:0:0:
64,192,69199,128,0,69642:2:0:0:0:
192,192,69642,128,0,70085:2:0:0:0:
320,192,69642,1,0,2:0:0:0:
448,192,69642,1,0,2:0:0:0:
320,192,70085,128,0,70418:2:0:0:0:
448,192,70085,1,0,2:0:0:0:
64,192,70085,1,0,2:0:0:0:
192,192,70418,1,0,2:0:0:0:
64,192,70418,1,0,2:0:0:0:
448,192,70529,1,0,2:0:0:0:
320,192,70529,1,0,2:0:0:0:
192,192,70751,1,0,2:0:0:0:
320,192,70751,1,0,2:0:0:0:
64,192,70972,1,0,2:0:0:0:
448,192,70972,1,0,2:0:0:0:
320,192,70972,1,0,2:0:0:0:
320,192,71194,1,0,2:0:0:0:
192,192,71268,1,0,2:0:0:0:
320,192,71342,1,0,2:0:0:0:
448,192,71416,128,0,71637:2:0:0:0:
64,192,71416,1,0,2:0:0:0:
192,192,71637,1,0,2:0:0:0:
64,192,71748,128,0,71970:2:0:0:0:
320,192,71748,128,0,71970:2:0:0:0:
192,192,71970,128,0,72191:2:0:0:0:
448,192,71970,128,0,72191:2:0:0:0:
320,192,72191,1,0,2:0:0:0:
64,192,72191,1,0,2:0:0:0:
448,192,72302,128,0,72524:2:0:0:0:
192,192,72302,128,0,72524:2:0:0:0:
320,192,72524,128,0,72746:2:0:0:0:
448,192,72746,1,0,2:0:0:0:
192,192,72746,1,0,2:0:0:0:
64,192,72746,1,0,2:0:0:0:
64,192,72967,1,0,2:0:0:0:
192,192,72967,1,0,2:0:0:0:
192,192,73078,1,0,2:0:0:0:
64,192,73078,1,0,2:0:0:0:
320,192,73189,128,0,73411:2:0:0:0:
64,192,73328,128,0,73411:2:0:0:0:
448,192,73411,1,0,2:0:0:0:
448,192,73522,1,0,2:0:0:0:
192,192,73632,128,0,73854:2:0:0:0:
448,192,73771,128,0,73854:2:0:0:0:
320,192,73854,1,0,2:0:0:0:
320,192,74002,1,0,2:0:0:0:
64,192,74076,128,0,74519:2:0:0:0:
448,192,74297,128,0,74519:2:0:0:0:
320,192,74519,1,0,2:0:0:0:
192,192,74519,1,0,2:0:0:0:
320,192,74741,128,0,75184:2:0:0:0:
192,192,75184,1,0,2:0:0:0:
64,192,75184,1,0,2:0:0:0:
448,192,75184,1,0,2:0:0:0:
448,192,75406,1,0,2:0:0:0:
320,192,75406,1,0,2:0:0:0:
64,192,75406,1,0,2:0:0:0:
192,192,75627,1,0,2:0:0:0:
192,192,75738,1,0,2:0:0:0:
64,192,75849,128,0,76071:2:0:0:0:
448,192,75849,128,0,76071:2:0:0:0:
320,192,75849,128,0,76071:2:0:0:0:
192,192,76071,128,0,76293:2:0:0:0:
64,192,76293,1,0,2:0:0:0:
448,192,76293,1,0,2:0:0:0:
320,192,76366,1,0,2:0:0:0:
448,192,76431,1,0,2:0:0:0:
320,192,76514,1,0,2:0:0:0:
448,192,76588,1,0,2:0:0:0:
320,192,76653,1,0,2:0:0:0:
448,192,76736,1,0,2:0:0:0:
64,192,76736,128,0,76958:2:0:0:0:
192,192,76874,128,0,76958:2:0:0:0:
320,192,76958,1,0,2:0:0:0:
320,192,77105,1,0,2:0:0:0:
448,192,77179,128,0,77401:2:0:0:0:
320,192,77318,128,0,77401:2:0:0:0:
192,192,77401,1,0,2:0:0:0:
192,192,77549,1,0,2:0:0:0:
64,192,77623,1,0,2:0:0:0:
448,192,77623,1,0,2:0:0:0:
320,192,77844,1,0,2:0:0:0:
192,192,77844,1,0,2:0:0:0:
64,192,78066,1,0,2:0:0:0:
448,192,78066,1,0,2:0:0:0:
320,192,78066,1,0,2:0:0:0:
192,192,78288,1,0,2:0:0:0:
320,192,78362,1,0,2:0:0:0:
192,192,78435,1,0,2:0:0:0:
448,192,78509,1,0,2:0:0:0:
64,192,78509,128,0,78731:2:0:0:0:
192,192,78731,1,0,2:0:0:0:
448,192,78842,128,0,79064:2:0:0:0:
320,192,78842,128,0,79064:2:0:0:0:
192,192,79064,128,0,79285:2:0:0:0:
64,192,79064,128,0,79285:2:0:0:0:
320,192,79285,1,0,2:0:0:0:
448,192,79285,1,0,2:0:0:0:
64,192,79396,128,0,79618:2:0:0:0:
192,192,79396,128,0,79618:2:0:0:0:
320,192,79618,128,0,79839:2:0:0:0:
448,192,79839,1,0,2:0:0:0:
192,192,79839,1,0,2:0:0:0:
64,192,79839,1,0,2:0:0:0:
192,192,80061,1,0,2:0:0:0:
64,192,80061,1,0,2:0:0:0:
64,192,80172,1,0,2:0:0:0:
192,192,80172,1,0,2:0:0:0:
320,192,80283,128,0,80504:2:0:0:0:
448,192,80421,128,0,80504:2:0:0:0:
64,192,80504,1,0,2:0:0:0:
64,192,80652,1,0,2:0:0:0:
192,192,80726,128,0,80948:2:0:0:0:
64,192,80865,128,0,80948:2:0:0:0:
320,192,80948,1,0,2:0:0:0:
320,192,81096,1,0,2:0:0:0:
64,192,81170,128,0,81391:2:0:0:0:
448,192,81391,128,0,81613:2:0:0:0:
64,192,81613,128,0,81724:2:0:0:0:
192,192,81613,128,0,81724:2:0:0:0:
320,192,81613,128,0,81724:2:0:0:0:
320,192,81835,128,0,81945:2:0:0:0:
192,192,81835,128,0,81945:2:0:0:0:
64,192,81835,128,0,81945:2:0:0:0:
192,192,82056,128,0,82167:2:0:0:0:
320,192,82056,128,0,82167:2:0:0:0:
448,192,82056,128,0,82167:2:0:0:0:
448,192,82278,128,0,82389:2:0:0:0:
320,192,82278,128,0,82389:2:0:0:0:
192,192,82278,128,0,82389:2:0:0:0:
448,192,82500,128,0,82610:2:0:0:0:
320,192,82500,128,0,82610:2:0:0:0:
64,192,82500,128,0,82610:2:0:0:0:
64,192,82721,128,0,82832:2:0:0:0:
320,192,82721,128,0,82832:2:0:0:0:
448,192,82721,128,0,82832:2:0:0:0:
64,192,82943,128,0,83054:2:0:0:0:
192,192,82943,128,0,83054:2:0:0:0:
448,192,82943,128,0,83054:2:0:0:0:
448,192,83165,128,0,83275:2:0:0:0:
192,192,83165,128,0,83275:2:0:0:0:
64,192,83165,128,0,83275:2:0:0:0:
192,192,83386,128,0,83497:2:0:0:0:
320,192,83386,128,0,83497:2:0:0:0:
448,192,83386,128,0,83497:2:0:0:0:
448,192,83608,128,0,83719:2:0:0:0:
320,192,83608,128,0,83719:2:0:0:0:
192,192,83608,128,0,83719:2:0:0:0:
320,192,83830,128,0,83941:2:0:0:0:
192,192,83830,128,0,83941:2:0:0:0:
64,192,83830,128,0,83941:2:0:0:0:
64,192,84162,128,0,85049:2:0:0:0:
320,192,84162,128,0,84716:2:0:0:0:
448,192,84273,128,0,85049:2:0:0:0:
192,192,84716,128,0,85049:2:0:0:0:
64,192,85160,1,0,2:0:0:0:
448,192,85160,1,0,2:0:0:0:
320,192,85160,1,0,2:0:0:0:
448,192,85381,1,0,2:0:0:0:
320,192,85455,1,0,2:0:0:0:
448,192,85529,1,0,2:0:0:0:
192,192,85603,128,0,85825:2:0:0:0:
64,192,85603,1,0,2:0:0:0:
320,192,85825,1,0,2:0:0:0:
64,192,85936,128,0,86157:2:0:0:0:
448,192,85936,128,0,86157:2:0:0:0:
192,192,86157,128,0,86379:2:0:0:0:
320,192,86157,128,0,86379:2:0:0:0:
448,192,86379,1,0,2:0:0:0:
64,192,86379,1,0,2:0:0:0:
320,192,86490,128,0,86712:2:0:0:0:
192,192,86490,128,0,86712:2:0:0:0:
64,192,86712,128,0,86933:2:0:0:0:
448,192,86933,1,0,2:0:0:0:
192,192,86933,1,0,2:0:0:0:
320,192,86933,1,0,2:0:0:0:
320,192,87155,1,0,2:0:0:0:
448,192,87155,1,0,2:0:0:0:
448,192,87266,1,0,2:0:0:0:
320,192,87266,1,0,2:0:0:0:
64,192,87377,128,0,87598:2:0:0:0:
320,192,87515,128,0,87598:2:0:0:0:
448,192,87598,1,0,2:0:0:0:
448,192,87746,1,0,2:0:0:0:
192,192,87820,128,0,88042:2:0:0:0:
448,192,87958,128,0,88042:2:0:0:0:
64,192,88042,1,0,2:0:0:0:
64,192,88189,1,0,2:0:0:0:
448,192,88263,128,0,88707:2:0:0:0:
64,192,88485,128,0,88707:2:0:0:0:
320,192,88707,1,0,2:0:0:0:
192,192,88707,1,0,2:0:0:0:
192,192,88928,128,0,89372:2:0:0:0:
64,192,89372,1,0,2:0:0:0:
320,192,89372,1,0,2:0:0:0:
448,192,89372,1,0,2:0:0:0:
192,192,89593,1,0,2:0:0:0:
448,192,89593,1,0,2:0:0:0:
64,192,89593,1,0,2:0:0:0:
320,192,89815,1,0,2:0:0:0:
320,192,89926,1,0,2:0:0:0:
448,192,90037,128,0,90258:2:0:0:0:
64,192,90037,128,0,90258:2:0:0:0:
192,192,90037,128,0,90258:2:0:0:0:
320,192,90258,128,0,90480:2:0:0:0:
64,192,90480,1,0,2:0:0:0:
448,192,90480,1,0,2:0:0:0:
192,192,90554,1,0,2:0:0:0:
64,192,90628,1,0,2:0:0:0:
192,192,90702,1,0,2:0:0:0:
64,192,90776,1,0,2:0:0:0:
192,192,90850,1,0,2:0:0:0:
64,192,90923,1,0,2:0:0:0:
448,192,90923,128,0,91145:2:0:0:0:
192,192,91062,128,0,91145:2:0:0:0:
320,192,91145,1,0,2:0:0:0:
320,192,91284,1,0,2:0:0:0:
64,192,91367,128,0,91588:2:0:0:0:
320,192,91505,128,0,91588:2:0:0:0:
192,192,91588,1,0,2:0:0:0:
192,192,91727,1,0,2:0:0:0:
320,192,91810,1,0,2:0:0:0:
448,192,91810,1,0,2:0:0:0:
64,192,92032,1,0,2:0:0:0:
192,192,92032,1,0,2:0:0:0:
64,192,92254,1,0,2:0:0:0:
448,192,92254,1,0,2:0:0:0:
320,192,92254,1,0,2:0:0:0:
64,192,92475,1,0,2:0:0:0:
192,192,92549,1,0,2:0:0:0:
64,192,92614,1,0,2:0:0:0:
448,192,92697,1,0,2:0:0:0:
320,192,92697,128,0,92919:2:0:0:0:
64,192,92919,1,0,2:0:0:0:
448,192,93029,128,0,93251:2:0:0:0:
192,192,93029,128,0,93251:2:0:0:0:
320,192,93251,128,0,93473:2:0:0:0:
64,192,93251,128,0,93473:2:0:0:0:
192,192,93473,1,0,2:0:0:0:
448,192,93473,1,0,2:0:0:0:
64,192,93584,128,0,93805:2:0:0:0:
320,192,93584,128,0,93805:2:0:0:0:
192,192,93805,128,0,94027:2:0:0:0:
448,192,94027,1,0,2:0:0:0:
320,192,94027,1,0,2:0:0:0:
64,192,94027,1,0,2:0:0:0:
448,192,94249,1,0,2:0:0:0:
64,192,94249,1,0,2:0:0:0:
64,192,94359,1,0,2:0:0:0:
448,192,94359,1,0,2:0:0:0:
192,192,94470,128,0,94692:2:0:0:0:
320,192,94618,128,0,94692:2:0:0:0:
64,192,94692,1,0,2:0:0:0:
64,192,94840,1,0,2:0:0:0:
320,192,94914,128,0,95135:2:0:0:0:
192,192,95061,128,0,95135:2:0:0:0:
448,192,95135,1,0,2:0:0:0:
448,192,95283,1,0,2:0:0:0:
64,192,95357,128,0,95579:2:0:0:0:
448,192,95579,128,0,95800:2:0:0:0:
64,192,95800,128,0,95911:2:0:0:0:
192,192,95800,128,0,95911:2:0:0:0:
320,192,95800,128,0,95911:2:0:0:0:
448,192,96022,128,0,96133:2:0:0:0:
64,192,96133,128,0,96244:2:0:0:0:
320,192,96244,128,0,96576:2:0:0:0:
448,192,96244,128,0,96576:2:0:0:0:
64,192,96465,128,0,96576:2:0:0:0:
192,192,96576,128,0,96687:2:0:0:0:
64,192,96687,128,0,96909:2:0:0:0:
448,192,96687,128,0,96909:2:0:0:0:
192,192,97020,128,0,97130:2:0:0:0:
320,192,97020,128,0,97241:2:0:0:0:
64,192,97130,128,0,97241:2:0:0:0:
448,192,97352,128,0,97463:2:0:0:0:
320,192,97463,128,0,97574:2:0:0:0:
448,192,97574,128,0,97796:2:0:0:0:
64,192,97574,128,0,97796:2:0:0:0:
192,192,97796,128,0,97906:2:0:0:0:
320,192,97906,128,0,98017:2:0:0:0:
192,192,98017,128,0,98156:2:0:0:0:
64,192,98017,128,0,98156:2:0:0:0:
448,192,98017,128,0,98156:2:0:0:0:
64,192,98350,128,0,99236:2:0:0:0:
320,192,98350,128,0,98904:2:0:0:0:
448,192,98461,128,0,99236:2:0:0:0:
192,192,98904,128,0,99236:2:0:0:0:
64,192,99347,1,0,2:0:0:0:
320,192,99347,1,0,2:0:0:0:
448,192,99347,1,0,2:0:0:0:
320,192,99717,1,0,2:0:0:0:
448,192,99717,1,0,2:0:0:0:
64,192,99791,1,0,2:0:0:0:
192,192,100012,1,0,2:0:0:0:
448,192,100234,1,0,2:0:0:0:
320,192,100234,1,0,2:0:0:0:
64,192,100308,1,0,2:0:0:0:
192,192,100456,1,0,2:0:0:0:
448,192,100603,1,0,2:0:0:0:
320,192,100603,1,0,2:0:0:0:
64,192,100677,1,0,2:0:0:0:
64,192,101047,1,0,2:0:0:0:
192,192,101047,1,0,2:0:0:0:
448,192,101121,1,0,2:0:0:0:
64,192,101269,1,0,2:0:0:0:
320,192,101269,1,0,2:0:0:0:
448,192,101490,1,0,2:0:0:0:
192,192,101490,1,0,2:0:0:0:
64,192,101786,128,0,102007:2:0:0:0:
320,192,101786,1,0,2:0:0:0:
448,192,101786,1,0,2:0:0:0:
448,192,102007,1,0,2:0:0:0:
320,192,102007,1,0,2:0:0:0:
192,192,102229,128,0,102451:2:0:0:0:
448,192,102377,1,0,2:0:0:0:
64,192,102451,1,0,2:0:0:0:
320,192,102672,128,0,102783:2:0:0:0:
192,192,102672,1,0,2:0:0:0:
448,192,102783,128,0,102894:2:0:0:0:
64,192,102894,1,0,2:0:0:0:
320,192,102894,1,0,2:0:0:0:
192,192,102894,1,0,2:0:0:0:
64,192,103254,1,0,2:0:0:0:
192,192,103254,1,0,2:0:0:0:
448,192,103338,1,0,2:0:0:0:
320,192,103559,1,0,2:0:0:0:
64,192,103781,1,0,2:0:0:0:
192,192,103781,1,0,2:0:0:0:
448,192,103919,1,0,2:0:0:0:
320,192,104003,1,0,2:0:0:0:
64,192,104141,1,0,2:0:0:0:
192,192,104141,1,0,2:0:0:0:
448,192,104224,1,0,2:0:0:0:
448,192,104584,1,0,2:0:0:0:
192,192,104584,1,0,2:0:0:0:
320,192,104668,1,0,2:0:0:0:
192,192,104806,1,0,2:0:0:0:
64,192,104806,1,0,2:0:0:0:
448,192,105028,1,0,2:0:0:0:
320,192,105028,1,0,2:0:0:0:
192,192,105111,1,0,2:0:0:0:
64,192,105250,1,0,2:0:0:0:
448,192,105250,1,0,2:0:0:0:
320,192,105333,1,0,2:0:0:0:
64,192,105471,1,0,2:0:0:0:
192,192,105471,1,0,2:0:0:0:
320,192,105554,1,0,2:0:0:0:
448,192,105554,1,0,2:0:0:0:
192,192,105776,1,0,2:0:0:0:
448,192,105915,128,0,106275:2:0:0:0:
64,192,105915,1,0,2:0:0:0:
320,192,105998,128,0,106275:2:0:0:0:
192,192,105998,1,0,2:0:0:0:
192,192,106275,128,0,106441:2:0:0:0:
64,192,106441,1,0,2:0:0:0:
448,192,106441,1,0,2:0:0:0:
320,192,106441,1,0,2:0:0:0:
64,192,106811,1,0,2:0:0:0:
448,192,106811,1,0,2:0:0:0:
320,192,106884,1,0,2:0:0:0:
192,192,107106,1,0,2:0:0:0:
192,192,107328,1,0,2:0:0:0:
448,192,107328,1,0,2:0:0:0:
64,192,107476,1,0,2:0:0:0:
320,192,107549,1,0,2:0:0:0:
192,192,107697,1,0,2:0:0:0:
64,192,107697,1,0,2:0:0:0:
448,192,107771,1,0,2:0:0:0:
64,192,108141,1,0,2:0:0:0:
448,192,108141,1,0,2:0:0:0:
192,192,108215,1,0,2:0:0:0:
448,192,108362,1,0,2:0:0:0:
320,192,108362,1,0,2:0:0:0:
192,192,108584,1,0,2:0:0:0:
64,192,108584,1,0,2:0:0:0:
320,192,108658,1,0,2:0:0:0:
192,192,108796,1,0,2:0:0:0:
448,192,108796,1,0,2:0:0:0:
64,192,108880,1,0,2:0:0:0:
320,192,109018,1,0,2:0:0:0:
192,192,109018,1,0,2:0:0:0:
64,192,109101,1,0,2:0:0:0:
448,192,109101,1,0,2:0:0:0:
192,192,109323,1,0,2:0:0:0:
448,192,109461,1,0,2:0:0:0:
64,192,109545,128,0,109766:2:0:0:0:
320,192,109766,128,0,109988:2:0:0:0:
64,192,109988,1,0,2:0:0:0:
192,192,109988,1,0,2:0:0:0:
448,192,109988,1,0,2:0:0:0:
448,192,110357,1,0,2:0:0:0:
192,192,110357,1,0,2:0:0:0:
320,192,110431,1,0,2:0:0:0:
64,192,110653,128,0,110875:2:0:0:0:
448,192,110653,1,0,2:0:0:0:
192,192,110875,1,0,2:0:0:0:
320,192,110875,1,0,2:0:0:0:
448,192,111022,1,0,2:0:0:0:
64,192,111096,128,0,111318:2:0:0:0:
192,192,111096,1,0,2:0:0:0:
448,192,111244,1,0,2:0:0:0:
320,192,111244,1,0,2:0:0:0:
192,192,111318,1,0,2:0:0:0:
64,192,111540,128,0,111761:2:0:0:0:
448,192,111651,1,0,2:0:0:0:
192,192,111761,1,0,2:0:0:0:
64,192,111909,1,0,2:0:0:0:
320,192,111983,1,0,2:0:0:0:
448,192,112131,1,0,2:0:0:0:
192,192,112205,1,0,2:0:0:0:
64,192,112353,1,0,2:0:0:0:
320,192,112426,1,0,2:0:0:0:
448,192,112574,1,0,2:0:0:0:
192,192,112648,1,0,2:0:0:0:
64,192,112796,1,0,2:0:0:0:
320,192,112870,1,0,2:0:0:0:
192,192,113018,1,0,2:0:0:0:
448,192,113091,128,0,113313:2:0:0:0:
64,192,113313,128,0,113535:2:0:0:0:
320,192,113535,1,0,2:0:0:0:
448,192,113535,1,0,2:0:0:0:
192,192,113535,128,0,117082:2:0:0:0:
448,192,113895,1,0,2:0:0:0:
320,192,113895,1,0,2:0:0:0:
64,192,113978,1,0,2:0:0:0:
320,192,114200,1,0,2:0:0:0:
64,192,114422,1,0,2:0:0:0:
448,192,114422,1,0,2:0:0:0:
320,192,114569,1,0,2:0:0:0:
448,192,114643,1,0,2:0:0:0:
64,192,114791,1,0,2:0:0:0:
320,192,114791,1,0,2:0:0:0:
448,192,114865,1,0,2:0:0:0:
64,192,115087,1,0,2:0:0:0:
320,192,115234,1,0,2:0:0:0:
448,192,115234,1,0,2:0:0:0:
320,192,115456,1,0,2:0:0:0:
64,192,115456,1,0,2:0:0:0:
448,192,115678,1,0,2:0:0:0:
64,192,115678,1,0,2:0:0:0:
64,192,115899,1,0,2:0:0:0:
320,192,115899,1,0,2:0:0:0:
448,192,116121,1,0,2:0:0:0:
320,192,116121,1,0,2:0:0:0:
64,192,116417,1,0,2:0:0:0:
320,192,116564,1,0,2:0:0:0:
448,192,116638,128,0,116860:2:0:0:0:
320,192,116860,128,0,117082:2:0:0:0:
64,192,117082,128,0,117303:2:0:0:0:
448,192,117082,128,0,117303:2:0:0:0:
192,192,117303,128,0,117525:2:0:0:0:
320,192,117451,1,0,2:0:0:0:
448,192,117451,1,0,2:0:0:0:
64,192,117525,128,0,117968:2:0:0:0:
192,192,117968,1,0,2:0:0:0:
320,192,117968,1,0,2:0:0:0:
448,192,117968,128,0,118190:2:0:0:0:
64,192,118190,128,0,118412:2:0:0:0:
192,192,118338,1,0,2:0:0:0:
448,192,118338,1,0,2:0:0:0:
320,192,118412,128,0,118633:2:0:0:0:
192,192,118633,128,0,118855:2:0:0:0:
64,192,118855,1,0,2:0:0:0:
448,192,118855,128,0,119077:2:0:0:0:
320,192,118855,1,0,2:0:0:0:
64,192,119077,128,0,119299:2:0:0:0:
320,192,119299,128,0,119520:2:0:0:0:
448,192,119299,1,0,2:0:0:0:
192,192,119299,1,0,2:0:0:0:
192,192,119520,128,0,119742:2:0:0:0:
64,192,119742,1,0,2:0:0:0:
320,192,119742,128,0,119964:2:0:0:0:
448,192,119742,1,0,2:0:0:0:
448,192,119964,128,0,120518:2:0:0:0:
64,192,120111,1,0,2:0:0:0:
192,192,120111,1,0,2:0:0:0:
320,192,120185,128,0,120518:2:0:0:0:
64,192,120629,128,0,122402:2:0:0:0:
448,192,120629,1,0,2:0:0:0:
320,192,120629,1,0,2:0:0:0:
192,192,120998,1,0,2:0:0:0:
448,192,120998,1,0,2:0:0:0:
320,192,121072,1,0,2:0:0:0:
192,192,121294,1,0,2:0:0:0:
448,192,121515,1,0,2:0:0:0:
320,192,121515,1,0,2:0:0:0:
192,192,121663,1,0,2:0:0:0:
448,192,121737,1,0,2:0:0:0:
192,192,121885,1,0,2:0:0:0:
320,192,121885,1,0,2:0:0:0:
448,192,121959,1,0,2:0:0:0:
320,192,122180,1,0,2:0:0:0:
448,192,122402,1,0,2:0:0:0:
192,192,122402,128,0,123289:2:0:0:0:
320,192,122402,1,0,2:0:0:0:
64,192,122624,1,0,2:0:0:0:
320,192,122772,1,0,2:0:0:0:
448,192,122772,1,0,2:0:0:0:
64,192,122845,1,0,2:0:0:0:
320,192,123067,1,0,2:0:0:0:
448,192,123289,1,0,2:0:0:0:
320,192,123289,128,0,124175:2:0:0:0:
64,192,123289,1,0,2:0:0:0:
448,192,123510,1,0,2:0:0:0:
64,192,123649,1,0,2:0:0:0:
192,192,123649,1,0,2:0:0:0:
448,192,123732,1,0,2:0:0:0:
192,192,123954,1,0,2:0:0:0:
448,192,124175,128,0,126540:2:0:0:0:
64,192,124175,1,0,2:0:0:0:
192,192,124175,1,0,2:0:0:0:
320,192,124397,1,0,2:0:0:0:
64,192,124545,1,0,2:0:0:0:
192,192,124545,1,0,2:0:0:0:
320,192,124619,1,0,2:0:0:0:
320,192,124841,1,0,2:0:0:0:
64,192,125062,1,0,2:0:0:0:
320,192,125062,1,0,2:0:0:0:
192,192,125210,1,0,2:0:0:0:
64,192,125284,1,0,2:0:0:0:
192,192,125432,1,0,2:0:0:0:
320,192,125432,1,0,2:0:0:0:
64,192,125506,1,0,2:0:0:0:
64,192,125727,1,0,2:0:0:0:
320,192,125866,1,0,2:0:0:0:
192,192,125949,1,0,2:0:0:0:
64,192,125949,128,0,126097:2:0:0:0:
320,192,126097,1,0,2:0:0:0:
192,192,126171,1,0,2:0:0:0:
192,192,126318,1,0,2:0:0:0:
320,192,126392,128,0,126540:2:0:0:0:
64,192,126540,1,0,2:0:0:0:
192,192,126614,1,0,2:0:0:0:
192,192,126762,1,0,2:0:0:0:
64,192,126836,128,0,127722:2:0:0:0:
448,192,126836,128,0,126983:2:0:0:0:
320,192,126983,1,0,2:0:0:0:
192,192,127057,1,0,2:0:0:0:
448,192,127205,1,0,2:0:0:0:
320,192,127279,1,0,2:0:0:0:
192,192,127279,1,0,2:0:0:0:
192,192,127722,1,0,2:0:0:0:
320,192,127722,1,0,2:0:0:0:
448,192,127722,128,0,128166:2:0:0:0:
192,192,127944,128,0,128166:2:0:0:0:
64,192,128166,128,0,128609:2:0:0:0:
320,192,128166,1,0,2:0:0:0:
448,192,128277,1,0,2:0:0:0:
320,192,128498,1,0,2:0:0:0:
192,192,128609,1,0,2:0:0:0:
448,192,128609,128,0,129025:2:0:0:0:
192,192,128831,128,0,129025:2:0:0:0:
64,192,129025,128,0,129496:2:0:0:0:
320,192,129025,1,0,2:0:0:0:
448,192,129163,1,0,2:0:0:0:
320,192,129385,1,0,2:0:0:0:
448,192,129496,128,0,129939:2:0:0:0:
192,192,129496,1,0,2:0:0:0:
192,192,129717,128,0,129939:2:0:0:0:
320,192,129939,1,0,2:0:0:0:
64,192,129939,128,0,130383:2:0:0:0:
448,192,130050,1,0,2:0:0:0:
320,192,130272,1,0,2:0:0:0:
448,192,130383,1,0,2:0:0:0:
192,192,130383,128,0,131269:2:0:0:0:
64,192,130604,1,0,2:0:0:0:
448,192,130752,1,0,2:0:0:0:
320,192,130752,1,0,2:0:0:0:
64,192,130826,1,0,0:0:0:0:
448,192,131048,1,0,0:0:0:0:
448,192,131158,1,0,0:0:0:0:
320,192,131269,1,0,2:0:0:0:
64,192,131269,128,0,131713:2:0:0:0:
320,192,131491,128,0,131713:2:0:0:0:
448,192,131713,128,0,132156:2:0:0:0:
192,192,131713,1,0,2:0:0:0:
64,192,131823,1,0,2:0:0:0:
192,192,132045,1,0,2:0:0:0:
320,192,132156,1,0,2:0:0:0:
64,192,132156,128,0,132599:2:0:0:0:
320,192,132378,128,0,132599:2:0:0:0:
448,192,132599,128,0,133043:2:0:0:0:
192,192,132599,1,0,2:0:0:0:
64,192,132710,1,0,2:0:0:0:
192,192,132932,1,0,2:0:0:0:
64,192,133043,128,0,133486:2:0:0:0:
320,192,133043,1,0,2:0:0:0:
192,192,133264,1,0,2:0:0:0:
448,192,133486,128,0,133929:2:0:0:0:
320,192,133486,1,0,2:0:0:0:
64,192,133597,1,0,2:0:0:0:
192,192,133708,128,0,133819:2:0:0:0:
320,192,133819,1,0,2:0:0:0:
64,192,133929,128,0,134373:2:0:0:0:
320,192,134151,128,0,134373:2:0:0:0:
192,192,134373,128,0,134816:2:0:0:0:
448,192,134816,128,0,135260:2:0:0:0:
64,192,134816,1,0,2:0:0:0:
320,192,135038,128,0,135260:2:0:0:0:
192,192,135260,1,0,2:0:0:0:
64,192,135260,128,0,135703:2:0:0:0:
448,192,135370,1,0,2:0:0:0:
320,192,135592,1,0,2:0:0:0:
192,192,135703,1,0,2:0:0:0:
448,192,135703,128,0,136146:2:0:0:0:
320,192,135925,128,0,136146:2:0:0:0:
64,192,136146,128,0,136590:2:0:0:0:
192,192,136146,1,0,2:0:0:0:
448,192,136257,1,0,2:0:0:0:
320,192,136479,1,0,2:0:0:0:
448,192,136590,128,0,137033:2:0:0:0:
192,192,136590,1,0,2:0:0:0:
320,192,136811,128,0,137033:2:0:0:0:
64,192,137033,128,0,137476:2:0:0:0:
192,192,137033,1,0,2:0:0:0:
448,192,137144,1,0,2:0:0:0:
320,192,137365,1,0,2:0:0:0:
448,192,137476,128,0,138363:2:0:0:0:
192,192,137476,1,0,2:0:0:0:
320,192,137698,1,0,2:0:0:0:
64,192,137846,1,0,2:0:0:0:
192,192,137846,1,0,2:0:0:0:
320,192,137920,1,0,0:0:0:0:
320,192,138141,1,0,2:0:0:0:
320,192,138252,1,0,0:0:0:0:
64,192,138363,128,0,138806:2:0:0:0:
192,192,138363,128,0,138585:2:0:0:0:
320,192,138585,1,0,2:0:0:0:
192,192,138696,1,0,2:0:0:0:
448,192,138806,128,0,139250:2:0:0:0:
320,192,138806,128,0,139028:2:0:0:0:
64,192,139028,1,0,2:0:0:0:
192,192,139139,1,0,2:0:0:0:
64,192,139250,128,0,139693:2:0:0:0:
320,192,139250,128,0,139471:2:0:0:0:
448,192,139471,1,0,2:0:0:0:
320,192,139582,1,0,2:0:0:0:
448,192,139693,128,0,140136:2:0:0:0:
192,192,139693,128,0,139915:2:0:0:0:
320,192,139915,1,0,2:0:0:0:
64,192,140026,1,0,2:0:0:0:
192,192,140136,128,0,140580:2:0:0:0:
320,192,140136,128,0,140358:2:0:0:0:
448,192,140358,1,0,2:0:0:0:
320,192,140469,1,0,2:0:0:0:
448,192,140580,128,0,141023:2:0:0:0:
64,192,140580,128,0,140802:2:0:0:0:
192,192,140802,1,0,2:0:0:0:
64,192,140912,1,0,2:0:0:0:
192,192,141023,128,0,141245:2:0:0:0:
320,192,141023,128,0,141467:2:0:0:0:
64,192,141245,1,0,2:0:0:0:
192,192,141356,1,0,2:0:0:0:
448,192,141467,1,0,2:0:0:0:
192,192,141910,1,0,2:0:0:0:
448,192,141910,128,0,142353:2:0:0:0:
64,192,141910,1,0,2:0:0:0:
192,192,142132,128,0,142353:2:0:0:0:
64,192,142353,128,0,142797:2:0:0:0:
320,192,142353,1,0,2:0:0:0:
448,192,142464,1,0,2:0:0:0:
320,192,142686,1,0,2:0:0:0:
448,192,142797,128,0,143240:2:0:0:0:
192,192,142797,1,0,2:0:0:0:
192,192,143018,128,0,143240:2:0:0:0:
64,192,143240,128,0,143683:2:0:0:0:
320,192,143240,1,0,2:0:0:0:
448,192,143351,1,0,2:0:0:0:
320,192,143573,1,0,2:0:0:0:
192,192,143683,1,0,2:0:0:0:
448,192,143683,128,0,144127:2:0:0:0:
192,192,143905,128,0,144127:2:0:0:0:
320,192,144127,1,0,2:0:0:0:
64,192,144127,128,0,144570:2:0:0:0:
448,192,144238,1,0,2:0:0:0:
320,192,144459,1,0,2:0:0:0:
192,192,144570,128,0,145457:2:0:0:0:
448,192,144570,1,0,2:0:0:0:
64,192,144792,1,0,2:0:0:0:
320,192,144940,1,0,2:0:0:0:
448,192,144940,1,0,2:0:0:0:
64,192,145013,1,0,0:0:0:0:
448,192,145235,1,0,0:0:0:0:
448,192,145346,1,0,0:0:0:0:
64,192,145457,128,0,145900:2:0:0:0:
320,192,145457,1,0,2:0:0:0:
320,192,145678,128,0,145900:2:0:0:0:
192,192,145900,1,0,2:0:0:0:
448,192,145900,128,0,146344:2:0:0:0:
64,192,146011,1,0,2:0:0:0:
192,192,146233,1,0,2:0:0:0:
320,192,146344,1,0,2:0:0:0:
64,192,146344,128,0,146787:2:0:0:0:
320,192,146565,128,0,146787:2:0:0:0:
448,192,146787,128,0,147230:2:0:0:0:
192,192,146787,1,0,2:0:0:0:
64,192,146898,1,0,2:0:0:0:
192,192,147119,1,0,2:0:0:0:
64,192,147230,128,0,147674:2:0:0:0:
320,192,147230,1,0,2:0:0:0:
192,192,147480,1,0,2:0:0:0:
448,192,147674,128,0,148117:2:0:0:0:
320,192,147674,1,0,2:0:0:0:
64,192,147784,1,0,2:0:0:0:
320,192,148006,1,0,2:0:0:0:
64,192,148117,128,0,148560:2:0:0:0:
320,192,148339,128,0,148560:2:0:0:0:
192,192,148560,128,0,149004:2:0:0:0:
64,192,149004,1,0,2:0:0:0:
448,192,149004,128,0,149447:2:0:0:0:
320,192,149225,128,0,149447:2:0:0:0:
64,192,149447,128,0,149890:2:0:0:0:
192,192,149447,1,0,2:0:0:0:
448,192,149558,1,0,2:0:0:0:
320,192,149780,1,0,2:0:0:0:
448,192,149890,128,0,150334:2:0:0:0:
192,192,149890,1,0,2:0:0:0:
320,192,150112,128,0,150334:2:0:0:0:
64,192,150334,128,0,150777:2:0:0:0:
192,192,150334,1,0,2:0:0:0:
448,192,150445,1,0,2:0:0:0:
320,192,150666,1,0,2:0:0:0:
192,192,150777,1,0,2:0:0:0:
448,192,150777,128,0,151220:2:0:0:0:
320,192,150999,128,0,151220:2:0:0:0:
64,192,151220,128,0,151664:2:0:0:0:
192,192,151220,1,0,2:0:0:0:
448,192,151331,1,0,2:0:0:0:
320,192,151553,1,0,2:0:0:0:
448,192,151664,128,0,152551:2:0:0:0:
192,192,151664,1,0,2:0:0:0:
320,192,151886,1,0,2:0:0:0:
64,192,152033,1,0,2:0:0:0:
192,192,152033,1,0,2:0:0:0:
320,192,152107,1,0,0:0:0:0:
320,192,152329,1,0,2:0:0:0:
320,192,152440,1,0,0:0:0:0:
192,192,152551,128,0,152772:2:0:0:0:
64,192,152551,128,0,152994:2:0:0:0:
320,192,152772,1,0,2:0:0:0:
192,192,152883,1,0,2:0:0:0:
448,192,152994,128,0,153437:2:0:0:0:
320,192,152994,128,0,153216:2:0:0:0:
64,192,153216,1,0,2:0:0:0:
192,192,153326,1,0,2:0:0:0:
64,192,153437,128,0,153881:2:0:0:0:
320,192,153437,128,0,153659:2:0:0:0:
448,192,153659,1,0,2:0:0:0:
320,192,153770,1,0,2:0:0:0:
192,192,153881,128,0,154102:2:0:0:0:
448,192,153881,128,0,154324:2:0:0:0:
320,192,154102,1,0,2:0:0:0:
64,192,154213,1,0,2:0:0:0:
320,192,154324,128,0,154546:2:0:0:0:
192,192,154324,128,0,154767:2:0:0:0:
448,192,154546,1,0,2:0:0:0:
320,192,154657,1,0,2:0:0:0:
448,192,154767,128,0,155211:2:0:0:0:
64,192,154767,128,0,154989:2:0:0:0:
192,192,154989,1,0,2:0:0:0:
64,192,155100,1,0,2:0:0:0:
192,192,155211,128,0,155432:2:0:0:0:
320,192,155211,128,0,155654:2:0:0:0:
64,192,155432,1,0,2:0:0:0:
192,192,155543,1,0,2:0:0:0:
448,192,155654,128,0,155876:2:0:0:0:
64,192,155654,128,0,156097:2:0:0:0:
192,192,156097,1,0,2:0:0:0:
320,192,156097,1,0,2:0:0:0:
448,192,156097,1,0,2:0:0:0:
320,192,156245,1,0,2:0:0:0:
320,192,156393,1,0,2:0:0:0:
64,192,156541,1,0,2:0:0:0:
192,192,156541,1,0,2:0:0:0:
448,192,156541,1,0,2:0:0:0:
192,192,156689,1,0,2:0:0:0:
192,192,156836,1,0,2:0:0:0:
64,192,156984,1,0,2:0:0:0:
320,192,156984,1,0,2:0:0:0:
448,192,156984,1,0,2:0:0:0:
448,192,157132,1,0,2:0:0:0:
448,192,157280,1,0,2:0:0:0:
320,192,157428,1,0,2:0:0:0:
192,192,157428,1,0,2:0:0:0:
64,192,157428,1,0,2:0:0:0:
64,192,157575,1,0,2:0:0:0:
64,192,157723,1,0,2:0:0:0:
192,192,157871,1,0,2:0:0:0:
320,192,157871,1,0,2:0:0:0:
448,192,157871,1,0,2:0:0:0:
192,192,158019,1,0,2:0:0:0:
192,192,158166,1,0,2:0:0:0:
64,192,158314,1,0,2:0:0:0:
320,192,158314,1,0,2:0:0:0:
448,192,158314,1,0,2:0:0:0:
320,192,158462,1,0,2:0:0:0:
320,192,158610,1,0,2:0:0:0:
64,192,158758,128,0,158832:2:0:0:0:
192,192,158758,128,0,158832:2:0:0:0:
448,192,158758,1,0,2:0:0:0:
320,192,158905,128,0,158979:2:0:0:0:
448,192,158905,128,0,158979:2:0:0:0:
64,192,159053,128,0,159201:2:0:0:0:
448,192,159201,128,0,159644:2:0:0:0:
320,192,159644,1,0,2:0:0:0:
192,192,159644,1,0,2:0:0:0:
64,192,159644,1,0,2:0:0:0:
192,192,159792,1,0,2:0:0:0:
192,192,159940,1,0,2:0:0:0:
320,192,160088,1,0,2:0:0:0:
448,192,160088,1,0,2:0:0:0:
64,192,160088,1,0,2:0:0:0:
320,192,160235,1,0,2:0:0:0:
320,192,160383,1,0,2:0:0:0:
64,192,160531,1,0,2:0:0:0:
192,192,160531,1,0,2:0:0:0:
448,192,160531,1,0,2:0:0:0:
64,192,160679,1,0,2:0:0:0:
64,192,160827,1,0,2:0:0:0:
448,192,160974,1,0,2:0:0:0:
320,192,160974,1,0,2:0:0:0:
192,192,160974,1,0,2:0:0:0:
448,192,161122,1,0,2:0:0:0:
448,192,161270,1,0,2:0:0:0:
320,192,161418,1,0,2:0:0:0:
64,192,161418,1,0,2:0:0:0:
192,192,161418,1,0,2:0:0:0:
320,192,161566,1,0,2:0:0:0:
320,192,161713,1,0,2:0:0:0:
64,192,161861,1,0,2:0:0:0:
448,192,161861,1,0,2:0:0:0:
192,192,161861,1,0,2:0:0:0:
192,192,162009,1,0,2:0:0:0:
192,192,162157,1,0,2:0:0:0:
64,192,162305,1,0,2:0:0:0:
448,192,162305,1,0,2:0:0:0:
320,192,162305,1,0,2:0:0:0:
64,192,163191,1,0,2:0:0:0:
192,192,163191,1,0,2:0:0:0:
448,192,163191,1,0,2:0:0:0:
448,192,163339,1,0,2:0:0:0:
448,192,163487,1,0,2:0:0:0:
64,192,163635,1,0,2:0:0:0:
192,192,163635,1,0,2:0:0:0:
320,192,163635,1,0,2:0:0:0:
64,192,163782,1,0,2:0:0:0:
64,192,163930,1,0,2:0:0:0:
192,192,164078,1,0,2:0:0:0:
320,192,164078,1,0,2:0:0:0:
448,192,164078,1,0,2:0:0:0:
320,192,164226,1,0,2:0:0:0:
320,192,164374,1,0,2:0:0:0:
64,192,164521,1,0,2:0:0:0:
192,192,164521,1,0,2:0:0:0:
448,192,164521,1,0,2:0:0:0:
192,192,164669,1,0,2:0:0:0:
192,192,164817,1,0,2:0:0:0:
448,192,164965,1,0,2:0:0:0:
320,192,164965,1,0,2:0:0:0:
64,192,164965,1,0,2:0:0:0:
64,192,165112,1,0,2:0:0:0:
64,192,165260,1,0,2:0:0:0:
448,192,165408,1,0,2:0:0:0:
320,192,165408,1,0,2:0:0:0:
192,192,165408,1,0,2:0:0:0:
448,192,165556,1,0,2:0:0:0:
448,192,165704,1,0,2:0:0:0:
192,192,165851,128,0,165925:2:0:0:0:
64,192,165851,128,0,165925:2:0:0:0:
320,192,165999,128,0,166073:2:0:0:0:
448,192,165999,128,0,166073:2:0:0:0:
192,192,166147,128,0,166295:2:0:0:0:
320,192,166295,128,0,166738:2:0:0:0:
64,192,166738,1,0,2:0:0:0:
192,192,166738,1,0,2:0:0:0:
448,192,166738,1,0,2:0:0:0:
64,192,166886,1,0,2:0:0:0:
64,192,167034,1,0,2:0:0:0:
448,192,167181,1,0,2:0:0:0:
320,192,167181,1,0,2:0:0:0:
192,192,167181,1,0,2:0:0:0:
448,192,167329,1,0,2:0:0:0:
448,192,167477,1,0,2:0:0:0:
320,192,167625,1,0,2:0:0:0:
64,192,167625,1,0,2:0:0:0:
192,192,167625,1,0,2:0:0:0:
192,192,167773,1,0,2:0:0:0:
192,192,167920,1,0,2:0:0:0:
448,192,168068,1,0,2:0:0:0:
64,192,168068,1,0,2:0:0:0:
320,192,168068,1,0,2:0:0:0:
320,192,168216,1,0,2:0:0:0:
320,192,168364,1,0,2:0:0:0:
192,192,168512,1,0,2:0:0:0:
64,192,168512,1,0,2:0:0:0:
448,192,168512,1,0,2:0:0:0:
448,192,168659,1,0,2:0:0:0:
448,192,168807,1,0,2:0:0:0:
64,192,168955,1,0,2:0:0:0:
192,192,168955,1,0,2:0:0:0:
320,192,168955,1,0,2:0:0:0:
64,192,169103,1,0,2:0:0:0:
64,192,169250,1,0,2:0:0:0:
320,192,169398,128,0,169546:2:0:0:0:
448,192,169546,128,0,169620:2:0:0:0:
320,192,169620,128,0,169694:2:0:0:0:
192,192,169694,128,0,169768:2:0:0:0:
64,192,169768,128,0,169842:2:0:0:0:
448,192,169842,128,0,169916:2:0:0:0:
320,192,169916,128,0,169989:2:0:0:0:
192,192,169989,128,0,170137:2:0:0:0:
64,192,170137,128,0,170285:2:0:0:0:
192,192,170285,1,0,2:0:0:0:
448,192,170285,128,0,170581:2:0:0:0:
320,192,170433,128,0,170728:2:0:0:0:
192,192,170581,128,0,170728:2:0:0:0:
64,192,170728,1,0,2:0:0:0:
448,192,170728,1,0,2:0:0:0:
192,192,170876,1,0,2:0:0:0:
192,192,171024,1,0,2:0:0:0:
64,192,171172,128,0,171467:2:0:0:0:
320,192,171172,1,0,2:0:0:0:
448,192,171320,128,0,171615:2:0:0:0:
192,192,171467,1,0,2:0:0:0:
64,192,171615,1,0,2:0:0:0:
320,192,171615,1,0,2:0:0:0:
320,192,171763,1,0,2:0:0:0:
320,192,171911,1,0,2:0:0:0:
448,192,172058,1,0,2:0:0:0:
64,192,172058,128,0,172354:2:0:0:0:
192,192,172206,128,0,172502:2:0:0:0:
320,192,172354,128,0,172502:2:0:0:0:
448,192,172502,1,0,2:0:0:0:
64,192,172502,1,0,2:0:0:0:
320,192,172650,1,0,2:0:0:0:
320,192,172797,1,0,2:0:0:0:
448,192,172945,128,0,173093:2:0:0:0:
64,192,172945,128,0,173093:2:0:0:0:
320,192,173093,1,0,2:0:0:0:
192,192,173241,1,0,2:0:0:0:
320,192,173389,128,0,173462:2:0:0:0:
320,192,173536,128,0,173610:2:0:0:0:
320,192,173684,128,0,173758:2:0:0:0:
192,192,173832,1,0,2:0:0:0:
448,192,173832,128,0,174127:2:0:0:0:
320,192,173980,128,0,174275:2:0:0:0:
192,192,174127,128,0,174275:2:0:0:0:
64,192,174275,1,0,2:0:0:0:
448,192,174275,1,0,2:0:0:0:
192,192,174423,1,0,2:0:0:0:
192,192,174571,1,0,2:0:0:0:
64,192,174719,128,0,175014:2:0:0:0:
320,192,174719,1,0,2:0:0:0:
448,192,174866,128,0,175162:2:0:0:0:
192,192,175014,1,0,2:0:0:0:
320,192,175162,1,0,2:0:0:0:
64,192,175162,1,0,2:0:0:0:
320,192,175310,1,0,2:0:0:0:
320,192,175458,1,0,2:0:0:0:
64,192,175605,128,0,175910:2:0:0:0:
448,192,175605,1,0,2:0:0:0:
192,192,175753,128,0,176049:2:0:0:0:
320,192,175901,128,0,176049:2:0:0:0:
64,192,176049,1,0,2:0:0:0:
448,192,176049,1,0,2:0:0:0:
320,192,176196,1,0,2:0:0:0:
320,192,176344,1,0,2:0:0:0:
64,192,176492,128,0,176640:2:0:0:0:
448,192,176492,128,0,176640:2:0:0:0:
192,192,176640,1,0,2:0:0:0:
320,192,176788,128,0,177379:2:0:0:0:
192,192,176935,128,0,177379:2:0:0:0:
448,192,177379,1,0,2:0:0:0:
64,192,177379,128,0,177656:2:0:0:0:
192,192,177527,128,0,177822:2:0:0:0:
320,192,177674,128,0,177822:2:0:0:0:
64,192,177822,1,0,2:0:0:0:
448,192,177822,1,0,2:0:0:0:
320,192,177970,1,0,2:0:0:0:
320,192,178118,1,0,2:0:0:0:
448,192,178265,128,0,178561:2:0:0:0:
192,192,178265,1,0,2:0:0:0:
64,192,178404,128,0,178709:2:0:0:0:
320,192,178561,1,0,2:0:0:0:
192,192,178709,1,0,2:0:0:0:
448,192,178709,1,0,2:0:0:0:
192,192,178857,1,0,2:0:0:0:
192,192,179004,1,0,2:0:0:0:
448,192,179152,128,0,179448:2:0:0:0:
64,192,179152,1,0,2:0:0:0:
320,192,179300,128,0,179596:2:0:0:0:
192,192,179448,128,0,179596:2:0:0:0:
64,192,179596,1,0,2:0:0:0:
448,192,179596,1,0,2:0:0:0:
192,192,179743,1,0,2:0:0:0:
192,192,179891,1,0,2:0:0:0:
448,192,180039,128,0,180187:2:0:0:0:
64,192,180039,128,0,180187:2:0:0:0:
320,192,180187,1,0,2:0:0:0:
192,192,180335,1,0,2:0:0:0:
320,192,180482,128,0,180556:2:0:0:0:
320,192,180630,128,0,180704:2:0:0:0:
320,192,180778,128,0,180852:2:0:0:0:
448,192,180926,1,0,2:0:0:0:
64,192,180926,128,0,181221:2:0:0:0:
192,192,181073,128,0,181369:2:0:0:0:
320,192,181221,128,0,181369:2:0:0:0:
448,192,181369,1,0,2:0:0:0:
64,192,181369,1,0,2:0:0:0:
320,192,181517,1,0,2:0:0:0:
320,192,181665,1,0,2:0:0:0:
448,192,181812,128,0,182108:2:0:0:0:
192,192,181812,1,0,2:0:0:0:
64,192,181960,128,0,182256:2:0:0:0:
320,192,182108,1,0,2:0:0:0:
448,192,182256,1,0,2:0:0:0:
192,192,182256,1,0,2:0:0:0:
192,192,182404,1,0,2:0:0:0:
192,192,182551,1,0,2:0:0:0:
64,192,182699,1,0,2:0:0:0:
448,192,182699,128,0,182995:2:0:0:0:
320,192,182847,128,0,183142:2:0:0:0:
192,192,182995,128,0,183142:2:0:0:0:
64,192,183142,1,0,2:0:0:0:
448,192,183142,1,0,2:0:0:0:
192,192,183290,1,0,2:0:0:0:
192,192,183438,1,0,2:0:0:0:
64,192,183586,128,0,183734:2:0:0:0:
448,192,183586,128,0,183734:2:0:0:0:
320,192,183734,1,0,2:0:0:0:
320,192,183881,1,0,2:0:0:0:
320,192,184029,1,0,2:0:0:0:
320,192,184177,1,0,2:0:0:0:
320,192,184325,1,0,2:0:0:0:
64,192,184473,128,0,191566:2:0:0:0:
192,192,184473,1,0,2:0:0:0:
448,192,184473,1,0,2:0:0:0:
320,192,184694,1,0,2:0:0:0:
192,192,184842,1,0,2:0:0:0:
320,192,184916,1,0,2:0:0:0:
448,192,184916,1,0,2:0:0:0:
192,192,185138,1,0,2:0:0:0:
448,192,185285,1,0,2:0:0:0:
320,192,185359,1,0,2:0:0:0:
192,192,185359,1,0,2:0:0:0:
448,192,185581,1,0,2:0:0:0:
192,192,185729,1,0,2:0:0:0:
320,192,185803,1,0,2:0:0:0:
448,192,185803,1,0,2:0:0:0:
192,192,186246,1,0,2:0:0:0:
448,192,186246,1,0,2:0:0:0:
448,192,186468,1,0,2:0:0:0:
192,192,186468,1,0,2:0:0:0:
320,192,186689,1,0,2:0:0:0:
192,192,186689,1,0,2:0:0:0:
192,192,186911,1,0,2:0:0:0:
320,192,187059,1,0,2:0:0:0:
448,192,187059,1,0,2:0:0:0:
192,192,187133,1,0,0:0:0:0:
320,192,187502,1,0,2:0:0:0:
192,192,187576,1,0,2:0:0:0:
448,192,187576,1,0,2:0:0:0:
448,192,187798,1,0,2:0:0:0:
320,192,187798,1,0,2:0:0:0:
192,192,187946,1,0,2:0:0:0:
448,192,188019,128,0,191566:2:0:0:0:
320,192,188019,1,0,2:0:0:0:
192,192,188389,1,0,2:0:0:0:
192,192,188463,1,0,2:0:0:0:
320,192,188463,1,0,2:0:0:0:
192,192,188684,1,0,2:0:0:0:
320,192,188832,1,0,2:0:0:0:
192,192,188906,1,0,2:0:0:0:
320,192,189128,1,0,2:0:0:0:
192,192,189202,1,0,2:0:0:0:
320,192,189350,1,0,2:0:0:0:
192,192,189719,1,0,2:0:0:0:
192,192,189793,1,0,2:0:0:0:
320,192,189793,1,0,2:0:0:0:
192,192,190015,1,0,2:0:0:0:
320,192,190015,1,0,2:0:0:0:
320,192,190236,1,0,2:0:0:0:
192,192,190606,1,0,2:0:0:0:
320,192,190680,1,0,2:0:0:0:
192,192,191049,1,0,2:0:0:0:
192,192,191123,1,0,2:0:0:0:
320,192,191123,1,0,2:0:0:0:
320,192,191492,1,0,2:0:0:0:
320,192,191566,1,0,2:0:0:0:
192,192,191566,128,0,193340:2:0:0:0:
448,192,191936,1,0,2:0:0:0:
320,192,192010,1,0,2:0:0:0:
64,192,192010,1,0,2:0:0:0:
320,192,192379,1,0,2:0:0:0:
448,192,192379,1,0,2:0:0:0:
64,192,192453,1,0,2:0:0:0:
64,192,192822,1,0,2:0:0:0:
320,192,192896,1,0,2:0:0:0:
448,192,192896,1,0,2:0:0:0:
448,192,193266,1,0,2:0:0:0:
320,192,193340,128,0,194226:2:0:0:0:
64,192,193340,1,0,2:0:0:0:
64,192,193561,1,0,2:0:0:0:
192,192,193561,1,0,2:0:0:0:
448,192,193783,1,0,2:0:0:0:
64,192,193783,1,0,2:0:0:0:
192,192,194153,1,0,2:0:0:0:
448,192,194226,128,0,195113:2:0:0:0:
64,192,194226,1,0,2:0:0:0:
192,192,194448,1,0,2:0:0:0:
64,192,194596,1,0,2:0:0:0:
192,192,194670,1,0,2:0:0:0:
320,192,194670,1,0,2:0:0:0:
64,192,194892,1,0,2:0:0:0:
192,192,195039,1,0,2:0:0:0:
64,192,195113,128,0,197773:2:0:0:0:
320,192,195113,1,0,2:0:0:0:
320,192,195335,1,0,2:0:0:0:
448,192,195557,1,0,2:0:0:0:
192,192,195557,1,0,2:0:0:0:
320,192,195778,1,0,2:0:0:0:
192,192,195926,1,0,2:0:0:0:
448,192,195926,1,0,2:0:0:0:
320,192,196000,1,0,2:0:0:0:
448,192,196222,1,0,2:0:0:0:
192,192,196369,1,0,2:0:0:0:
320,192,196443,1,0,2:0:0:0:
448,192,196443,1,0,2:0:0:0:
192,192,196665,1,0,2:0:0:0:
448,192,196813,1,0,2:0:0:0:
192,192,196887,1,0,2:0:0:0:
320,192,196887,1,0,2:0:0:0:
320,192,197108,1,0,2:0:0:0:
192,192,197108,1,0,2:0:0:0:
320,192,197330,1,0,2:0:0:0:
448,192,197330,1,0,2:0:0:0:
448,192,197552,1,0,2:0:0:0:
320,192,197552,1,0,2:0:0:0:
448,192,197773,128,0,198660:2:0:0:0:
192,192,197773,1,0,2:0:0:0:
320,192,197921,1,0,2:0:0:0:
64,192,197995,1,0,2:0:0:0:
64,192,198143,1,0,2:0:0:0:
192,192,198217,1,0,2:0:0:0:
320,192,198365,1,0,2:0:0:0:
64,192,198438,1,0,2:0:0:0:
64,192,198660,1,0,2:0:0:0:
192,192,198660,1,0,2:0:0:0:
320,192,198660,1,0,2:0:0:0:
192,192,198882,1,0,2:0:0:0:
448,192,198882,1,0,2:0:0:0:
448,192,198993,1,0,2:0:0:0:
64,192,198993,1,0,2:0:0:0:
192,192,199103,1,0,2:0:0:0:
320,192,199103,1,0,2:0:0:0:
192,192,199214,1,0,2:0:0:0:
64,192,199325,1,0,2:0:0:0:
320,192,199325,1,0,2:0:0:0:
448,192,199325,1,0,2:0:0:0:
64,192,199547,1,0,2:0:0:0:
192,192,199547,1,0,2:0:0:0:
448,192,199547,1,0,2:0:0:0:
448,192,199768,1,0,2:0:0:0:
320,192,199768,1,0,2:0:0:0:
192,192,199879,1,0,2:0:0:0:
64,192,199879,1,0,2:0:0:0:
320,192,199990,1,0,2:0:0:0:
320,192,200101,1,0,2:0:0:0:
192,192,200212,1,0,2:0:0:0:
64,192,200212,1,0,2:0:0:0:
448,192,200212,1,0,2:0:0:0:
64,192,200434,1,0,2:0:0:0:
320,192,200434,1,0,2:0:0:0:
448,192,200434,1,0,2:0:0:0:
192,192,200655,1,0,2:0:0:0:
320,192,200729,1,0,2:0:0:0:
192,192,200794,1,0,2:0:0:0:
448,192,200877,128,0,201099:2:0:0:0:
320,192,201099,1,0,2:0:0:0:
192,192,201099,1,0,2:0:0:0:
64,192,201099,1,0,2:0:0:0:
192,192,201320,1,0,2:0:0:0:
320,192,201320,1,0,2:0:0:0:
448,192,201320,1,0,2:0:0:0:
448,192,201542,1,0,2:0:0:0:
320,192,201542,1,0,2:0:0:0:
192,192,201653,1,0,2:0:0:0:
64,192,201653,1,0,2:0:0:0:
448,192,201764,1,0,2:0:0:0:
320,192,201764,1,0,2:0:0:0:
64,192,201764,1,0,2:0:0:0:
192,192,201985,128,0,202207:2:0:0:0:
64,192,202207,1,0,2:0:0:0:
320,192,202207,1,0,2:0:0:0:
448,192,202207,1,0,2:0:0:0:
64,192,202429,1,0,2:0:0:0:
320,192,202429,1,0,0:0:0:0:
64,192,202539,1,0,2:0:0:0:
448,192,202539,1,0,0:0:0:0:
320,192,202650,1,0,2:0:0:0:
192,192,202650,1,0,2:0:0:0:
192,192,202761,1,0,2:0:0:0:
64,192,202872,1,0,2:0:0:0:
320,192,202872,1,0,2:0:0:0:
448,192,202872,1,0,2:0:0:0:
448,192,203094,1,0,2:0:0:0:
192,192,203094,1,0,2:0:0:0:
64,192,203094,1,0,2:0:0:0:
320,192,203315,1,0,2:0:0:0:
320,192,203426,1,0,2:0:0:0:
320,192,203537,1,0,2:0:0:0:
320,192,203648,1,0,2:0:0:0:
192,192,203759,1,0,2:0:0:0:
64,192,203759,1,0,2:0:0:0:
448,192,203759,1,0,2:0:0:0:
192,192,203980,1,0,2:0:0:0:
320,192,203980,1,0,2:0:0:0:
448,192,203980,1,0,2:0:0:0:
64,192,204202,1,0,2:0:0:0:
448,192,204202,1,0,2:0:0:0:
320,192,204313,1,0,2:0:0:0:
192,192,204313,1,0,2:0:0:0:
64,192,204424,1,0,2:0:0:0:
320,192,204424,1,0,2:0:0:0:
192,192,204645,1,0,2:0:0:0:
448,192,204645,1,0,2:0:0:0:
64,192,204867,1,0,2:0:0:0:
320,192,204867,1,0,2:0:0:0:
448,192,204867,1,0,2:0:0:0:
64,192,204978,1,0,2:0:0:0:
192,192,204978,1,0,2:0:0:0:
448,192,205089,1,0,2:0:0:0:
64,192,205200,1,0,2:0:0:0:
192,192,205200,1,0,2:0:0:0:
448,192,205310,128,0,205754:2:0:0:0:
320,192,205310,1,0,2:0:0:0:
192,192,205754,1,0,2:0:0:0:
64,192,205754,1,0,2:0:0:0:
320,192,205754,1,0,2:0:0:0:
64,192,205976,1,0,2:0:0:0:
448,192,205976,1,0,0:0:0:0:
64,192,206086,1,0,2:0:0:0:
320,192,206086,1,0,0:0:0:0:
192,192,206197,1,0,2:0:0:0:
320,192,206197,1,0,0:0:0:0:
192,192,206308,1,0,0:0:0:0:
448,192,206419,1,0,2:0:0:0:
64,192,206419,1,0,2:0:0:0:
320,192,206419,1,0,0:0:0:0:
192,192,206641,1,0,2:0:0:0:
448,192,206641,1,0,2:0:0:0:
64,192,206641,1,0,2:0:0:0:
64,192,206862,1,0,2:0:0:0:
192,192,206862,1,0,2:0:0:0:
320,192,206973,1,0,2:0:0:0:
448,192,206973,1,0,2:0:0:0:
192,192,207084,1,0,2:0:0:0:
320,192,207195,1,0,2:0:0:0:
448,192,207306,1,0,2:0:0:0:
64,192,207306,1,0,2:0:0:0:
192,192,207306,1,0,2:0:0:0:
64,192,207527,1,0,2:0:0:0:
192,192,207527,1,0,2:0:0:0:
448,192,207527,1,0,2:0:0:0:
320,192,207749,1,0,2:0:0:0:
192,192,207823,1,0,2:0:0:0:
320,192,207897,1,0,2:0:0:0:
64,192,207971,128,0,208192:2:0:0:0:
192,192,208192,1,0,2:0:0:0:
320,192,208192,1,0,2:0:0:0:
448,192,208192,1,0,2:0:0:0:
192,192,208414,1,0,2:0:0:0:
64,192,208414,1,0,2:0:0:0:
320,192,208414,1,0,2:0:0:0:
320,192,208636,128,0,208857:2:0:0:0:
64,192,208857,1,0,2:0:0:0:
448,192,208857,1,0,2:0:0:0:
192,192,208857,1,0,2:0:0:0:
192,192,209079,128,0,209301:2:0:0:0:
448,192,209301,1,0,2:0:0:0:
320,192,209301,1,0,2:0:0:0:
64,192,209301,1,0,2:0:0:0:
448,192,209522,1,0,2:0:0:0:
64,192,209522,1,0,0:0:0:0:
64,192,209633,1,0,2:0:0:0:
320,192,209633,1,0,0:0:0:0:
320,192,209744,1,0,2:0:0:0:
192,192,209744,1,0,2:0:0:0:
192,192,209855,1,0,0:0:0:0:
64,192,209966,1,0,2:0:0:0:
448,192,209966,1,0,2:0:0:0:
320,192,209966,1,0,0:0:0:0:
320,192,210187,1,0,2:0:0:0:
64,192,210187,1,0,2:0:0:0:
448,192,210187,1,0,2:0:0:0:
192,192,210409,1,0,2:0:0:0:
192,192,210520,1,0,2:0:0:0:
192,192,210631,1,0,2:0:0:0:
192,192,210742,1,0,2:0:0:0:
448,192,210853,1,0,2:0:0:0:
64,192,210853,1,0,2:0:0:0:
320,192,210853,1,0,2:0:0:0:
192,192,211074,1,0,2:0:0:0:
64,192,211074,1,0,2:0:0:0:
320,192,211074,1,0,2:0:0:0:
448,192,211296,1,0,2:0:0:0:
320,192,211296,1,0,2:0:0:0:
192,192,211407,1,0,2:0:0:0:
320,192,211407,1,0,2:0:0:0:
64,192,211518,1,0,2:0:0:0:
448,192,211518,1,0,2:0:0:0:
64,192,211739,1,0,2:0:0:0:
320,192,211739,1,0,2:0:0:0:
192,192,211961,1,0,2:0:0:0:
448,192,211961,1,0,2:0:0:0:
64,192,211961,1,0,2:0:0:0:
320,192,212072,1,0,2:0:0:0:
448,192,212072,1,0,2:0:0:0:
64,192,212183,1,0,2:0:0:0:
448,192,212293,1,0,2:0:0:0:
320,192,212293,1,0,2:0:0:0:
192,192,212404,1,0,2:0:0:0:
64,192,212404,1,0,2:0:0:0:
64,192,212515,1,0,2:0:0:0:
192,192,212515,1,0,2:0:0:0:
448,192,212626,128,0,212848:2:0:0:0:
320,192,212626,1,0,2:0:0:0:
64,192,212848,1,0,2:0:0:0:
320,192,212958,1,0,2:0:0:0:
320,192,213069,1,0,2:0:0:0:
320,192,213180,1,0,2:0:0:0:
192,192,213291,1,0,2:0:0:0:
448,192,213402,1,0,2:0:0:0:
448,192,213513,1,0,2:0:0:0:
448,192,213624,1,0,2:0:0:0:
320,192,213734,1,0,2:0:0:0:
64,192,213845,1,0,2:0:0:0:
64,192,213956,1,0,2:0:0:0:
64,192,214067,1,0,2:0:0:0:
448,192,214178,1,0,2:0:0:0:
192,192,214289,1,0,2:0:0:0:
192,192,214399,1,0,2:0:0:0:
192,192,214510,1,0,2:0:0:0:
64,192,214621,1,0,2:0:0:0:
320,192,214621,1,0,2:0:0:0:
448,192,214621,1,0,2:0:0:0:
192,192,214732,1,0,2:0:0:0:
320,192,214843,1,0,2:0:0:0:
320,192,214954,1,0,2:0:0:0:
448,192,215064,1,0,2:0:0:0:
192,192,215064,1,0,2:0:0:0:
64,192,215064,1,0,2:0:0:0:
320,192,215175,1,0,2:0:0:0:
64,192,215286,1,0,2:0:0:0:
64,192,215397,1,0,2:0:0:0:
320,192,215508,1,0,2:0:0:0:
192,192,215508,1,0,2:0:0:0:
448,192,215508,128,0,215951:2:0:0:0:
64,192,215619,1,0,2:0:0:0:
320,192,215729,1,0,2:0:0:0:
320,192,215840,1,0,2:0:0:0:
192,192,215951,1,0,2:0:0:0:
64,192,215951,128,0,216395:2:0:0:0:
448,192,216062,1,0,2:0:0:0:
320,192,216173,1,0,2:0:0:0:
320,192,216284,1,0,2:0:0:0:
448,192,216395,1,0,2:0:0:0:
192,192,216505,1,0,2:0:0:0:
192,192,216616,1,0,2:0:0:0:
192,192,216727,1,0,2:0:0:0:
320,192,216838,1,0,2:0:0:0:
64,192,216949,1,0,2:0:0:0:
64,192,217060,1,0,2:0:0:0:
64,192,217170,1,0,2:0:0:0:
192,192,217281,1,0,2:0:0:0:
448,192,217392,1,0,2:0:0:0:
448,192,217503,1,0,2:0:0:0:
448,192,217614,1,0,2:0:0:0:
64,192,217725,1,0,2:0:0:0:
320,192,217835,1,0,2:0:0:0:
320,192,217946,1,0,2:0:0:0:
320,192,218057,1,0,2:0:0:0:
448,192,218168,1,0,2:0:0:0:
192,192,218168,1,0,2:0:0:0:
64,192,218168,1,0,2:0:0:0:
320,192,218279,1,0,2:0:0:0:
192,192,218390,1,0,2:0:0:0:
192,192,218500,1,0,2:0:0:0:
448,192,218611,1,0,2:0:0:0:
320,192,218611,1,0,2:0:0:0:
64,192,218611,1,0,2:0:0:0:
192,192,218722,1,0,2:0:0:0:
448,192,218833,1,0,2:0:0:0:
448,192,218944,1,0,2:0:0:0:
64,192,219055,128,0,219498:2:0:0:0:
192,192,219055,1,0,2:0:0:0:
320,192,219055,1,0,2:0:0:0:
448,192,219166,1,0,2:0:0:0:
192,192,219276,1,0,2:0:0:0:
192,192,219387,1,0,2:0:0:0:
448,192,219498,128,0,219941:2:0:0:0:
320,192,219498,1,0,2:0:0:0:
64,192,219609,1,0,2:0:0:0:
192,192,219720,1,0,2:0:0:0:
192,192,219831,1,0,2:0:0:0:
64,192,219941,1,0,2:0:0:0:
320,192,219941,1,0,2:0:0:0:
192,192,220052,128,0,220163:2:0:0:0:
64,192,220163,1,0,2:0:0:0:
320,192,220163,1,0,2:0:0:0:
192,192,220274,128,0,220385:2:0:0:0:
64,192,220385,1,0,2:0:0:0:
448,192,220385,1,0,2:0:0:0:
320,192,220496,128,0,220606:2:0:0:0:
192,192,220606,1,0,2:0:0:0:
448,192,220606,1,0,2:0:0:0:
320,192,220717,128,0,220828:2:0:0:0:
192,192,220828,1,0,2:0:0:0:
64,192,220828,1,0,2:0:0:0:
448,192,220939,128,0,221050:2:0:0:0:
192,192,221050,1,0,2:0:0:0:
64,192,221050,1,0,2:0:0:0:
448,192,221161,128,0,221271:2:0:0:0:
192,192,221271,1,0,2:0:0:0:
320,192,221271,1,0,2:0:0:0:
64,192,221382,128,0,221493:2:0:0:0:
320,192,221493,1,0,2:0:0:0:
448,192,221493,1,0,2:0:0:0:
64,192,221604,128,0,221715:2:0:0:0:
192,192,221715,1,0,2:0:0:0:
320,192,221715,1,0,2:0:0:0:
448,192,221715,1,0,2:0:0:0:
192,192,221826,1,0,2:0:0:0:
64,192,221937,1,0,2:0:0:0:
320,192,221937,1,0,2:0:0:0:
448,192,221937,1,0,2:0:0:0:
320,192,222047,1,0,2:0:0:0:
448,192,222158,1,0,2:0:0:0:
192,192,222158,1,0,2:0:0:0:
64,192,222158,1,0,2:0:0:0:
192,192,222269,1,0,2:0:0:0:
448,192,222380,1,0,2:0:0:0:
320,192,222380,1,0,2:0:0:0:
64,192,222380,1,0,2:0:0:0:
320,192,222491,1,0,2:0:0:0:
64,192,222602,1,0,2:0:0:0:
192,192,222602,1,0,2:0:0:0:
448,192,222602,1,0,2:0:0:0:
448,192,222712,1,0,2:0:0:0:
320,192,222823,1,0,2:0:0:0:
192,192,222823,1,0,2:0:0:0:
64,192,222823,1,0,2:0:0:0:
64,192,222934,1,0,2:0:0:0:
192,192,223045,1,0,2:0:0:0:
320,192,223045,1,0,2:0:0:0:
448,192,223045,1,0,2:0:0:0:
448,192,223156,1,0,2:0:0:0:
320,192,223267,1,0,2:0:0:0:
192,192,223267,1,0,2:0:0:0:
64,192,223267,1,0,2:0:0:0:
64,192,223377,1,0,2:0:0:0:
448,192,223488,1,0,2:0:0:0:
448,192,223599,1,0,2:0:0:0:
448,192,223710,1,0,2:0:0:0:
448,192,223821,1,0,2:0:0:0:
448,192,223932,1,0,2:0:0:0:
448,192,224042,1,0,2:0:0:0:
448,192,224153,1,0,2:0:0:0:
448,192,224264,1,0,2:0:0:0:
448,192,224375,1,0,2:0:0:0:
448,192,224486,1,0,2:0:0:0:
448,192,224597,1,0,2:0:0:0:
448,192,224708,1,0,2:0:0:0:
448,192,224818,1,0,2:0:0:0:
448,192,224929,1,0,2:0:0:0:
448,192,225040,1,0,2:0:0:0:
448,192,225151,1,0,2:0:0:0:
448,192,225262,1,0,2:0:0:0:
64,192,225262,128,0,225483:2:0:0:0:
320,192,225410,1,0,2:0:0:0:
448,192,225483,1,0,2:0:0:0:
320,192,225622,1,0,2:0:0:0:
192,192,225705,128,0,225927:2:0:0:0:
320,192,225853,1,0,2:0:0:0:
64,192,225927,1,0,2:0:0:0:
192,192,226075,1,0,2:0:0:0:
320,192,226148,128,0,226370:2:0:0:0:
64,192,226148,128,0,226813:2:0:0:0:
448,192,226287,1,0,2:0:0:0:
192,192,226370,1,0,2:0:0:0:
320,192,226518,1,0,2:0:0:0:
448,192,226592,128,0,226813:2:0:0:0:
320,192,226813,128,0,227035:2:0:0:0:
192,192,227035,1,0,2:0:0:0:
64,192,227035,1,0,2:0:0:0:
448,192,227035,1,0,2:0:0:0:
320,192,227146,1,0,0:0:0:0:
320,192,227257,1,0,2:0:0:0:
320,192,227368,1,0,2:0:0:0:
64,192,227479,1,0,2:0:0:0:
448,192,227479,1,0,2:0:0:0:
192,192,227534,1,0,2:0:0:0:
320,192,227589,1,0,2:0:0:0:
192,192,227700,1,0,2:0:0:0:
64,192,227700,1,0,2:0:0:0:
448,192,227811,1,0,2:0:0:0:
320,192,227866,1,0,2:0:0:0:
192,192,227922,1,0,2:0:0:0:
64,192,227922,1,0,2:0:0:0:
64,192,228033,1,0,2:0:0:0:
192,192,228088,1,0,2:0:0:0:
320,192,228144,1,0,2:0:0:0:
448,192,228144,1,0,2:0:0:0:
64,192,228365,1,0,2:0:0:0:
192,192,228365,1,0,2:0:0:0:
448,192,228365,1,0,2:0:0:0:
320,192,228587,1,0,0:0:0:0:
192,192,228698,1,0,0:0:0:0:
64,192,228809,1,0,0:0:0:0:
448,192,228809,1,0,0:0:0:0:
320,192,228809,1,0,0:0:0:0:
192,192,228919,1,0,0:0:0:0:
448,192,229030,1,0,0:0:0:0:
320,192,229086,1,0,0:0:0:0:
64,192,229252,1,0,0:0:0:0:
192,192,229307,1,0,0:0:0:0:
64,192,229474,1,0,0:0:0:0:
448,192,229474,1,0,0:0:0:0:
320,192,229584,1,0,0:0:0:0:
192,192,229640,1,0,0:0:0:0:
64,192,229695,1,0,0:0:0:0:
448,192,229695,1,0,0:0:0:0:
192,192,229806,128,0,229917:0:0:0:0:
320,192,229806,128,0,229917:0:0:0:0:
64,192,229917,1,0,0:0:0:0:
448,192,229917,1,0,0:0:0:0:
64,192,230139,128,0,230360:0:0:0:0:
448,192,230139,128,0,230360:0:0:0:0:
320,192,230360,1,0,0:0:0:0:
192,192,230471,1,0,0:0:0:0:
320,192,230582,1,0,2:0:0:0:
64,192,230582,1,0,2:0:0:0:
448,192,230582,1,0,2:0:0:0:
192,192,230693,1,0,0:0:0:0:
192,192,230804,1,0,2:0:0:0:
192,192,230915,1,0,2:0:0:0:
448,192,231025,1,0,2:0:0:0:
64,192,231025,1,0,2:0:0:0:
320,192,231081,1,0,2:0:0:0:
192,192,231136,1,0,2:0:0:0:
448,192,231247,1,0,2:0:0:0:
320,192,231247,1,0,2:0:0:0:
64,192,231358,1,0,2:0:0:0:
192,192,231413,1,0,2:0:0:0:
448,192,231469,1,0,2:0:0:0:
320,192,231469,1,0,2:0:0:0:
448,192,231580,1,0,2:0:0:0:
320,192,231635,1,0,2:0:0:0:
64,192,231690,1,0,2:0:0:0:
192,192,231690,1,0,2:0:0:0:
64,192,231912,1,0,2:0:0:0:
448,192,231912,1,0,2:0:0:0:
320,192,231912,1,0,2:0:0:0:
192,192,232134,1,0,0:0:0:0:
320,192,232245,1,0,0:0:0:0:
448,192,232355,1,0,0:0:0:0:
192,192,232355,1,0,0:0:0:0:
64,192,232355,1,0,0:0:0:0:
320,192,232466,1,0,0:0:0:0:
64,192,232577,1,0,0:0:0:0:
192,192,232633,1,0,0:0:0:0:
448,192,232799,1,0,0:0:0:0:
320,192,232854,1,0,0:0:0:0:
448,192,233021,1,0,0:0:0:0:
64,192,233021,1,0,0:0:0:0:
192,192,233131,1,0,0:0:0:0:
320,192,233187,1,0,0:0:0:0:
64,192,233242,1,0,0:0:0:0:
448,192,233242,1,0,0:0:0:0:
320,192,233353,128,0,233464:0:0:0:0:
192,192,233353,128,0,233464:0:0:0:0:
448,192,233464,1,0,0:0:0:0:
64,192,233464,1,0,0:0:0:0:
192,192,233575,1,0,0:0:0:0:
320,192,233686,1,0,0:0:0:0:
448,192,233686,1,0,0:0:0:0:
64,192,233796,1,0,0:0:0:0:
192,192,233852,1,0,0:0:0:0:
320,192,233907,1,0,0:0:0:0:
448,192,233907,1,0,0:0:0:0:
64,192,234018,1,0,0:0:0:0:
192,192,234074,1,0,0:0:0:0:
64,192,234129,1,0,0:0:0:0:
320,192,234129,1,0,0:0:0:0:
448,192,234129,1,0,0:0:0:0:
192,192,234240,1,0,0:0:0:0:
192,192,234351,1,0,2:0:0:0:
192,192,234461,1,0,2:0:0:0:
64,192,234572,1,0,2:0:0:0:
448,192,234572,1,0,2:0:0:0:
320,192,234628,1,0,2:0:0:0:
192,192,234683,1,0,2:0:0:0:
320,192,234794,1,0,2:0:0:0:
448,192,234794,1,0,2:0:0:0:
64,192,234905,1,0,2:0:0:0:
192,192,234960,1,0,2:0:0:0:
448,192,235016,1,0,2:0:0:0:
320,192,235016,1,0,2:0:0:0:
448,192,235126,1,0,2:0:0:0:
320,192,235182,1,0,2:0:0:0:
64,192,235237,1,0,2:0:0:0:
192,192,235237,1,0,2:0:0:0:
320,192,235459,1,0,2:0:0:0:
64,192,235459,1,0,2:0:0:0:
448,192,235459,1,0,2:0:0:0:
192,192,235681,1,0,0:0:0:0:
320,192,235792,1,0,0:0:0:0:
448,192,235902,1,0,0:0:0:0:
192,192,235902,1,0,0:0:0:0:
64,192,235902,1,0,0:0:0:0:
320,192,236013,1,0,0:0:0:0:
64,192,236124,1,0,0:0:0:0:
192,192,236179,1,0,0:0:0:0:
448,192,236346,1,0,0:0:0:0:
320,192,236401,1,0,0:0:0:0:
64,192,236567,1,0,0:0:0:0:
448,192,236567,1,0,0:0:0:0:
192,192,236678,1,0,0:0:0:0:
320,192,236734,1,0,0:0:0:0:
448,192,236789,1,0,0:0:0:0:
64,192,236789,1,0,0:0:0:0:
192,192,236900,128,0,237011:0:0:0:0:
320,192,236900,128,0,237011:0:0:0:0:
64,192,237011,1,0,0:0:0:0:
448,192,237011,1,0,0:0:0:0:
64,192,237232,128,0,237454:0:0:0:0:
448,192,237232,128,0,237454:0:0:0:0:
192,192,237454,1,0,0:0:0:0:
320,192,237565,1,0,0:0:0:0:
64,192,237676,1,0,2:0:0:0:
192,192,237676,1,0,2:0:0:0:
448,192,237676,1,0,2:0:0:0:
320,192,237787,1,0,0:0:0:0:
320,192,237898,1,0,2:0:0:0:
320,192,238008,1,0,2:0:0:0:
64,192,238119,1,0,2:0:0:0:
448,192,238119,1,0,2:0:0:0:
192,192,238175,1,0,2:0:0:0:
320,192,238230,1,0,2:0:0:0:
192,192,238341,1,0,2:0:0:0:
64,192,238341,1,0,2:0:0:0:
448,192,238452,1,0,2:0:0:0:
320,192,238507,1,0,2:0:0:0:
64,192,238563,1,0,2:0:0:0:
192,192,238563,1,0,2:0:0:0:
64,192,238673,1,0,2:0:0:0:
192,192,238729,1,0,2:0:0:0:
448,192,238784,1,0,2:0:0:0:
320,192,238784,1,0,2:0:0:0:
448,192,239006,1,0,2:0:0:0:
192,192,239006,1,0,2:0:0:0:
64,192,239006,1,0,2:0:0:0:
320,192,239228,1,0,0:0:0:0:
64,192,239338,1,0,0:0:0:0:
448,192,239449,128,0,239671:0:0:0:0:
192,192,239449,1,0,0:0:0:0:
320,192,239560,1,0,0:0:0:0:
64,192,239671,1,0,0:0:0:0:
192,192,239726,1,0,0:0:0:0:
448,192,239782,1,0,0:0:0:0:
64,192,239893,128,0,240114:0:0:0:0:
320,192,239893,1,0,0:0:0:0:
192,192,240003,1,0,0:0:0:0:
448,192,240114,1,0,0:0:0:0:
320,192,240170,1,0,0:0:0:0:
64,192,240225,1,0,0:0:0:0:
320,192,240336,128,0,240447:0:0:0:0:
448,192,240336,128,0,240558:0:0:0:0:
192,192,240336,1,0,0:0:0:0:
64,192,240447,1,0,0:0:0:0:
192,192,240558,1,0,0:0:0:0:
320,192,240613,1,0,0:0:0:0:
448,192,240669,1,0,0:0:0:0:
192,192,240779,128,0,240890:0:0:0:0:
64,192,240779,128,0,241001:0:0:0:0:
320,192,240779,1,0,0:0:0:0:
448,192,240890,1,0,0:0:0:0:
320,192,241001,1,0,0:0:0:0:
192,192,241056,1,0,0:0:0:0:
64,192,241112,1,0,0:0:0:0:
192,192,241223,1,0,0:0:0:0:
448,192,241223,128,0,241334:0:0:0:0:
320,192,241223,128,0,241334:0:0:0:0:
320,192,241444,1,0,0:0:0:0:
192,192,241555,1,0,0:0:0:0:
64,192,241555,1,0,0:0:0:0:
320,192,241666,128,0,241777:0:0:0:0:
448,192,241666,128,0,241777:0:0:0:0:
320,192,241888,128,0,241999:0:0:0:0:
192,192,241888,128,0,241999:0:0:0:0:
64,192,242109,1,0,0:0:0:0:
320,192,242109,1,0,0:0:0:0:
448,192,242109,1,0,0:0:0:0:
192,192,242220,1,0,0:0:0:0:
192,192,242331,1,0,0:0:0:0:
192,192,242442,1,0,0:0:0:0:
320,192,242553,128,0,242664:0:0:0:0:
448,192,242553,128,0,242664:0:0:0:0:
320,192,242774,128,0,242885:0:0:0:0:
192,192,242774,128,0,242885:0:0:0:0:
64,192,242996,128,0,243107:0:0:0:0:
192,192,242996,128,0,243107:0:0:0:0:
448,192,242996,1,0,0:0:0:0:
320,192,243218,1,0,0:0:0:0:
192,192,243329,1,0,0:0:0:0:
64,192,243329,1,0,0:0:0:0:
320,192,243440,128,0,243550:0:0:0:0:
448,192,243440,128,0,243550:0:0:0:0:
320,192,243661,128,0,243772:0:0:0:0:
192,192,243661,128,0,243772:0:0:0:0:
448,192,243772,128,0,243883:0:0:0:0:
64,192,243883,1,0,0:0:0:0:
192,192,243994,1,0,0:0:0:0:
192,192,244105,1,0,0:0:0:0:
192,192,244215,1,0,0:0:0:0:
320,192,244326,128,0,244437:0:0:0:0:
448,192,244326,128,0,244437:0:0:0:0:
320,192,244548,128,0,244659:0:0:0:0:
192,192,244548,128,0,244659:0:0:0:0:
448,192,244770,128,0,244880:0:0:0:0:
64,192,244770,128,0,244880:0:0:0:0:
320,192,244770,1,0,0:0:0:0:
192,192,244991,1,0,0:0:0:0:
64,192,245102,1,0,0:0:0:0:
320,192,245102,1,0,0:0:0:0:
448,192,245213,128,0,245324:0:0:0:0:
192,192,245213,128,0,245324:0:0:0:0:
320,192,245435,128,0,245545:0:0:0:0:
64,192,245435,128,0,245545:0:0:0:0:
448,192,245656,1,0,0:0:0:0:
192,192,245656,1,0,0:0:0:0:
64,192,245656,1,0,0:0:0:0:
320,192,245767,1,0,0:0:0:0:
320,192,245878,1,0,0:0:0:0:
320,192,245989,1,0,0:0:0:0:
192,192,246100,128,0,246211:0:0:0:0:
448,192,246100,128,0,246211:0:0:0:0:
320,192,246321,128,0,246432:0:0:0:0:
64,192,246321,128,0,246432:0:0:0:0:
192,192,246543,1,0,0:0:0:0:
448,192,246543,128,0,246654:0:0:0:0:
64,192,246543,128,0,246654:0:0:0:0:
320,192,246765,1,0,0:0:0:0:
448,192,246876,1,0,0:0:0:0:
192,192,246876,1,0,0:0:0:0:
64,192,246986,128,0,247097:0:0:0:0:
320,192,246986,128,0,247097:0:0:0:0:
192,192,247208,128,0,247319:0:0:0:0:
448,192,247208,128,0,247319:0:0:0:0:
64,192,247319,128,0,247430:0:0:0:0:
448,192,247430,1,0,0:0:0:0:
320,192,247541,1,0,0:0:0:0:
320,192,247651,1,0,0:0:0:0:
320,192,247762,1,0,0:0:0:0:
192,192,247873,128,0,247984:0:0:0:0:
448,192,247873,128,0,247984:0:0:0:0:
64,192,248095,128,0,248206:0:0:0:0:
320,192,248095,128,0,248206:0:0:0:0:
64,192,248316,128,0,248427:0:0:0:0:
192,192,248316,128,0,248427:0:0:0:0:
448,192,248316,1,0,0:0:0:0:
448,192,248538,1,0,0:0:0:0:
320,192,248538,1,0,0:0:0:0:
192,192,248649,1,0,0:0:0:0:
64,192,248760,1,0,0:0:0:0:
448,192,248760,128,0,248908:0:0:0:0:
320,192,248760,128,0,248908:0:0:0:0:
64,192,248908,128,0,249055:0:0:0:0:
192,192,248908,128,0,249055:0:0:0:0:
320,192,249055,128,0,249203:0:0:0:0:
448,192,249055,128,0,249203:0:0:0:0:
192,192,249203,1,0,0:0:0:0:
192,192,249351,1,0,0:0:0:0:
192,192,249499,1,0,0:0:0:0:
64,192,249647,128,0,249757:0:0:0:0:
448,192,249647,128,0,249757:0:0:0:0:
320,192,249868,128,0,249979:0:0:0:0:
192,192,249868,128,0,249979:0:0:0:0:
64,192,250090,128,0,250201:0:0:0:0:
192,192,250090,128,0,250201:0:0:0:0:
448,192,250090,1,0,0:0:0:0:
320,192,250312,1,0,0:0:0:0:
192,192,250422,1,0,0:0:0:0:
64,192,250422,1,0,0:0:0:0:
320,192,250533,128,0,250644:0:0:0:0:
448,192,250533,128,0,250644:0:0:0:0:
192,192,250644,1,0,0:0:0:0:
192,192,250755,1,0,0:0:0:0:
192,192,250866,1,0,0:0:0:0:
64,192,250977,128,0,251087:0:0:0:0:
448,192,250977,128,0,251087:0:0:0:0:
320,192,251087,128,0,251198:0:0:0:0:
192,192,251087,128,0,251198:0:0:0:0:
64,192,251198,128,0,251309:0:0:0:0:
448,192,251198,128,0,251309:0:0:0:0:
320,192,251309,128,0,251420:0:0:0:0:
192,192,251309,128,0,251420:0:0:0:0:
64,192,251420,128,0,251531:0:0:0:0:
448,192,251420,128,0,251531:0:0:0:0:
192,192,251642,128,0,251753:0:0:0:0:
320,192,251642,128,0,251753:0:0:0:0:
64,192,251863,128,0,251974:0:0:0:0:
192,192,251863,128,0,251974:0:0:0:0:
448,192,251863,1,0,0:0:0:0:
320,192,252085,1,0,0:0:0:0:
448,192,252085,1,0,0:0:0:0:
448,192,252196,1,0,0:0:0:0:
320,192,252196,1,0,0:0:0:0:
64,192,252307,1,0,0:0:0:0:
64,192,252418,1,0,0:0:0:0:
192,192,252528,1,0,0:0:0:0:
192,192,252639,1,0,0:0:0:0:
64,192,252750,1,0,0:0:0:0:
320,192,252750,128,0,252861:0:0:0:0:
448,192,252750,128,0,252861:0:0:0:0:
192,192,252972,1,0,0:0:0:0:
64,192,252972,1,0,0:0:0:0:
64,192,253083,1,0,0:0:0:0:
192,192,253083,1,0,0:0:0:0:
448,192,253193,1,0,0:0:0:0:
448,192,253304,1,0,0:0:0:0:
320,192,253415,1,0,0:0:0:0:
320,192,253526,1,0,0:0:0:0:
64,192,253637,1,0,0:0:0:0:
448,192,253637,1,0,0:0:0:0:
64,192,253748,1,0,0:0:0:0:
320,192,253748,1,0,0:0:0:0:
192,192,253858,1,0,0:0:0:0:
448,192,253858,1,0,0:0:0:0:
448,192,253969,1,0,0:0:0:0:
320,192,253969,1,0,0:0:0:0:
64,192,254080,1,0,0:0:0:0:
192,192,254080,1,0,0:0:0:0:
192,192,254191,1,0,0:0:0:0:
448,192,254191,1,0,0:0:0:0:
320,192,254302,1,0,0:0:0:0:
64,192,254302,1,0,0:0:0:0:
192,192,254413,1,0,0:0:0:0:
320,192,254413,1,0,0:0:0:0:
64,192,254524,1,0,0:0:0:0:
448,192,254524,1,0,0:0:0:0:
192,192,254634,1,0,0:0:0:0:
448,192,254634,1,0,0:0:0:0:
64,192,254745,1,0,0:0:0:0:
320,192,254745,1,0,0:0:0:0:
192,192,254856,1,0,0:0:0:0:
64,192,254856,1,0,0:0:0:0:
448,192,254967,128,0,255189:0:0:0:0:
320,192,254967,128,0,255410:0:0:0:0:
192,192,255189,128,0,255410:0:0:0:0:
64,192,255410,1,0,0:0:0:0:
448,192,255410,1,0,0:0:0:0:
