osu file format v12

[General]
AudioFilename: NO NAME - Kono Namida wo Kimi ni Sasagu.mp3
AudioLeadIn: 0
PreviewTime: 45934
Countdown: 0
SampleSet: Soft
StackLeniency: 0.7
Mode: 0
LetterboxInBreaks: 0

[Editor]
DistanceSpacing: 1.5
BeatDivisor: 4
GridSize: 4

[Metadata]
Title:Kono Namida wo Kimi ni Sasagu (TV Size)
TitleUnicode:この涙を君に捧ぐ (TV Size)
Artist:NO NAME
ArtistUnicode:NO NAME
Creator:BeatofIke
Version:Normal
Source:AKB0048 next stage
Tags:idol ending AKB48 SKE48 NMB48 Satelight nich95 Nichiyouki
BeatmapID:216394
BeatmapSetID:73718

[Difficulty]
HPDrainRate:3
CircleSize:3
OverallDifficulty:3
ApproachRate:5
SliderMultiplier:1.1
SliderTickRate:1

[Events]
//Background and Video events
0,0,"BG Ending.png",0,0
Video,0,"Ending.flv"
//Break Periods
//Storyboard Layer 0 (Background)
//Storyboard Layer 1 (Fail)
//Storyboard Layer 2 (Pass)
//Storyboard Layer 3 (Foreground)
//Storyboard Sound Samples
//Background Colour Transformations
3,100,163,162,255

[TimingPoints]
85.6355140186917,566.037735849057,4,2,1,60,1,0
41972,-100,4,2,0,60,0,0
42255,-100,4,2,1,60,0,0
47632,-100,4,2,1,75,0,1
61217,-100,4,2,1,75,0,0
65746,-100,4,2,1,75,0,1
79330,-100,4,2,1,75,0,0

[Colours]
Combo1 : 255,0,0
Combo2 : 0,0,160
Combo3 : 64,0,128
Combo4 : 255,0,128

[HitObjects]
172,140,9142,6,0,B|156:192|156:192|104:212,1,110,2|8,0:0|0:0,0:0:0:0:
32,256,9991,1,0,0:0:0:0:
104,300,10274,2,0,B|156:320|156:320|172:372,1,110,2|8,0:0|0:0,0:0:0:0:
256,372,11123,1,0,0:0:0:0:
340,372,11406,6,0,B|356:320|356:320|408:300,1,110,2|8,0:0|0:0,0:0:0:0:
480,256,12255,1,0,0:0:0:0:
408,212,12538,2,0,B|356:192|356:192|340:140,1,110,2|8,0:0|0:0,0:0:0:0:
340,56,13387,1,0,0:0:0:0:
256,56,13670,6,0,L|144:56,1,110,2|8,0:0|0:0,0:0:0:0:
92,124,14519,1,0,0:0:0:0:
92,124,14802,2,0,L|36:124,2,55,2|0|8,0:0|0:0|0:0,0:0:0:0:
146,192,15651,1,0,0:0:0:0:
146,192,15934,6,0,L|204:192,2,55,2|0|8,0:0|0:0|0:0,0:0:0:0:
92,260,16783,1,0,0:0:0:0:
92,260,17066,2,0,L|36:260,2,55,2|0|8,0:0|0:0|0:0,0:0:0:0:
146,328,17915,1,2,0:0:0:0:
146,328,18198,6,0,L|256:328,1,110,2|8,0:0|0:0,0:0:0:0:
432,328,19330,1,2,0:0:0:0:
344,328,19613,1,0,0:0:0:0:
300,252,19896,1,8,0:0:0:0:
456,192,20462,6,0,L|512:192,2,55,2|0|8,0:0|0:0|0:0,0:0:0:0:
300,132,21595,1,2,0:0:0:0:
344,56,21878,1,0,0:0:0:0:
432,56,22161,1,8,0:0:0:0:
256,56,22727,6,0,L|146:56,1,110,2|8,0:0|0:0,0:0:0:0:
104,132,23576,2,0,L|44:132,2,55,0|2|0,0:0|0:0|0:0,0:0:0:0:
146,208,24425,2,0,L|202:208,1,55,8|0,0:0|0:0,0:0:0:0:
256,192,24991,12,8,26689,0:0:0:0:
256,232,27255,6,0,L|340:232,2,82.5,6|0|0,0:0|0:0|0:0,0:0:0:0:
172,232,28387,1,2,0:0:0:0:
112,288,28670,2,0,L|56:288,2,55,0|8|0,0:0|0:0|0:0,0:0:0:0:
172,344,29519,2,0,L|256:344,2,82.5,2|0|0,0:0|0:0|0:0,0:0:0:0:
336,344,30934,5,0,0:0:0:0:
420,344,31217,1,8,0:0:0:0:
468,276,31500,1,0,0:0:0:0:
468,192,31783,2,0,L|420:92,1,110,2|8,0:0|0:0,0:0:0:0:
336,96,32632,1,0,0:0:0:0:
176,96,33198,5,0,0:0:0:0:
92,96,33481,1,8,0:0:0:0:
44,164,33764,1,0,0:0:0:0:
44,248,34047,2,0,L|92:348,1,110,2|8,0:0|0:0,0:0:0:0:
176,344,34896,1,0,0:0:0:0:
336,344,35462,5,0,0:0:0:0:
420,344,35745,1,8,0:0:0:0:
456,268,36028,1,2,0:0:0:0:
492,192,36312,6,0,B|452:152|452:152|392:152,1,110,6|8,0:0|0:0,0:0:0:0:
316,152,37161,1,0,0:0:0:0:
256,96,37444,2,0,L|256:40,2,55,2|0|8,0:0|0:0|0:0,0:0:0:0:
196,152,38293,1,0,0:0:0:0:
113,152,38576,2,0,B|60:152|60:152|20:192,1,110,2|8,0:0|0:0,0:0:0:0:
56,268,39425,1,0,0:0:0:0:
188,368,39991,5,0,0:0:0:0:
228,296,40274,2,0,L|284:296,1,55,8|0,0:0|0:0,0:0:0:0:
324,368,40840,2,0,P|364:296|328:228,2,165,2|0|8,0:0|0:0|0:0,0:0:0:0:
256,192,43104,12,2,45085,0:0:0:0:
192,192,47632,6,0,P|176:140|192:88,1,110,6|8,0:0|0:0,0:0:0:0:
256,36,48481,1,0,0:0:0:0:
320,88,48764,2,0,P|336:140|320:192,1,110,2|8,0:0|0:0,0:0:0:0:
256,244,49613,1,0,0:0:0:0:
192,296,49896,6,0,L|132:296,2,55,2|0|8,0:0|0:0|0:0,0:0:0:0:
256,348,50746,1,0,0:0:0:0:
320,296,51029,2,0,L|380:296,2,55,2|0|8,0:0|0:0|0:0,0:0:0:0:
256,244,51878,1,0,0:0:0:0:
192,192,52161,6,0,P|140:176|88:192,1,110,2|8,0:0|0:0,0:0:0:0:
24,244,53010,1,0,0:0:0:0:
88,300,53293,2,0,P|140:316|192:300,1,110,2|8,0:0|0:0,0:0:0:0:
256,244,54142,1,0,0:0:0:0:
320,192,54425,6,0,P|372:176|424:192,1,110,2|8,0:0|0:0,0:0:0:0:
488,244,55274,1,0,0:0:0:0:
424,300,55557,2,0,P|372:316|320:300,1,110,2|8,0:0|0:0,0:0:0:0:
256,244,56406,1,2,0:0:0:0:
172,244,56689,6,0,L|60:244,1,110,6|8,0:0|0:0,0:0:0:0:
12,176,57538,1,0,0:0:0:0:
62,108,57821,2,0,L|172:108,1,110,2|8,0:0|0:0,0:0:0:0:
256,108,58670,1,0,0:0:0:0:
340,108,58953,6,0,L|450:108,1,110,2|8,0:0|0:0,0:0:0:0:
500,176,59802,1,0,0:0:0:0:
450,244,60085,2,0,L|340:244,1,110,2|8,0:0|0:0,0:0:0:0:
256,244,60934,1,0,0:0:0:0:
256,328,61217,5,6,0:0:0:0:
48,192,62066,1,0,0:0:0:0:
132,192,62349,2,0,L|188:192,2,55,6|0|0,0:0|0:0|0:0,0:0:0:0:
48,192,63198,1,0,0:0:0:0:
256,192,63481,12,6,65179,0:0:0:0:
200,176,65746,6,0,B|148:194|148:194|96:176,1,110,6|8,0:0|0:0,0:0:0:0:
40,116,66595,1,0,0:0:0:0:
96,56,66878,2,0,B|148:38|148:38|200:56,1,110,2|8,0:0|0:0,0:0:0:0:
256,116,67727,1,0,0:0:0:0:
312,176,68010,6,0,B|364:194|364:194|416:176,1,110,2|8,0:0|0:0,0:0:0:0:
472,116,68859,1,0,0:0:0:0:
416,56,69142,2,0,B|364:38|364:38|312:56,1,110,2|8,0:0|0:0,0:0:0:0:
256,116,69991,1,0,0:0:0:0:
200,176,70274,6,0,B|182:228|182:228|200:280,1,110,2|8,0:0|0:0,0:0:0:0:
256,340,71123,1,0,0:0:0:0:
312,280,71406,2,0,B|330:228|330:228|312:176,1,110,2|8,0:0|0:0,0:0:0:0:
256,116,72255,1,0,0:0:0:0:
212,48,72538,6,0,L|156:48,2,55,2|0|8,0:0|0:0|0:0,0:0:0:0:
256,116,73387,1,0,0:0:0:0:
300,48,73670,2,0,L|356:48,1,55,2|0,0:0|0:0,0:0:0:0:
436,48,74236,2,0,L|476:88,1,55,8|2,0:0|0:0,0:0:0:0:
476,168,74802,6,0,P|448:212|396:232,1,110,6|8,0:0|0:0,0:0:0:0:
352,304,75651,2,0,L|292:304,1,55,0|2,0:0|0:0,0:0:0:0:
256,232,76217,1,0,0:0:0:0:
215,304,76500,2,0,L|160:304,1,55,8|0,0:0|0:0,0:0:0:0:
116,232,77066,6,0,P|64:212|36:168,1,110,2|8,0:0|0:0,0:0:0:0:
60,88,77915,1,0,0:0:0:0:
132,48,78198,2,0,P|184:68|212:112,1,110,2|8,0:0|0:0,0:0:0:0:
256,184,79047,1,0,0:0:0:0:
300,112,79330,6,0,P|328:68|380:48,1,110,6|0,0:0|0:0,0:0:0:0:
452,88,80179,1,0,0:0:0:0:
476,168,80462,2,0,P|448:212|396:232,1,110,6|0,0:0|0:0,0:0:0:0:
352,304,81312,1,0,0:0:0:0:
256,192,81595,12,6,83293,0:0:0:0:
196,240,83859,6,0,P|173:192|196:144,1,110,6|0,0:0|0:0,0:0:0:0:
256,88,84708,1,0,0:0:0:0:
316,144,84991,2,0,P|339:192|316:240,1,110,6|0,0:0|0:0,0:0:0:0:
256,296,85840,1,0,0:0:0:0:
256,192,86123,12,6,87821,0:0:0:0:
