osu file format v12

[General]
AudioFilename: NO NAME - Kono Namida wo Kimi ni Sasagu.mp3
AudioLeadIn: 0
PreviewTime: 45934
Countdown: 0
SampleSet: Soft
StackLeniency: 0.7
Mode: 0
LetterboxInBreaks: 0

[Editor]
DistanceSpacing: 1.1
BeatDivisor: 4
GridSize: 4

[Metadata]
Title:Kono Namida wo Kimi ni Sasagu (TV Size)
TitleUnicode:この涙を君に捧ぐ (TV Size)
Artist:NO NAME
ArtistUnicode:NO NAME
Creator:BeatofIke
Version:Hard
Source:AKB0048 next stage
Tags:idol ending AKB48 SKE48 NMB48 Satelight nich95 Nichiyouki
BeatmapID:234124
BeatmapSetID:73718

[Difficulty]
HPDrainRate:5
CircleSize:4
OverallDifficulty:5
ApproachRate:7
SliderMultiplier:1.5
SliderTickRate:1

[Events]
//Background and Video events
0,0,"BG Ending.png",0,0
Video,0,"Ending.flv"
//Break Periods
//Storyboard Layer 0 (Background)
//Storyboard Layer 1 (Fail)
//Storyboard Layer 2 (Pass)
//Storyboard Layer 3 (Foreground)
//Storyboard Sound Samples
//Background Colour Transformations
3,100,163,162,255

[TimingPoints]
85.6355140186917,566.037735849057,4,2,1,60,1,0
47632,-100,4,2,1,75,0,1
61217,-100,4,2,1,75,0,0
65746,-100,4,2,1,75,0,1
79330,-100,4,2,1,75,0,0

[Colours]
Combo1 : 255,0,0
Combo2 : 0,0,160
Combo3 : 64,0,128
Combo4 : 255,0,128

[HitObjects]
40,128,8859,5,0,0:0:0:0:
88,64,9142,2,0,P|152:52|212:104,1,150,2|8,0:0|0:0,0:0:0:0:
256,176,9991,1,0,0:0:0:0:
300,104,10274,2,0,P|360:52|424:64,1,150,2|8,0:0|0:0,0:0:0:0:
472,128,11123,1,0,0:0:0:0:
452,208,11406,6,0,P|448:244|424:276,1,75,2|0,0:0|0:0,0:0:0:0:
388,348,11972,2,0,P|358:326|343:289,1,75,8|0,0:0|0:0,0:0:0:0:
296,224,12538,2,0,P|329:209|368:214,2,75,2|0|8,0:0|0:0|0:0,0:0:0:0:
256,296,13387,1,0,0:0:0:0:
216,224,13670,6,0,P|183:209|144:214,1,75,2|0,0:0|0:0,0:0:0:0:
72,176,14236,1,8,0:0:0:0:
52,96,14519,2,0,B|140:104|176:32,1,150
216,104,15368,1,8,0:0:0:0:
296,104,15651,1,0,0:0:0:0:
336,32,15934,6,0,B|372:104|460:96,1,150,2|8,0:0|0:0,0:0:0:0:
440,176,16783,1,0,0:0:0:0:
388,240,17066,1,2,0:0:0:0:
432,312,17349,1,0,0:0:0:0:
432,312,17491,1,2,0:0:0:0:
432,312,17632,1,8,0:0:0:0:
308,244,17915,1,2,0:0:0:0:
192,320,18198,6,0,P|256:353|320:320,1,150,2|8,0:0|0:0,0:0:0:0:
308,244,19047,1,0,0:0:0:0:
320,172,19330,2,0,P|256:139|192:172,1,150,2|8,0:0|0:0,0:0:0:0:
204,244,20179,1,0,0:0:0:0:
192,320,20462,6,0,P|164:344|128:348,1,75,2|0,0:0|0:0,0:0:0:0:
132,272,21029,2,0,P|95:269|66:246,1,75,8|0,0:0|0:0,0:0:0:0:
124,196,21595,2,0,P|100:168|96:132,1,75,2|0,0:0|0:0,0:0:0:0:
124,60,22161,1,8,0:0:0:0:
192,28,22444,1,0,0:0:0:0:
256,64,22727,6,0,P|296:116|376:128,1,150,2|8,0:0|0:0,0:0:0:0:
428,192,23576,1,0,0:0:0:0:
376,256,23859,2,0,P|296:268|256:320,1,150,2|8,0:0|0:0,0:0:0:0:
192,356,24708,1,0,0:0:0:0:
256,192,24991,12,8,26689,0:0:0:0:
192,276,27255,5,6,0:0:0:0:
216,356,27538,1,0,0:0:0:0:
296,356,27821,1,8,0:0:0:0:
320,276,28104,1,0,0:0:0:0:
256,224,28387,2,0,L|256:148,1,75,2|0,0:0|0:0,0:0:0:0:
188,100,28953,1,8,0:0:0:0:
256,52,29236,1,0,0:0:0:0:
324,100,29519,6,0,L|400:100,1,75,2|0,0:0|0:0,0:0:0:0:
456,160,30085,1,8,0:0:0:0:
420,232,30368,2,0,P|368:280|376:356,1,150
444,312,31217,1,8,0:0:0:0:
294,356,31500,2,0,L|256:356|218:356,1,75,0|2,0:0|0:0,0:0:0:0:
172,280,32066,5,0,0:0:0:0:
212,200,32349,1,8,0:0:0:0:
300,200,32632,1,0,0:0:0:0:
340,280,32915,1,2,0:0:0:0:
294,356,33198,2,0,L|256:356|218:356,1,75,0|8,0:0|0:0,0:0:0:0:
68,312,33764,1,0,0:0:0:0:
92,232,34047,6,0,P|144:280|136:356,1,150,2|8,0:0|0:0,0:0:0:0:
68,312,34896,1,0,0:0:0:0:
32,172,35179,1,2,0:0:0:0:
172,208,35462,1,0,0:0:0:0:
172,208,35604,1,2,0:0:0:0:
172,208,35746,1,8,0:0:0:0:
92,232,36029,1,2,0:0:0:0:
140,72,36312,6,0,L|215:72,1,75,6|0,0:0|0:0,0:0:0:0:
256,144,36878,1,8,0:0:0:0:
297,72,37161,2,0,L|372:72,2,75,0|2|0,0:0|0:0|0:0,0:0:0:0:
256,144,38010,2,0,L|256:220,1,75,8|0,0:0|0:0,0:0:0:0:
320,272,38576,2,0,P|256:305|192:272,1,150,2|8,0:0|0:0,0:0:0:0:
256,220,39425,1,0,0:0:0:0:
160,28,39991,5,0,0:0:0:0:
256,68,40274,1,8,0:0:0:0:
352,28,40557,1,0,0:0:0:0:
320,112,40840,2,0,P|256:145|192:112,1,150,2|8,0:0|0:0,0:0:0:0:
152,192,41689,1,0,0:0:0:0:
212,252,41972,1,2,0:0:0:0:
300,252,42255,1,0,0:0:0:0:
360,192,42538,1,8,0:0:0:0:
256,192,42821,12,2,45085,0:0:0:0:
212,40,46217,5,0,0:0:0:0:
328,124,46500,1,0,0:0:0:0:
184,124,46783,1,0,0:0:0:0:
300,40,47066,1,0,0:0:0:0:
256,180,47349,1,0,0:0:0:0:
256,180,47491,1,0,0:0:0:0:
256,180,47632,6,0,L|256:256,1,75,6|0,0:0|0:0,0:0:0:0:
256,344,48198,1,8,0:0:0:0:
332,300,48481,1,0,0:0:0:0:
180,300,48764,2,0,L|104:300,1,75,2|0,0:0|0:0,0:0:0:0:
28,172,49330,2,0,L|104:172,1,75,8|0,0:0|0:0,0:0:0:0:
144,148,49755,1,0,0:0:0:0:
180,124,49896,6,0,L|256:124,1,75,2|0,0:0|0:0,0:0:0:0:
300,48,50462,1,8,0:0:0:0:
388,24,50746,1,0,0:0:0:0:
468,68,51029,2,0,P|480:116|468:156,1,75,2|0,0:0|0:0,0:0:0:0:
403,260,51595,2,0,P|391:212|396:188,1,75,8|0,0:0|0:0,0:0:0:0:
492,276,52161,6,0,P|452:336|380:348,1,150,2|8,0:0|0:0,0:0:0:0:
300,312,53010,1,0,0:0:0:0:
328,228,53293,1,2,0:0:0:0:
256,176,53576,1,0,0:0:0:0:
184,228,53859,1,8,0:0:0:0:
212,312,54142,1,0,0:0:0:0:
132,348,54425,6,0,P|60:336|20:276,1,150,2|8,0:0|0:0,0:0:0:0:
52,192,55274,1,0,0:0:0:0:
132,148,55557,2,0,P|160:124|168:88,1,75,2|0,0:0|0:0,0:0:0:0:
132,236,56123,2,0,P|160:260|168:296,1,75,8|2,0:0|0:0,0:0:0:0:
324,192,56689,6,0,L|212:192,2,112.5,6|0|0,0:0|0:0|0:0,0:0:0:0:
448,152,57821,1,2,0:0:0:0:
372,260,58104,1,0,0:0:0:0:
372,124,58387,1,8,0:0:0:0:
448,232,58670,1,0,0:0:0:0:
324,192,58953,6,0,L|212:192,2,112.5,2|0|0,0:0|0:0|0:0,0:0:0:0:
324,192,60085,1,2,0:0:0:0:
212,52,60651,1,8,0:0:0:0:
300,52,60934,1,0,0:0:0:0:
256,132,61217,6,0,P|204:152|152:132,2,112.5,6|0|0,0:0|0:0|0:0,0:0:0:0:
344,132,62349,1,6,0:0:0:0:
300,212,62632,1,0,0:0:0:0:
212,212,62915,1,0,0:0:0:0:
168,132,63198,1,0,0:0:0:0:
256,192,63481,12,6,65179,0:0:0:0:
192,276,65746,6,0,P|256:243|320:276,1,150,6|8,0:0|0:0,0:0:0:0:
256,328,66595,1,0,0:0:0:0:
176,192,66878,1,2,0:0:0:0:
336,192,67161,1,0,0:0:0:0:
256,56,67444,1,8,0:0:0:0:
256,144,67727,1,0,0:0:0:0:
256,144,67868,1,0,0:0:0:0:
256,144,68010,6,0,B|232:180|256:216|280:252|256:288,1,150,2|8,0:0|0:0,0:0:0:0:
256,288,68859,1,0,0:0:0:0:
148,336,69142,2,0,L|220:360,1,75,2|0,0:0|0:0,0:0:0:0:
292,360,69708,2,0,L|364:336,1,75,8|0,0:0|0:0,0:0:0:0:
440,368,70274,6,0,P|400:316|420:240,1,150,2|8,0:0|0:0,0:0:0:0:
468,172,71123,1,0,0:0:0:0:
412,112,71406,2,0,P|376:104|352:76,1,75,2|0,0:0|0:0,0:0:0:0:
292,20,71972,2,0,P|256:11|220:20,1,75,8|0,0:0|0:0,0:0:0:0:
160,76,72538,6,0,P|124:144|56:164,1,150,2|8,0:0|0:0,0:0:0:0:
44,244,73387,2,0,P|24:276|20:312,1,75,0|2,0:0|0:0,0:0:0:0:
104,304,73953,1,0,0:0:0:0:
104,304,74095,1,0,0:0:0:0:
104,304,74236,2,0,P|112:340|135:369,1,75,8|2,0:0|0:0,0:0:0:0:
188,304,74802,6,0,P|256:277|324:304,1,150,6|8,0:0|0:0,0:0:0:0:
377,369,75651,1,0,0:0:0:0:
377,369,75793,1,0,0:0:0:0:
377,369,75934,2,0,P|400:340|408:304,1,75,2|0,0:0|0:0,0:0:0:0:
448,232,76500,1,8,0:0:0:0:
392,172,76783,1,0,0:0:0:0:
324,220,77066,6,0,P|288:216|256:192,1,75,2|0,0:0|0:0,0:0:0:0:
204,256,77632,2,0,P|181:227|175:188,1,75,8|0,0:0|0:0,0:0:0:0:
92,196,78198,2,0,P|118:128|186:106,1,150,2|8,0:0|0:0,0:0:0:0:
256,64,79047,1,0,0:0:0:0:
256,148,79330,6,0,L|256:264,2,112.5,6|0|0,0:0|0:0|0:0,0:0:0:0:
256,64,80462,1,6,0:0:0:0:
325,106,80746,1,0,0:0:0:0:
256,148,81029,1,0,0:0:0:0:
186,106,81312,1,0,0:0:0:0:
256,192,81595,12,4,83293,0:0:0:0:
256,124,83859,6,0,P|320:91|384:124,1,150,6|0,0:0|0:0,0:0:0:0:
256,248,84708,1,0,0:0:0:0:
256,248,84849,1,0,0:0:0:0:
256,248,84991,2,0,P|192:281|128:248,1,150,6|0,0:0|0:0,0:0:0:0:
256,124,85840,1,0,0:0:0:0:
256,124,85981,1,0,0:0:0:0:
256,124,86123,5,6,0:0:0:0:
364,204,86547,1,6,0:0:0:0:
324,332,86972,1,6,0:0:0:0:
188,332,87396,1,6,0:0:0:0:
148,204,87821,1,6,0:0:0:0:
