osu file format v9

[General]
AudioFilename: NO NAME - Kibou ni Tsuite.mp3
AudioLeadIn: 0
PreviewTime: 47903
Countdown: 0
SampleSet: Soft
StackLeniency: 0.7
Mode: 0
LetterboxInBreaks: 0

[Editor]
DistanceSpacing: 1
BeatDivisor: 4
GridSize: 4

[Metadata]
Title:Kibou ni Tsuite (TV Size)
Artist:NO NAME
Creator:BeatofIke
Version:Normal
Source:AKB0048
Tags:idol opening nich95 merchat7 AKB48 SKE48 NMB48 Satelight

[Difficulty]
HPDrainRate:3
CircleSize:3
OverallDifficulty:3
ApproachRate:5
SliderMultiplier:1.2
SliderTickRate:1

[Events]
//Background and Video events
0,0,"AKB0048 Opening.jpg"
Video,1858,"AKB0048 Opening.avi"
//Break Periods
//Storyboard Layer 0 (Background)
//Storyboard Layer 1 (Fail)
//Storyboard Layer 2 (Pass)
//Storyboard Layer 3 (Foreground)
//Storyboard Sound Samples
//Background Colour Transformations
3,100,163,162,255

[TimingPoints]
817,379.746835443038,4,2,0,50,1,0
2335,-200,4,2,0,50,0,0
8411,-100,4,2,0,50,0,0
11449,-100,4,2,1,50,0,0
36323,-100,4,2,0,50,0,0
36892,-100,4,2,1,50,0,0
37842,-100,4,2,0,50,0,0
38411,-100,4,2,1,50,0,0
39361,-100,4,2,0,50,0,0
39930,-100,4,2,1,50,0,0
40880,-100,4,2,0,50,0,0
41449,-100,4,2,1,50,0,0
42399,-100,4,2,0,50,0,0
42968,-100,4,2,1,50,0,0
43918,-100,4,2,0,50,0,0
44487,-100,4,2,1,50,0,0
47905,-100,4,2,1,70,0,1
49994,-100,4,2,0,70,0,1
50563,-100,4,2,1,70,0,1
53032,-100,4,2,0,70,0,1
53601,-100,4,2,1,70,0,1
62146,-100,4,2,0,70,0,1
62715,-100,4,2,1,70,0,1
65184,-100,4,2,0,70,0,1
65753,-100,4,2,1,70,0,1
78285,-100,4,2,0,50,0,0

[Colours]
Combo1 : 255,0,0
Combo2 : 0,0,160
Combo3 : 128,0,255
Combo4 : 255,0,255

[HitObjects]
212,236,2335,2,0,B|148:300,2,90,4|2|2
300,236,3854,2,0,B|364:300,2,90,2|2|2
300,148,5373,2,0,B|364:84,2,90,2|2|2
212,148,6892,2,0,B|148:84,2,90,2|2|2
256,192,8411,12,4,11449
428,160,12589,5,8
428,280,12968,1,0
316,328,13348,1,8
196,328,13728,1,0
84,280,14108,1,8
84,160,14487,1,0
204,160,14867,5,8
204,160,15057,2,0,B|220:184|256:192|292:184|309:159,1,120
308,100,15627,2,0,B|292:76|256:68|220:76|203:100,1,120,8|0
92,56,16386,5,8
92,56,16576,2,0,B|68:72|60:108|68:144|92:160,1,120
92,220,17146,2,0,B|68:236|60:272|68:308|92:324,1,120,8|0
212,324,17905,5,8
256,284,18095,2,0,B|376:284,1,120
424,244,18665,2,0,B|448:228|456:192|448:156|423:139,1,120,8|0
420,20,19424,5,8
376,60,19614,2,0,B|256:60,1,120
208,100,20184,2,0,B|184:116|176:152|184:188|208:204,1,120,8|0
276,304,20943,5,8
236,348,21133,2,0,B|176:348|176:348|132:308,1,120
132,248,21703,2,0,B|116:224|80:216|44:224|27:248,1,120,8|0
60,132,22462,5,8
100,88,22652,2,0,B|160:88|160:88|204:128,1,120
204,188,23222,2,0,B|220:212|256:220|292:212|308:187,1,120,8|4
400,112,23981,5,8
400,112,24171,2,0,B|400:232,1,120
460,232,24741,2,0,B|460:356,1,120,8|0
344,332,25500,5,8
344,332,25690,2,0,B|224:332,1,120
224,272,26260,2,0,B|104:272,1,120,8|0
100,152,27019,5,8
100,152,27209,2,0,B|116:176|152:184|188:176|204:151,1,120
204,92,27779,2,0,B|220:68|256:60|292:68|308:93,1,120,8|0
420,140,28538,5,8
420,140,28728,2,0,B|444:156|452:192|444:228|419:244,1,120
360,244,29298,2,0,B|336:260|328:296|336:332|361:348,1,120,8|0
240,348,30057,5,8
240,348,30247,2,0,B|160:348|160:348|128:320,1,120
128,260,30817,2,0,B|97:233|97:233|17:233,1,120,8|0
76,128,31576,5,8
76,128,31766,2,0,B|196:128,1,120
256,128,32335,1,8
256,192,32715,12,0,34234
80,244,35753,6,0,B|96:220|132:212|168:220|184:245,1,120,4|8
184,304,36323,2,0,B|200:340|256:376|312:340|328:304,1,180,0|8
448,296,37272,2,0,B|472:280|480:244|472:208|447:192,1,120,0|8
388,192,37842,2,0,B|352:176|316:120|352:64|388:48,1,180,0|8
268,48,38791,6,0,B|148:48,1,120,0|8
88,48,39361,2,0,B|52:64|16:120|52:176|88:192,1,180,0|8
208,192,40310,2,0,B|328:192,1,120,0|8
388,192,40880,2,0,B|424:208|460:264|424:320|388:336,1,180,0|8
272,308,41829,6,0,B|256:332|220:340|184:332|168:307,1,120,4|8
124,264,42399,2,0,B|88:248|52:192|88:136|124:120,1,180,0|8
240,76,43348,2,0,B|256:52|292:44|328:52|344:77,1,120,0|8
388,120,43918,2,0,B|424:136|460:192|424:248|388:264,1,180,0|8
256,192,44867,12,4,47146
116,268,47905,5,4
196,356,48285,1,8
316,356,48665,1,0
396,268,49044,1,8
432,152,49424,2,0,B|416:127|380:120|344:127|328:153,1,120,0|8
328,216,49994,2,0,B|312:252|256:288|200:252|184:216,1,180,0|8
116,116,50943,5,0
196,28,51323,1,8
316,28,51703,1,0
396,116,52082,1,8
432,232,52462,2,0,B|416:256|380:263|344:256|328:230,1,120,0|8
328,168,53032,2,0,B|312:132|256:96|200:132|184:168,1,180,0|8
152,284,53981,5,0
256,344,54361,1,8
360,284,54741,1,0
360,164,55120,2,0,B|344:188|308:195|272:188|256:162,1,120,8|0
256,100,55690,2,0,B|240:75|204:68|168:75|152:101,1,120
84,200,56449,6,0,B|56:252,2,60,0|8|0
196,244,57209,2,0,B|188:308,2,60,0|8|0
316,244,57968,2,0,B|323:303,2,60,0|8|0
428,200,58728,2,0,B|456:252,2,60,0|8|0
256,144,59677,1,2
180,52,60057,5,4
92,132,60437,1,8
92,252,60816,1,0
180,332,61196,1,8
292,368,61576,2,0,B|317:352|324:316|317:280|291:264,1,120,0|8
232,264,62146,2,0,B|196:248|160:192|196:136|232:120,1,180,0|8
332,52,63095,5,0
420,132,63475,1,8
420,252,63854,1,0
332,332,64234,1,8
216,368,64614,2,0,B|192:352|185:316|192:280|218:264,1,120,0|8
280,264,65184,2,0,B|316:248|352:192|316:136|280:120,1,180,0|8
164,88,66133,5,0
104,192,66513,1,8
164,296,66892,1,0
284,296,67272,2,0,B|260:280|253:244|260:208|286:192,1,120,8|0
348,192,67842,2,0,B|373:176|380:140|373:104|347:88,1,120
232,52,68601,6,0,B|180:24,2,60,0|8|0
144,132,69361,2,0,B|80:124,2,60,0|8|0
144,252,70120,2,0,B|84:259,2,60,0|8|0
232,332,70880,2,0,B|180:360,2,60,0|8|0
256,192,71639,12,4,73728
256,132,74487,5,0
256,252,74867,1,8
256,192,75247,12,4,78285
