osu file format v9

[General]
AudioFilename: NO NAME - Kibou ni Tsuite.mp3
AudioLeadIn: 0
PreviewTime: 47903
Countdown: 0
SampleSet: Soft
StackLeniency: 0.7
Mode: 0
LetterboxInBreaks: 0

[Editor]
DistanceSpacing: 1
BeatDivisor: 2
GridSize: 4

[Metadata]
Title:Kibou ni Tsuite (TV Size)
Artist:NO NAME
Creator:BeatofIke
Version:Easy
Source:AKB0048
Tags:idol opening nich95 merchat7 AKB48 SKE48 NMB48 Satelight

[Difficulty]
HPDrainRate:2
CircleSize:3
OverallDifficulty:2
ApproachRate:3
SliderMultiplier:0.8
SliderTickRate:1

[Events]
//Background and Video events
0,0,"AKB0048 Opening.jpg"
Video,1858,"AKB0048 Opening.avi"
//Break Periods
//Storyboard Layer 0 (Background)
//Storyboard Layer 1 (Fail)
//Storyboard Layer 2 (Pass)
//Storyboard Layer 3 (Foreground)
//Storyboard Sound Samples
//Background Colour Transformations
3,100,163,162,255

[TimingPoints]
817,379.746835443038,4,2,0,50,1,0
2335,-200,4,2,0,50,0,0
8411,-100,4,2,0,50,0,0
11449,-100,4,2,1,50,0,0
47905,-100,4,2,1,75,0,1
78285,-100,4,2,0,50,0,0

[Colours]
Combo1 : 255,0,0
Combo2 : 0,0,160
Combo3 : 128,0,255
Combo4 : 255,0,255

[HitObjects]
136,192,2335,1,6
256,88,3854,1,2
376,192,5373,1,2
256,296,6892,1,2
256,192,8411,12,4,11449
256,264,12589,5,8
192,216,12968,2,0,B|152:204|144:152|152:100|192:88,1,160
256,40,14108,1,8
320,88,14487,6,0,B|360:100|368:152|360:204|320:216,1,160
256,264,15627,1,8
192,312,16006,2,0,B|204:352|256:360|308:352|320:312,1,160
400,312,17146,1,8
460,256,17525,6,0,B|412:192|412:192|460:128,1,160
400,72,18665,1,8
320,72,19044,2,0,B|308:32|256:24|204:32|192:72,1,160
112,72,20184,1,8
52,128,20563,6,0,B|100:192|100:192|52:256,1,160
112,312,21703,1,8
192,312,22082,2,0,B|204:352|256:360|308:352|320:312,2,160,0|0|4
256,80,24741,5,8
188,120,25120,1,0
188,200,25500,1,8
256,240,25880,1,0
324,200,26260,1,8
324,120,26639,6,0,B|484:120,1,160
484,200,27779,1,8
484,280,28158,2,0,B|324:280,1,160
256,324,29298,1,8
188,280,29677,6,0,B|28:280,1,160
28,200,30817,1,8
28,120,31196,2,0,B|188:120,1,160
256,76,32335,1,8
256,192,32715,12,0,34234
256,192,35373,5,8
192,240,35753,2,0,B|204:280|256:288|308:280|320:240,1,160,4|0
384,192,36892,1,8
320,144,37272,2,0,B|308:104|256:96|204:104|192:144,1,160
128,192,38411,1,8
80,256,38791,6,0,B|40:244|32:192|40:140|80:128,1,160
128,64,39930,1,8
192,112,40310,2,0,B|204:152|256:160|308:152|320:112,1,160
384,64,41449,1,8
432,128,41829,6,0,B|472:140|480:192|472:244|432:256,1,160,4|0
384,320,42968,1,8
320,272,43348,2,0,B|308:232|256:224|204:232|192:272,1,160
128,320,44487,1,8
256,192,44867,12,4,47146
192,116,47905,6,0,B|256:68|256:68|320:116,1,160,4|0
348,192,49044,1,8
320,268,49424,2,0,B|256:316|256:316|192:268,1,160
164,192,50563,1,8
112,252,50943,6,0,B|56:308,2,80,0|8|0
56,192,52082,1,8
112,132,52462,2,0,B|56:76,2,80,0|8|0
164,192,53601,1,8
216,132,53981,6,0,B|296:132|296:132|352:76,1,160
432,76,55120,1,8
492,128,55500,2,0,B|444:192|444:192|492:256,1,160
432,308,56639,1,8
352,308,57019,6,0,B|296:252|296:252|216:252,1,160
136,252,58158,1,8
136,332,58538,2,0,B|216:332,2,80,0|8|0
56,192,60057,6,0,B|68:152|120:144|172:152|184:192,1,160,4|0
256,228,61196,1,8
328,192,61576,2,0,B|368:180|376:128|368:76|328:64,1,160
256,24,62715,1,8
184,64,63095,6,0,B|144:76|136:128|144:180|184:192,1,160
256,228,64234,1,8
328,192,64614,2,0,B|340:152|392:144|444:152|456:192,1,160
500,260,65753,1,8
456,328,66133,6,0,B|444:368|392:376|340:368|328:328,1,160,4|0
256,292,67272,1,8
184,328,67652,2,0,B|172:368|120:376|68:368|56:328,1,160
12,260,68791,1,8
56,192,69171,6,0,B|68:152|120:144|172:152|184:192,1,160
256,156,70310,1,8
328,192,70690,2,0,B|368:204|376:256|368:308|328:320,1,160,0|0
256,356,71829,1,8
184,320,72209,6,0,B|144:308|136:256|144:204|184:192,1,160,4|0
256,156,73348,1,8
336,156,73728,2,0,B|416:156,1,80,4|8
496,156,74487,2,0,B|496:72,1,80,0|8
256,192,75247,12,4,78285
