osu file format v9

[General]
AudioFilename: Love Again.mp3
AudioLeadIn: 0
PreviewTime: 59289
Countdown: 0
SampleSet: Soft
StackLeniency: 0.7
Mode: 0
LetterboxInBreaks: 1

[Editor]
Bookmarks: 13861,59289,93361,107289
DistanceSpacing: 0.8
BeatDivisor: 4
GridSize: 8

[Metadata]
Title:Love Again
Artist:NM feat. Mr. E.
Creator:ouranhshc
Version:Normal
Source:Dance Dance Revolution Hottest Party 3
Tags:Xgor

[Difficulty]
HPDrainRate:6
CircleSize:4
OverallDifficulty:6
ApproachRate:6
SliderMultiplier:2
SliderTickRate:2

[Events]
//Background and Video events
0,0,"Love Again.jpg"
//Break Periods
//Storyboard Layer 0 (Background)
//Storyboard Layer 1 (Fail)
//Storyboard Layer 2 (Pass)
//Storyboard Layer 3 (Foreground)
//Storyboard Sound Samples
//Background Colour Transformations
3,100,163,162,255

[TimingPoints]
1086,857.142857142857,4,2,1,70,1,0
59371,-83.3333333333333,4,2,1,70,0,1
93657,-100,4,2,1,70,0,0
105673,882.352941176471,4,2,1,70,1,0
106775,-100,4,2,1,0,0,0

[Colours]
Combo1 : 89,140,183
Combo2 : 155,111,185
Combo3 : 159,57,60
Combo4 : 234,234,234

[HitObjects]
256,40,14371,1,0
168,40,14800,2,0,B|176:120|256:160|320:112|325:86,1,200,0|2
376,40,16085,1,0
464,40,16514,2,0,B|464:96|408:120,2,100,0|0|2
376,40,17800,1,0
288,40,18228,2,0,B|192:40|192:152|288:152,2,200,0|2|0
376,56,20371,5,0
376,144,20800,1,2
376,232,21228,1,0
448,288,21657,2,0,B|408:336|352:320,1,100
320,304,22300,2,0,B|168:304,1,150
80,304,23371,1,0
32,232,23800,6,0,B|32:128,2,100,0|2|0
120,232,25085,2,0,B|120:144|240:144|240:232,1,200,0|2
240,320,26371,1,0
328,320,26800,2,0,B|378:359|435:336|458:280|418:229,1,200,0|2
320,80,28514,2,0,B|320:24|256:-16|192:24|192:80,1,200,0|2
192,168,29800,5,0
256,232,30228,1,0
192,296,30657,1,0
112,344,31085,2,0,B|48:352|16:296,1,100,2|0
96,256,31943,2,0,B|96:152,1,100
96,112,32585,2,0,B|112:64|200:64|216:112,1,150
216,200,33657,1,0
248,288,34085,6,0,B|296:320|344:296,1,100,0|2
424,336,34943,1,0
416,248,35371,2,0,B|416:144,1,100
416,104,36014,2,0,B|400:56|312:56|296:104,1,150
256,184,37085,1,0
168,184,37514,6,0,B|104:192|80:136,2,100,0|2|0
176,272,38800,2,0,B|192:320|256:336|320:320|336:272,1,200,0|2
336,184,40085,1,0
248,176,40514,2,0,B|256:120|304:80|384:88|408:136,1,200,0|2
416,216,41800,1,0
392,304,42228,2,0,B|392:360|328:384|256:360|256:304,1,200,4|2
168,296,43514,5,0
120,296,43728,1,0
80,272,43943,2,0,B|16:272|0:208|16:144|80:144,1,200,0|2
160,184,45228,1,0
208,184,45443,1,0
256,184,45657,2,0,B|408:184,2,150
256,96,47371,2,0,B|256:32|192:16|128:32|128:96,1,200,0|2
128,184,48657,5,0
128,232,48871,1,0
128,280,49085,2,0,B|128:344|192:360|256:344|256:280,1,200,4|2
424,192,50800,1,0
336,192,51228,1,0
248,192,51657,1,2
160,192,52085,1,0
104,264,52514,2,0,B|48:256|24:192|48:128|104:120,1,200,0|2
192,120,53800,1,0
240,120,54014,2,0,B|392:120,1,150
480,120,55085,1,2
432,192,55514,5,0
480,264,55943,1,4
432,336,56371,2,0,B|328:336,1,100,2|2
240,336,57228,2,0,B|176:328|152:272|176:216|240:208,1,200
328,216,58514,1,2
416,216,58943,1,0
496,144,59371,6,0,B|448:96|384:136,1,120.000002861023,4|0
344,224,60228,1,2
328,320,60657,1,0
240,352,61085,2,0,B|120:352,1,120.000002861023
72,352,61728,1,0
8,224,62371,5,0
8,176,62585,1,0
8,128,62800,2,0,B|8:8,2,120.000002861023,0|0|2
80,192,64085,1,0
176,200,64514,2,0,B|232:176|296:200,1,120.000002861023
336,216,65157,2,0,B|392:216|416:160|392:104|336:104,1,180.000004291535
256,56,66228,5,0
176,104,66657,1,0
136,192,67085,1,2
176,280,67514,1,0
256,328,67943,2,0,B|496:328,1,240.000005722046,0|0
496,232,69228,5,0
480,184,69443,1,0
464,136,69657,2,0,B|432:16,2,120.000002861023,0|0|2
480,184,70728,1,0
496,232,70943,2,0,B|512:296|464:352|376:360|328:312,1,240.000005722046
296,288,72014,2,0,B|232:248|152:272|128:320,1,180.000004291535
40,304,73085,6,0,B|-16:272|0:200,2,120.000002861023,4|0|2
112,360,74371,1,0
208,352,74800,2,0,B|272:320|272:256,1,120.000002861023
272,208,75443,1,0
208,88,76085,5,0
256,64,76300,1,0
304,88,76514,2,0,B|424:88,1,120.000002861023,4|0
504,144,77371,2,0,B|536:192|504:264,1,120.000002861023,2|0
408,256,78228,2,0,B|256:256,1,120.000002861023,4|0
240,256,78871,2,0,B|168:256|160:304|168:352|240:352,1,180.000004291535
336,352,79943,6,0,B|336:232,1,120.000002861023,4|0
336,136,80800,1,2
336,136,81014,1,0
240,136,81443,2,0,B|136:136|88:216|136:296|240:296,1,300.000007152558,0|2
320,352,82943,5,0
368,344,83157,1,0
416,328,83371,2,0,B|464:288|464:216,2,120.000002861023,4|0|2
352,256,84657,1,0
336,160,85085,2,0,B|335:96|256:48|176:96|176:160,1,240.000005722046,0|2
176,304,86585,1,0
168,352,86800,2,0,B|112:384|48:352,1,120.000002861023,4|0
32,264,87657,1,2
56,224,87871,6,0,B|120:224,2,60.0000014305115
40,176,88514,2,0,B|80:120|144:120,1,120.000002861023
192,120,89157,1,0
288,96,89585,6,0,B|288:32,2,60.0000014305115
288,144,90228,2,0,B|288:264,1,120.000002861023,4|0
288,312,90871,1,0
128,344,91514,5,0
104,296,91728,1,0
104,248,91943,2,0,B|104:176|184:152|264:176|264:248,1,240.000005722046,4|2
416,344,93657,6,0,B|488:208,2,150
336,336,95371,2,0,B|336:176,2,150
256,336,97085,2,0,B|256:184,2,150
176,336,98800,2,0,B|24:336,2,150
152,264,100514,6,0,B|104:272|48:224|64:168,2,150
232,264,102228,2,0,B|384:264,2,150
200,192,103943,2,0,B|120:56,2,150
304,192,105673,6,0,B|504:192,1,200
256,192,107437,12,0,111408
