osu file format v9

[General]
AudioFilename: Love Again.mp3
AudioLeadIn: 0
PreviewTime: 59289
Countdown: 0
SampleSet: Soft
StackLeniency: 0.7
Mode: 0
LetterboxInBreaks: 1

[Editor]
Bookmarks: 13861,59289,93361,107289
DistanceSpacing: 1.8
BeatDivisor: 4
GridSize: 8

[Metadata]
Title:Love Again
Artist:NM feat. Mr. E.
Creator:ouranhshc
Version:Hard
Source:Dance Dance Revolution Hottest Party 3
Tags:Xgor

[Difficulty]
HPDrainRate:6
CircleSize:4
OverallDifficulty:7
ApproachRate:7
SliderMultiplier:2.2
SliderTickRate:2

[Events]
//Background and Video events
0,0,"Love Again.jpg"
//Break Periods
//Storyboard Layer 0 (Background)
//Storyboard Layer 1 (Fail)
//Storyboard Layer 2 (Pass)
//Storyboard Layer 3 (Foreground)
//Storyboard Sound Samples
//Background Colour Transformations
3,100,163,162,255

[TimingPoints]
1086,857.142857142857,4,2,1,70,1,0
59371,-83.3333333333333,4,2,1,70,0,1
93657,-100,4,2,1,70,0,0
105361,-133.333333333333,4,2,1,50,0,0
105673,882.352941176471,4,2,1,80,1,0
106775,-100,4,2,0,0,0,0

[Colours]
Combo1 : 89,140,183
Combo2 : 155,111,185
Combo3 : 159,57,60
Combo4 : 234,234,234

[HitObjects]
256,32,14371,1,0
184,48,14585,1,0
112,72,14800,2,0,B|120:112|168:136|208:120,2,110,0|0|2
40,192,16085,1,0
88,248,16300,1,0
16,264,16514,2,0,B|32:304|50:323|104:320,2,110,0|0|2
144,208,17800,1,0
288,208,18228,2,0,B|392:208|392:88|288:88,2,220,0|2|0
256,352,20371,5,0
256,352,20585,1,0
328,352,20800,1,2
328,352,21014,1,0
400,352,21228,1,0
400,352,21443,1,0
472,352,21657,2,0,B|472:240,1,110
472,168,22300,2,0,B|416:144|360:168,1,110
304,208,22943,1,0
256,344,23371,1,0
120,304,23800,5,0
80,240,24014,1,0
48,176,24228,2,0,B|112:152|144:208,1,110,2|0
216,192,24871,1,0
192,120,25086,2,0,B|304:120,2,110,0|0|2
80,24,26371,5,0
32,80,26585,1,0
32,152,26800,2,0,B|24:216|72:264,1,110
128,288,27443,2,0,B|240:288,1,110
312,288,28085,1,0
384,288,28300,1,0
416,352,28514,6,0,B|472:320|448:248,2,110,0|0|2
352,224,29800,1,0
304,168,30014,1,0
256,112,30228,1,0
208,168,30443,1,0
160,224,30657,1,0
256,328,31085,2,0,B|256:216,1,110,2|0
204,83,31943,2,0,B|256:55|308:83,1,110
308,154,32585,2,0,B|256:182|204:154,1,110
144,120,33228,1,0
72,136,33443,1,0
32,192,33657,1,0
160,256,34085,5,0
352,256,34514,1,2
256,112,34943,1,0
160,256,35371,2,0,B|208:232,2,55
96,288,36014,2,0,B|128:344|192:320,1,110
232,264,36657,1,0
304,264,36871,1,0
376,264,37085,1,2
496,184,37514,6,0,B|448:152,1,55
384,120,37943,2,0,B|328:120,1,55
256,120,38371,2,0,B|144:120,1,110
256,216,39228,2,0,B|312:216,1,55
256,352,39871,2,0,B|256:296,1,55
184,304,40300,1,0
184,232,40514,2,0,B|184:160|256:152|328:160|328:232,1,220,0|2
448,312,41800,1,0
480,248,42014,1,0
496,176,42228,2,0,B|496:112|432:88,2,110,4|0|2
352,192,43514,5,0
296,144,43728,1,0
224,144,43943,2,0,B|112:144,1,110
40,144,44585,1,0
40,144,44800,1,2
40,288,45228,5,0
96,336,45442,1,0
168,336,45657,2,0,B|280:336,1,110
344,368,46300,2,0,B|360:304|312:272,1,110
240,248,46943,1,0
240,248,47157,1,0
176,216,47371,2,0,B|144:160|176:112,2,110,0|0|2
256,96,48657,5,0
328,96,48871,1,0
376,40,49085,2,0,B|424:88|384:144,2,110,4|0|2
496,120,50371,1,0
488,264,50800,6,0,B|448:304,1,55
400,248,51228,2,0,B|360:288,1,55
312,232,51657,2,0,B|272:272,2,55,2|0|0
368,168,52300,1,0
304,128,52514,2,0,B|192:128,2,110,0|0|2
392,16,53800,1,0
456,48,54014,2,0,B|424:104|352:80,1,110
312,24,54657,2,0,B|200:24,1,110,0|2
128,24,55300,1,0
64,56,55514,1,0
32,120,55728,1,0
48,192,55943,5,4
168,320,56371,1,6
344,320,56800,1,6
464,192,57228,2,0,B|352:192,1,110,4|0
256,88,58085,1,0
160,192,58514,1,6
208,248,58728,1,0
256,304,58943,1,0
304,248,59157,1,0
352,192,59371,6,0,B|424:192,2,66.0000015735627,4|0|0
304,128,60014,1,0
224,128,60228,2,0,B|88:128,1,132.000003147125,2|0
96,48,60871,1,0
176,48,61085,2,0,B|312:48,1,132.000003147125
384,56,61728,2,0,B|448:88|448:168,1,132.000003147125
424,240,62371,1,0
360,280,62585,1,0
280,296,62800,6,0,B|280:240|304:224,1,66.0000015735627
216,224,63228,2,0,B|240:168|280:160,1,66.0000015735627
184,136,63657,1,2
104,136,63871,1,0
24,136,64085,2,0,B|24:208,1,66.0000015735627
16,280,64514,6,0,B|0:344,2,66.0000015735627
80,328,65157,2,0,B|216:328,1,132.000003147125
288,328,65800,1,0
288,328,66014,1,0
368,336,66228,6,0,B|432:312,1,66.0000015735627
376,256,66657,2,0,B|440:224,1,66.0000015735627
376,176,67085,2,0,B|432:144,1,66.0000015735627,2|0
368,96,67514,2,0,B|424:56,1,66.0000015735627
352,16,67943,2,0,B|216:16,2,132.000003147125,0|0|2
208,88,69228,5,0
144,128,69443,1,0
120,200,69657,2,0,B|112:272|168:320,1,132.000003147125,4|0
320,352,70514,1,6
256,304,70728,1,0
256,224,70943,2,0,B|264:168|352:128|424:176,1,198.000004720688
480,224,71800,1,0
464,304,72014,6,0,B|496:336,2,33.0000007867813,0|0|2
400,352,72443,1,0
320,368,72657,1,0
240,352,72871,1,0
200,288,73085,6,0,B|200:216,1,66.0000015735627,4|0
280,248,73514,2,0,B|280:176,1,66.0000015735627
360,200,73943,2,0,B|360:128,2,66.0000015735627,2|0|0
360,280,74585,1,0
296,328,74800,2,0,B|352:384|424:336,1,132.000003147125
440,264,75443,2,0,B|440:128,1,132.000003147125
440,56,76085,1,0
368,24,76300,5,0
368,24,76407,1,0
368,24,76514,2,0,B|288:24,1,66.0000015735627,4|0
256,88,76943,2,0,B|184:88,1,66.0000015735627
144,152,77371,1,2
176,224,77585,1,0
256,240,77800,1,0
336,224,78014,1,0
392,168,78228,2,0,B|440:232|384:288,1,132.000003147125,4|0
320,328,78871,2,0,B|184:328,1,132.000003147125
112,304,79514,1,0
64,240,79728,1,0
40,168,79943,6,0,B|32:96|96:56,1,132.000003147125,0|0
256,56,80800,1,2
176,48,81014,2,0,B|176:120|256:144,1,132.000003147125
328,152,81657,2,0,B|400:152,2,66.0000015735627
280,216,82300,1,0
360,232,82514,2,0,B|336:304|256:296,1,132.000003147125,2|0
200,240,83157,1,0
128,208,83371,6,0,B|160:144,1,66.0000015735627
80,136,83800,2,0,B|112:80,1,66.0000015735627
192,56,84228,2,0,B|328:56,1,132.000003147125,2|0
408,192,85085,6,0,B|480:192,2,66.0000015735627
328,192,85728,1,0
248,192,85943,2,0,B|112:192,1,132.000003147125,2|0
40,192,86585,1,0
24,272,86800,2,0,B|16:344|104:392|192:344|184:272,1,198.000004720688,4|0
232,280,87657,1,2
296,328,87871,5,0
376,344,88085,1,0
440,296,88300,1,0
456,216,88514,2,0,B|456:144,2,66.0000015735627
384,240,89157,2,0,B|384:104,1,132.000003147125
320,56,89800,5,0
256,104,90014,1,0
192,56,90228,2,0,B|160:128|216:176,1,132.000003147125,4|0
296,176,90871,2,0,B|296:312,1,132.000003147125
256,376,91514,1,0
216,308,91729,1,0
216,232,91943,6,0,B|216:96,2,132.000003147125,4|0|2
72,296,93228,1,0
24,240,93443,1,0
16,168,93657,5,0
32,96,93871,1,0
80,40,94085,1,0
152,24,94300,2,0,B|272:24,1,110
336,24,94943,1,0
216,104,95371,6,0,B|160:128|160:192,1,110
200,248,96014,2,0,B|312:248,1,110
352,192,96657,1,0
424,72,97085,6,0,B|384:32,2,55
453,141,97728,2,0,B|484:192|453:245,1,110
424,312,98371,1,0
288,352,98800,5,0
224,320,99014,1,0
288,280,99228,1,0
224,248,99443,2,0,B|256:192|328:216,1,110
360,272,100085,1,0
440,152,100514,6,0,B|352:88,1,110
328,16,101157,2,0,B|272:40|280:112,1,110
296,176,101800,1,0
152,192,102228,6,0,B|96:192,2,55
224,192,102871,2,0,B|240:256|320:248,1,110
296,176,103514,1,0
256,40,103943,6,0,B|144:40,1,110
160,112,104585,2,0,B|272:112,1,110
328,64,105228,1,0
344,264,105673,6,0,B|304:336|256:320|208:336|168:264,1,220
256,192,107437,12,0,111408
