osu file format v9

[General]
AudioFilename: Love Again.mp3
AudioLeadIn: 0
PreviewTime: 59289
Countdown: 0
SampleSet: Soft
StackLeniency: 0.7
Mode: 0
LetterboxInBreaks: 1

[Editor]
Bookmarks: 13861,59289,93361,107289
DistanceSpacing: 1
BeatDivisor: 4
GridSize: 8

[Metadata]
Title:Love Again
Artist:NM feat. Mr. E.
Creator:ouranhshc
Version:Easy
Source:Dance Dance Revolution Hottest Party 3
Tags:Xgor

[Difficulty]
HPDrainRate:3
CircleSize:3
OverallDifficulty:3
ApproachRate:4
SliderMultiplier:1.8
SliderTickRate:2

[Events]
//Background and Video events
0,0,"Love Again.jpg"
//Break Periods
//Storyboard Layer 0 (Background)
//Storyboard Layer 1 (Fail)
//Storyboard Layer 2 (Pass)
//Storyboard Layer 3 (Foreground)
//Storyboard Sound Samples
//Background Colour Transformations
3,100,163,162,255

[TimingPoints]
1086,857.142857142857,4,2,1,70,1,0
59371,-83.3333333333333,4,2,1,70,0,1
93657,-100,4,2,1,70,0,0
105445,-133.333333333333,4,2,1,50,0,0
105673,882.352941176471,4,2,1,60,1,0
106996,-100,4,2,1,0,0,0

[Colours]
Combo1 : 89,140,183
Combo2 : 155,111,185
Combo3 : 159,57,60
Combo4 : 234,234,234

[HitObjects]
256,56,14371,1,0
168,56,14800,2,0,B|160:120|232:176|320:128,1,180,0|2
344,64,16085,1,0
432,64,16514,2,0,B|432:248,2,180,0|2|0
256,64,19085,1,2
96,192,19943,5,0
160,360,20800,2,0,B|352:360,2,180,2|0|2
256,208,23371,1,0
264,32,24228,6,0,B|352:32,1,90,2|0
448,32,25085,2,0,B|496:120|456:216,1,180,0|2
336,336,26800,2,0,B|152:336,2,180,0|2|0
104,192,29800,5,0
32,144,30228,2,0,B|88:80|168:112|192:176,2,180,0|2|0
32,232,32371,1,0
72,312,32800,2,0,B|256:312,1,180,2|0
432,328,34514,5,2
312,192,35371,2,0,B|128:192,2,180,0|2|0
416,40,37943,1,2
464,112,38371,1,0
448,200,38800,6,0,B|400:288|296:264,1,180,0|2
144,328,40514,2,0,B|192:240|296:264,1,180,0|2
256,88,42228,1,4
88,296,43514,5,0
64,208,43943,2,0,B|72:112|176:80,1,180,0|2
352,80,45657,2,0,B|464:80|480:192,2,180,0|2|0
256,232,48228,1,2
208,312,48657,1,0
168,232,49085,6,0,B|176:144|264:120|320:168,1,180,4|2
432,272,50800,2,0,B|472:192|448:96,1,180,0|2
272,48,52514,2,0,B|160:64|160:208|272:232,1,270
360,232,54228,2,0,B|424:248|424:296|424:344|360:360,1,180,0|2
272,360,55514,5,0
184,360,55943,1,4
40,256,56800,1,2
144,104,57657,1,0
288,208,58514,1,2
376,32,59371,6,0,B|480:80|488:208,2,216.000005149841,4|2|4
256,184,61943,1,2
136,32,62800,6,0,B|32:80|24:208,2,216.000005149841,0|2|0
256,184,65371,1,2
152,352,66228,6,0,B|256:384|376:352,1,216.000005149841,0|2
472,192,67943,1,0
232,24,69228,5,0
328,24,69657,2,0,B|448:40|464:168,2,216.000005149841,0|2|0
136,24,72228,5,2
64,88,72657,1,0
40,184,73085,2,0,B|32:304|144:360,2,216.000005149841,4|2|0
232,192,75657,5,2
328,192,76085,1,0
424,200,76514,2,0,B|424:136|368:64|280:96|256:128,2,216.000005149841,4|2|0
256,296,79085,1,2
64,272,79943,6,0,B|0:224|24:112|136:120,1,216.000005149841,4|2
304,56,81657,2,0,B|384:16|464:80|432:160,1,216.000005149841,0|2
352,336,83371,6,0,B|280:368|192:312|200:232,3,216.000005149841,0|2|0|2
144,48,86800,6,0,B|360:48,1,216.000005149841,4|2
496,192,88514,2,0,B|280:192,1,216.000005149841,0|2
448,288,90228,2,0,B|280:288,2,162.000003862381,4|0|0
496,376,91943,2,0,B|272:376,2,216.000005149841,4|2|0
176,328,95371,6,0,B|80:312|48:192|80:72|176:56,2,360
256,184,99657,1,0
336,328,100514,6,0,B|432:312|464:192|432:72|336:56,2,360
256,184,104800,1,0
256,48,105673,6,0,B|440:48,1,180
256,192,107437,12,0,111408
