osu file format v5

[General]
AudioFilename: Sakura ~eureka opening mix~.mp3
AudioLeadIn: 1489
PreviewTime: 64130
Countdown: 0
SampleSet: Normal
StackLeniency: 0.7
Mode: 0
LetterboxInBreaks: 1

[Editor]
Bookmarks: 37820,39341,50646,51950,75211,77602
DistanceSpacing: 1
BeatDivisor: 4
GridSize: 32

[Metadata]
Title:Sakura (TV Size)
Artist:NIRGILIS
Creator:Ryuukun
Version:Normal
Source:Eureka Seven
Tags:Eureka Seven 7 Anime Sakura 4 Opening

[Difficulty]
HPDrainRate:4
CircleSize:4
OverallDifficulty:5
SliderMultiplier:1.4
SliderTickRate:1

[Events]
//Background and Video events
0,0,"Eureka 7 Sakrua BG.jpg"
Video,0,"Eureka seveN Opening 4.avi"
//Break Periods
//Storyboard Layer 0 (Background)
//Storyboard Layer 1 (Fail)
//Storyboard Layer 2 (Pass)
//Storyboard Layer 3 (Foreground)
//Storyboard Sound Samples
//Background Colour Transformations
3,100,215,240,255

[TimingPoints]
4994,434.782608695652,4,1,0,61,1,0
64124,-100,4,1,0,61,0,1
77983,-100,4,1,0,61,0,0
78037,-100,4,1,0,61,0,1
93635,-100,4,1,0,0,0,0

[Colours]
Combo1 : 224,228,54
Combo2 : 101,205,176
Combo3 : 208,177,224

[HitObjects]
80,80,4993,1,0
80,192,5428,1,0
176,256,5863,1,0
288,256,6298,1,0
240,160,6733,1,0
352,160,7167,1,0
288,64,7602,2,0,C|358:64,2,70
176,64,8472,5,0
64,64,8907,1,0
64,176,9341,1,0
128,272,9776,1,0
240,272,10211,1,0
352,272,10646,1,0
304,176,11080,2,0,C|208:176,2,70
416,176,11950,5,0
368,80,12385,1,0
256,80,12820,1,0
144,80,13254,1,0
192,176,13689,1,0
80,176,14124,1,0
144,272,14559,2,0,C|224:272,2,70
256,192,15428,12,0,18907
256,64,19341,5,0
336,144,19776,1,0
336,256,20211,1,0
224,256,20646,1,0
112,256,21080,2,0,C|42:256,1,70
144,48,21950,5,0
256,48,22385,1,0
352,112,22820,2,0,C|352:208,1,70
448,240,23472,2,0,C|448:170,2,70
256,192,24015,12,0,25428
64,255,25863,6,0,B|128:319|208:239,1,140
192,191,26515,1,0
192,127,26733,2,0,B|253:65|317:129,1,140
320,191,27385,1,0
320,255,27602,2,0,B|384:319|464:239,1,140
448,192,28254,1,0
448,128,28472,1,0
384,32,28907,1,0
272,32,29341,5,0
272,144,29776,2,0,C|192:144,2,70
272,256,30646,1,0
256,192,30863,12,0,32385
80,288,32820,5,0
32,192,33254,1,0
144,192,33689,1,0
208,288,34124,1,0
272,192,34559,1,0
336,288,34993,2,0,C|432:288,1,70
400,112,35863,5,0
304,48,36298,1,0
192,48,36733,2,0,C|192:128,1,70
80,112,37385,1,0
80,112,37602,1,0
80,112,37820,2,0,B|80:208|192:304|336:288|416:192|418:99,1,490
336,48,39559,6,0,C|240:48,1,70,0|0
144,48,40211,2,0,C|224:48,2,70,0|0|0
256,128,41080,2,0,C|256:208,2,70,0|0|0
256,310,41950,2,0,C|256:240,2,70
256,192,42820,1,0
64,192,43254,5,0
160,32,43689,1,0
336,32,44124,1,0
432,192,44559,1,0
432,192,44776,1,0
336,352,45211,1,0
336,352,45428,1,0
160,352,45863,1,0
64,192,46298,1,0
256,192,46733,12,0,49341
240,192,49776,6,0,C|336:192,1,70
416,144,50428,1,0
416,144,50646,2,0,B|336:48|240:0|112:64|59:147,1,420
64,304,52602,6,0,C|144:304,1,70
240,304,53254,1,0
256,192,53689,12,0,56298
80,64,56733,6,0,C|160:64,1,70
352,64,57385,1,0
448,192,57820,1,0
272,192,58254,1,0
96,192,58689,1,0
192,320,59124,1,0
352,320,59559,1,0
272,192,59993,1,0
32,32,60646,5,0
480,32,61515,1,0
480,352,62385,1,0
32,352,63254,1,0
192,192,64124,5,0
320,192,64559,1,0
256,96,64993,1,0
256,208,65428,2,0,C|256:288,2,70
256,96,66298,1,0
368,96,66733,6,0,C|432:160,4,70
416,224,68037,2,0,C|352:304,1,70,0|0
288,352,68689,1,0
208,272,69124,1,0
128,352,69559,1,0
64,80,70211,6,0,C|160:80,2,70
96,192,71080,1,0
208,192,71515,1,0
256,192,71733,12,0,73254
448,304,73689,6,0,C|352:304,2,70
320,304,74558,1,0
207,306,74993,1,0
208,304,75211,2,0,B|48:208|97:30|240:96|240:176|240:176|240:96|385:30|448:192|241:350,1,770
64,192,78037,5,0
96,80,78472,1,0
176,144,78907,1,0
288,144,79341,2,0,C|384:144,2,70
320,256,80211,1,0
208,256,80646,6,0,C|112:256,4,70
208,144,81950,2,0,C|304:144,1,70
400,48,82602,1,0
464,192,83037,1,0
400,336,83472,1,0
80,160,84124,6,0,C|80:240,2,70,0|0|0
160,80,84993,1,0
240,160,85428,1,0
256,192,85646,12,0,87167
448,230,87602,6,0,C|448:160,2,70
368,304,88472,1,0
288,224,88907,2,0,C|218:224,1,70,0|0
112,320,89559,5,0
64,192,89994,1,0
128,64,90428,1,0
272,64,90863,1,0
416,64,91298,1,0
256,192,91733,12,0,93689
