osu file format v6

[General]
AudioFilename: Sakura ~eureka opening mix~.mp3
AudioLeadIn: 1489
PreviewTime: 64130
Countdown: 0
SampleSet: Normal
StackLeniency: 0.7
Mode: 0
LetterboxInBreaks: 1

[Editor]
DistanceSpacing: 1
BeatDivisor: 4
GridSize: 32

[Metadata]
Title:Sakura (TV Size)
Artist:NIRGILIS
Creator:Ryuukun
Version:Hard
Source:Eureka Seven
Tags:Eureka Seven 7 Anime Sakura 4 Opening

[Difficulty]
HPDrainRate:6
CircleSize:4
OverallDifficulty:8
SliderMultiplier:2
SliderTickRate:1

[Events]
//Background and Video events
0,0,"Eureka 7 Sakrua BG.jpg"
Video,0,"Eureka seveN Opening 4.avi"
//Break Periods
//Storyboard Layer 0 (Background)
//Storyboard Layer 1 (Fail)
//Storyboard Layer 2 (Pass)
//Storyboard Layer 3 (Foreground)
//Storyboard Sound Samples
//Background Colour Transformations
3,100,215,240,255

[TimingPoints]
4994,434.782608695652,4,1,0,61,1,0
61244,-100,4,1,0,0,0,0
61352,-100,4,1,0,61,0,0
62113,-100,4,1,0,0,0,0
62222,-100,4,1,0,61,0,0
62983,-100,4,1,0,0,0,0
63091,-100,4,1,0,61,0,0
63852,-100,4,1,0,0,0,0
63961,-100,4,1,0,61,0,0
64124,-100,4,1,0,61,0,1
77995,-100,4,1,0,61,0,1
93635,-100,4,1,0,0,0,0

[Colours]
Combo1 : 224,228,54
Combo2 : 101,205,176
Combo3 : 208,177,224

[HitObjects]
368,48,4994,1,0
168,48,5428,1,0
80,232,5863,1,0
160,296,6080,1,0
240,232,6298,1,0
440,232,6733,1,0
336,56,7167,1,0
216,216,7602,2,0,L|248:248|304:200,1,100
248,152,8037,2,0,L|216:120|177:158,1,100,0|0
80,160,8472,1,0
248,56,8907,5,0
432,136,9341,1,0
488,216,9559,1,0
432,296,9776,1,0
248,216,10211,1,0
48,216,10646,1,0
248,216,11080,2,0,L|280:248|336:200,1,100
280,152,11515,2,0,L|248:120|209:158,1,100,0|0
96,160,11950,1,0
224,320,12385,5,0
416,256,12820,1,0
480,160,13037,1,0
416,64,13254,1,0
256,32,13689,1,0
368,32,14124,1,0
128,240,14559,2,0,B|48:320,1,100
112,176,14994,2,0,B|48:80,1,100
256,192,15428,12,0,18907
160,192,19341,5,0
160,192,19776,1,0
160,192,20211,1,0
160,192,20428,1,0
160,192,20646,1,0
160,192,21080,1,0
160,192,21298,1,0
192,224,21733,1,0
288,288,21950,1,0
288,192,22385,5,0
224,96,22820,1,0
256,160,23037,1,0
288,256,23472,1,0
256,192,23689,1,0
192,288,24124,1,0
192,288,24559,1,0
192,288,24776,1,0
192,288,25211,1,0
192,288,25428,1,0
128,192,25863,5,0
64,128,26298,1,0
96,160,26515,1,0
96,160,26733,1,0
96,160,27167,1,0
96,160,27385,1,0
96,160,27602,1,0
192,224,28037,1,0
224,256,28254,1,0
224,256,28472,1,0
320,320,28907,1,0
288,288,29124,5,0
256,256,29341,1,0
192,160,29776,1,0
160,128,29993,1,0
160,64,30211,1,0
160,64,30646,1,0
160,64,30863,1,0
256,96,31298,1,0
224,96,31515,1,0
224,96,31950,5,0
224,96,32167,1,0
192,160,32385,1,0
192,192,32602,1,0
96,160,32820,1,0
96,160,33254,5,0
192,192,33689,1,0
96,128,34124,1,0
128,160,34341,1,0
160,160,34559,1,0
160,160,34993,1,0
160,160,35211,1,0
160,160,35646,1,0
160,160,35863,1,0
160,160,36298,5,0
160,160,36733,1,0
160,160,36950,1,0
160,160,37385,1,0
160,160,37602,1,0
128,128,37820,2,0,C|64:288|480:192|448:256,1,700
192,256,39559,5,0
192,256,39776,1,0
192,256,40211,1,0
192,256,40428,1,0
192,256,40646,1,0
192,256,41080,1,0
192,256,41298,1,0
192,256,41515,1,0
192,256,41950,1,0
192,256,42167,1,0
192,256,42385,1,0
192,160,42820,1,0
192,256,43254,5,0
192,256,43472,1,0
192,256,43689,1,0
192,256,43907,1,0
192,256,44124,1,0
192,256,44559,1,0
192,256,44776,1,0
192,256,45211,1,0
192,256,45428,1,0
192,256,45863,1,0
192,256,46298,1,0
256,192,46733,12,0,49341
64,96,49776,6,0,C|192:96,1,100
96,224,50428,1,0
96,160,50646,2,0,C|224:32|528:336,1,600
288,288,52602,5,0
288,288,52820,1,0
288,288,53255,1,0
256,192,53690,12,0,56299
96,192,56733,5,0
128,160,56951,1,0
64,224,57385,1,0
128,160,57820,1,0
64,224,58255,1,0
160,224,58690,1,0
256,192,59125,1,0
160,224,59559,1,0
256,192,59994,1,0
256,192,60646,12,0,61299
256,192,61516,12,0,62168
256,192,62385,12,0,63038
256,192,63255,12,0,63907
160,160,64125,5,0
128,192,64342,1,0
128,256,64559,1,0
160,128,64994,1,0
128,240,65428,2,0,B|48:320,1,100
112,176,65863,2,0,B|48:80,1,100
296,96,66298,1,0
256,256,66733,5,0
256,256,66951,1,0
256,256,67168,1,0
256,256,67385,1,0
256,256,67603,1,0
256,256,68038,1,0
256,256,68255,1,0
256,256,68690,1,0
256,256,69125,1,0
256,256,69559,1,0
192,96,70211,5,0
224,160,70429,1,0
224,160,70646,1,0
224,160,70864,1,0
192,224,71081,1,0
192,224,71516,1,0
256,192,71733,12,0,73255
128,224,73690,5,0
128,224,73907,1,0
128,224,74125,1,0
128,224,74342,1,0
128,160,74559,1,0
224,192,74994,1,0
192,256,75212,2,0,C|16:32|480:32|288:288,1,1100
160,160,78038,5,0
128,192,78255,1,0
128,256,78472,1,0
160,128,78907,1,0
128,224,79342,1,0
128,224,79559,1,0
128,224,79777,1,0
224,160,80212,1,0
128,240,80646,2,0,B|48:320,1,100
112,176,81081,2,0,B|48:80,1,100
296,96,81516,1,0
224,160,81951,1,0
224,160,82168,1,0
256,256,82603,1,0
256,384,83038,1,0
288,256,83472,1,0
288,96,84125,5,0
288,160,84342,1,0
288,160,84559,1,0
288,160,84777,1,0
288,160,84994,1,0
192,192,85429,1,0
256,192,85646,12,0,87168
96,128,87603,5,0
96,128,87820,1,0
96,128,88038,1,0
96,128,88255,1,0
96,128,88472,1,0
192,192,88907,1,0
160,160,89125,1,0
160,160,89559,5,0
160,160,89994,1,0
160,160,90429,1,0
160,160,90864,1,0
160,160,91299,1,0
256,192,91733,12,0,93690
