osu file format v7

[General]
AudioFilename: 33 - SNOW KISS (TV size).mp3
AudioLeadIn: 0
PreviewTime: 61696
Countdown: 1
SampleSet: Soft
StackLeniency: 0.7
Mode: 1
LetterboxInBreaks: 1

[Editor]
Bookmarks: 34418,69879,29565,29745,29929,36466,36649,48931,49149,29531,29717,36531,48619,48769,48985,55119,55319,86236
DistanceSpacing: 0.800000011920929
BeatDivisor: 4
GridSize: 8

[Metadata]
Title:SNOW KISS (TV size)
Artist:NIRGILIS
Creator:Louis Cyphre
Version:Snowy taiko
Source:D.Gray-Man
Tags:Allan Kanda SadKangaroo Ending wmfchris

[Difficulty]
HPDrainRate:5
CircleSize:5
OverallDifficulty:6
SliderMultiplier:1.6
SliderTickRate:2

[Events]
//Background and Video events
0,0,"d-gray-man-12778-1024x768.jpg"
//Break Periods
//Storyboard Layer 0 (Background)
//Storyboard Layer 1 (Fail)
//Storyboard Layer 2 (Pass)
//Storyboard Layer 3 (Foreground)
//Storyboard Sound Samples
//Background Colour Transformations
3,100,163,162,255

[TimingPoints]
550,382.165605095541,4,2,0,100,1,0
61696,-100,4,2,0,100,0,1
82332,-100,4,2,0,100,0,0

[Colours]
Combo1 : 96,96,96
Combo2 : 255,0,0
Combo3 : 0,117,117
Combo4 : 0,0,255

[HitObjects]
40,48,1696,1,0
40,48,2078,1,0
96,48,2651,1,2
152,48,3225,1,0
152,48,3607,1,0
200,48,4180,1,0
248,48,4753,1,0
248,48,5135,1,0
248,48,5518,1,0
248,48,5709,1,0
248,48,5900,1,2
320,48,6664,1,2
320,48,7046,1,0
320,48,7237,1,0
320,48,7428,1,0
368,48,7811,1,0
368,48,8002,1,2
368,48,8193,1,2
416,48,8575,1,0
416,48,8766,1,2
416,48,8957,1,2
368,48,9148,1,0
416,48,9339,1,2
464,96,9721,1,0
464,144,10104,1,0
464,144,10295,1,0
464,144,10486,1,0
456,192,10868,1,2
456,192,11250,1,0
456,192,11441,1,2
456,192,11632,1,2
448,232,12014,1,2
448,232,12397,1,2
448,232,12492,1,0
448,232,12588,1,0
448,232,12683,1,0
448,232,12779,1,0
432,280,12970,1,0
432,280,13161,1,0
432,280,13352,1,2
432,280,13543,1,0
432,280,13734,1,0
432,280,13925,1,0
432,280,14116,1,0
432,280,14212,1,0
432,280,14307,1,0
432,280,14499,1,2
432,280,14690,1,0
432,280,14881,1,0
432,280,15072,1,0
432,280,15263,1,0
432,280,15454,1,0
432,280,15645,1,0
432,280,15836,1,2
408,320,15932,1,0
408,320,16027,1,0
408,320,16218,1,0
408,320,16409,1,2
408,320,16600,1,0
408,320,16792,1,0
408,320,16983,1,0
352,328,17174,1,0
352,328,17365,1,2
352,328,17556,1,0
352,328,17747,1,2
352,328,17938,1,0
352,328,18129,1,0
352,328,18320,1,0
352,328,18511,1,0
352,328,18702,1,2
352,328,18893,1,4
352,328,19085,1,4
352,328,19276,1,2
352,328,19467,1,0
296,328,19658,1,0
296,328,19753,1,0
296,328,19849,1,0
296,328,19944,1,0
296,328,20040,1,2
240,336,20231,1,0
240,336,20422,1,2
240,336,20613,1,0
240,336,20804,1,2
240,336,20995,1,0
240,336,21186,1,0
240,336,21378,1,0
240,336,21569,1,0
240,336,21760,1,0
240,336,21951,1,0
240,336,22046,1,0
240,336,22142,1,2
240,336,22333,1,2
240,336,22428,1,2
240,336,22524,1,2
240,336,22715,1,0
240,336,22811,1,0
240,336,22906,1,2
192,336,23097,1,0
192,336,23193,1,0
192,336,23288,1,0
192,336,23384,1,0
192,336,23479,1,2
192,336,23575,1,0
192,336,23671,1,0
192,336,23766,1,0
192,336,23862,1,2
192,336,24053,1,2
192,336,24148,1,0
192,336,24244,1,0
192,336,24339,1,0
192,336,24435,1,2
192,336,24626,1,2
192,336,24721,1,2
192,336,24817,1,2
192,336,24913,1,2
192,336,25008,1,0
192,336,25199,1,0
192,336,25390,1,0
192,336,25581,1,0
192,336,25772,1,0
192,336,25964,1,0
192,336,26155,1,2
136,336,26346,1,0
136,336,26441,1,0
136,336,26537,1,0
136,336,26728,1,2
136,336,26919,1,0
136,336,27110,1,0
136,336,27301,1,2
136,336,27492,1,2
136,336,27588,1,2
136,336,27683,1,0
136,336,27874,1,0
136,336,28065,1,2
136,336,28257,1,2
136,336,28448,1,4
136,336,28639,1,4
136,336,28830,1,2
256,192,29021,12,0,30358
48,296,31123,5,0
48,296,31314,1,2
48,296,31505,1,0
48,296,31600,1,0
48,296,31696,1,2
48,296,31792,1,0
48,296,31887,1,0
48,296,32078,1,0
48,296,32269,1,0
48,296,32460,1,2
48,296,32651,1,0
48,296,32842,1,2
48,296,33034,1,2
48,296,33225,1,0
48,296,33416,1,2
48,296,33607,1,2
48,296,33798,1,0
48,296,33989,1,0
48,296,34180,1,0
48,296,34371,1,2
48,296,34562,1,0
48,248,34753,1,2
48,248,34849,1,2
48,248,34945,1,2
48,248,35136,1,0
48,248,35327,1,2
48,248,35518,1,0
48,248,35709,1,2
256,192,35995,12,0,36855
48,48,37237,5,0
48,48,37428,1,0
48,48,37620,1,2
48,48,37811,1,2
48,48,38002,1,0
48,48,38193,1,0
48,48,38384,1,0
48,48,38575,1,0
48,48,38671,1,0
48,48,38766,1,2
48,48,38957,1,0
48,48,39053,1,0
48,48,39148,1,2
48,48,39244,1,2
48,48,39339,1,2
48,48,39530,1,0
48,48,39626,1,0
48,48,39721,1,2
48,48,39913,1,2
48,48,40104,1,2
48,48,40295,1,2
48,48,40486,1,0
48,48,40581,1,0
48,48,40677,1,0
48,48,40772,1,0
48,48,40868,1,0
48,48,40964,1,0
48,48,41059,1,2
48,48,41155,1,2
48,48,41250,1,2
48,48,41346,1,2
48,48,41441,1,2
48,48,41537,1,2
48,48,41632,1,0
88,56,41823,1,2
88,56,42206,1,0
88,56,42301,1,0
88,56,42397,1,0
88,56,42588,1,0
88,56,42779,1,2
88,56,42970,1,2
88,56,43161,1,0
88,56,43352,1,0
88,56,43543,1,0
88,56,43734,1,0
88,56,43925,1,2
88,56,44116,1,0
88,56,44307,1,0
88,56,44499,1,0
88,56,44594,1,0
88,56,44690,1,0
88,56,44881,1,0
88,56,45072,1,0
88,56,45263,1,0
88,56,45454,1,2
88,56,45645,1,0
88,56,45836,1,2
88,56,46027,1,2
88,56,46123,1,2
88,56,46218,1,0
88,56,46314,1,0
88,56,46409,1,0
88,56,46600,1,0
88,56,46792,1,2
88,56,46983,1,0
88,56,47174,1,2
88,56,47365,1,0
88,56,47556,1,4
256,192,47938,12,4,49467
48,48,49849,5,0
48,48,49944,1,0
48,48,50040,1,0
48,48,50135,1,0
48,48,50231,1,2
152,48,50613,1,0
152,48,50804,1,0
152,48,50900,1,0
152,48,50995,1,2
48,112,51378,1,0
48,112,51473,1,0
48,112,51569,1,2
48,112,51664,1,2
48,112,51760,1,2
144,112,52142,1,0
144,112,52237,1,0
144,112,52428,1,0
144,112,52524,1,2
48,168,52906,1,2
48,168,53002,1,2
48,168,53097,1,2
48,168,53193,1,2
48,168,53288,1,2
144,168,53671,1,2
144,168,53862,1,2
144,168,53957,1,0
144,168,54053,1,2
256,192,54435,12,0,55581
248,64,55964,5,0
248,64,56059,1,0
248,64,56155,1,2
248,64,56250,1,0
248,64,56346,1,2
248,64,56728,1,0
248,64,56823,1,0
248,64,57014,1,0
248,64,57110,1,2
312,64,57492,1,2
312,64,57588,1,2
312,64,57683,1,0
312,64,57779,1,0
312,64,57874,1,0
312,64,58257,1,2
312,64,58352,1,2
312,64,58543,1,0
312,64,58639,1,0
368,64,59021,1,0
368,64,59116,1,0
368,64,59212,1,0
368,64,59307,1,0
368,64,59403,1,2
368,64,59499,1,2
368,64,59594,1,2
368,64,59690,1,2
368,64,59785,1,0
416,80,60167,1,0
416,80,60263,1,0
416,80,60358,1,0
416,80,60454,1,0
416,80,60549,1,2
416,80,60645,1,0
416,80,60741,1,0
416,80,60836,1,0
416,80,60932,1,2
416,80,61027,1,2
416,80,61123,1,2
416,80,61218,1,2
416,80,61314,1,0
416,80,61409,1,0
416,80,61505,1,0
416,80,61600,1,0
416,80,61696,1,0
432,128,61887,1,2
432,128,62078,1,0
432,128,62269,1,2
432,128,62460,1,0
432,128,62556,1,0
432,128,62651,1,2
432,128,62842,1,0
432,128,63034,1,2
432,128,63225,1,0
432,160,63320,1,2
432,160,63416,1,2
432,160,63607,1,0
432,160,63798,1,0
432,160,63989,1,0
432,160,64085,1,0
432,208,64276,1,0
432,208,64371,1,0
432,208,64562,1,2
432,208,64753,1,2
432,208,64944,1,2
432,208,65135,1,2
432,208,65327,1,0
432,208,65518,1,0
432,208,65613,1,0
432,208,65709,1,0
432,208,65804,1,0
432,208,65900,1,2
432,208,66091,1,0
432,208,66282,1,0
432,208,66378,1,0
432,208,66473,1,2
432,208,66664,1,2
432,208,66855,1,2
432,208,66951,1,2
432,208,67046,1,2
432,208,67142,1,2
432,208,67237,1,0
432,208,67428,1,2
432,208,67620,1,4
432,208,67811,1,2
432,208,68002,1,4
432,208,68193,1,2
432,208,68384,1,4
432,208,68575,1,4
432,208,68766,1,2
432,208,68862,1,0
432,208,68957,1,0
432,208,69053,1,0
432,208,69148,1,0
432,208,69244,1,0
432,208,69339,1,0
432,264,70104,1,0
432,264,70295,1,0
432,264,70486,1,2
432,264,70677,1,0
432,264,70868,1,0
432,264,71250,1,2
432,264,71632,1,2
432,264,71823,1,0
432,264,72014,1,0
432,264,72206,1,0
432,264,72397,1,0
432,264,72779,1,2
424,312,73161,1,0
424,312,73257,1,0
424,312,73352,1,0
424,312,73448,1,0
424,312,73543,1,2
424,312,73925,1,2
424,312,74116,1,0
424,312,74307,1,2
368,320,74690,1,0
368,320,75072,1,2
368,320,75167,1,2
368,320,75263,1,0
368,320,75358,1,0
368,320,75454,1,0
320,320,75645,1,0
320,320,75741,1,0
320,320,75836,1,2
256,320,76027,1,2
256,320,76123,1,0
256,320,76314,1,0
256,320,76409,1,0
256,320,76600,1,0
256,320,76696,1,0
256,320,76792,1,2
256,320,76983,1,0
256,320,77174,1,0
256,320,77269,1,0
256,320,77365,1,2
256,320,77460,1,0
256,320,77556,1,0
256,320,77747,1,0
256,320,77938,1,2
256,320,78034,1,2
256,320,78129,1,2
208,312,78320,1,0
208,312,78511,1,2
208,312,78607,1,2
208,312,78702,1,2
208,312,78798,1,2
208,312,78893,1,2
208,312,79085,1,0
208,312,79180,1,0
208,312,79276,1,0
208,312,79371,1,0
208,312,79467,1,2
144,312,79658,1,4
144,312,79849,1,6
144,312,80040,1,4
144,312,80231,1,6
144,312,80422,1,4
96,320,80613,1,2
96,320,80804,1,2
96,320,80995,1,0
96,320,81186,1,2
256,192,81569,12,0,82333
448,56,82715,5,0
448,56,82811,1,0
448,56,82906,1,2
448,56,83097,1,2
448,56,83193,1,0
448,56,83288,1,0
448,56,83479,1,0
448,56,83575,1,0
448,56,83671,1,0
448,56,83766,1,0
448,56,83862,1,2
448,56,83957,1,2
448,56,84053,1,2
448,56,84148,1,2
448,56,84244,1,2
448,56,84339,1,2
448,56,84435,1,2
448,56,84530,1,2
448,56,84626,1,0
256,192,85104,12,0,89212
