osu file format v7

[General]
AudioFilename: 33 - SNOW KISS (TV size).mp3
AudioLeadIn: 1500
PreviewTime: 61696
Countdown: 1
SampleSet: Soft
StackLeniency: 0.7
Mode: 0
LetterboxInBreaks: 1

[Editor]
Bookmarks: 34418,69879
DistanceSpacing: 0.800000011920929
BeatDivisor: 4
GridSize: 8

[Metadata]
Title:SNOW KISS (TV size)
Artist:NIRGILIS
Creator:Louis Cyphre
Version:Dark
Source:D.Gray-Man
Tags:Allan Kanda SadKangaroo Ending wmfchris

[Difficulty]
HPDrainRate:7
CircleSize:5
OverallDifficulty:7
SliderMultiplier:1.8
SliderTickRate:2

[Events]
//Background and Video events
0,0,"d-gray-man-12778-1024x768.jpg"
//Break Periods
//Storyboard Layer 0 (Background)
//Storyboard Layer 1 (Fail)
//Storyboard Layer 2 (Pass)
//Storyboard Layer 3 (Foreground)
//Storyboard Sound Samples
//Background Colour Transformations
3,100,163,162,255

[TimingPoints]
550,382.165605095541,4,2,0,100,1,0
61696,-100,4,2,0,100,0,1
81186,-100,4,2,0,100,0,0

[Colours]
Combo1 : 96,96,96
Combo2 : 255,0,0
Combo3 : 0,117,117
Combo4 : 0,0,255

[HitObjects]
40,192,1696,1,0
40,336,2078,2,0,B|160:336|160:80|280:80,1,360
416,88,3225,2,0,B|455:128|423:159|391:192|424:239|439:280,1,180
336,328,4180,2,0,B|232:327|136:295|47:199|24:103|24:31,1,450
32,192,7428,5,0
312,120,8193,2,0,B|336:168|392:216|392:264|360:384|168:416|64:352|136:80,1,630
152,24,9721,1,0
256,192,10104,12,0,12014
88,88,12397,5,0
136,144,12588,1,0
184,200,12780,2,0,B|208:256|232:200|288:200|312:144|336:200,3,180,4|8|0|0
368,256,14116,1,0
400,200,14308,6,0,C|400:184|408:168|392:152|400:144|400:104,1,90
312,16,14881,2,0,C|416:16,1,90
264,64,15263,2,0,C|328:128,1,90,0|8
184,112,15836,6,0,C|176:160|192:208|200:256|192:312,1,180
344,288,16601,2,0,B|495:280|527:88|311:64,2,360
200,288,18511,5,8
128,288,18703,1,0
128,216,18894,2,0,C|90:214|154:182|90:182|154:150|90:150|122:118,2,360
272,232,20804,5,0
328,192,20996,1,0
112,200,21569,6,0,C|71:112|113:31,1,180,8|0
176,168,22333,1,0
248,288,22715,2,0,C|280:320|312:288|312:120|344:88|376:120,1,360
384,192,23671,6,0,B|384:288,1,90
288,176,24244,1,0
256,240,24435,1,0
216,304,24626,5,8
184,304,24722,1,8
144,304,24817,1,8
112,304,24913,1,8
80,304,25008,2,0,C|32:256|64:120|160:96,1,270
216,288,26155,1,0
264,80,26728,6,0,C|188:29|97:100,1,180
120,152,27301,2,0,C|195:202|287:132,1,180
120,152,28066,5,0
32,352,28639,2,0,B|104:352|104:280|24:128|184:208|336:288|272:136|280:48|360:56,1,450
400,40,29785,6,0,C|240:160,1,180
200,192,30359,2,0,C|40:312,1,180
56,160,31123,5,0
272,160,31696,1,0
56,160,32269,1,0
272,160,32843,5,0
128,160,33225,1,0
200,160,33416,1,0
56,160,33798,1,8
56,304,34180,5,0
200,320,34562,1,8
200,248,34753,2,0,B|160:248|120:208|120:152|120:96|160:56|200:56|240:56|296:56|328:88|328:152|312:200,1,450
248,168,35900,6,0,B|240:216|256:256|280:280|312:296|344:304,1,180
392,256,36473,2,0,B|400:208|384:168|360:144|328:128|296:120,1,180,0|8
200,224,37238,6,0,B|136:160|176:120|224:32|296:72|400:64|408:160|384:216|272:272|240:288|184:192|168:144|224:136|264:128|280:152|280:152,1,540,4|0
288,112,38957,6,0,B|384:208,1,90,0|8
376,112,39339,2,0,B|304:184,1,90
184,240,39913,1,8
328,240,40295,5,0
216,144,40677,1,8
288,144,40868,1,0
72,160,41441,1,8
216,168,41824,5,0
216,240,42015,1,0
360,240,42397,1,0
288,240,42588,1,0
368,120,42970,6,0,B|328:88|280:120,3,90
144,120,43925,1,4
360,128,44499,1,8
144,120,45072,5,0
288,120,45454,2,0,B|208:40,1,90
80,56,46027,2,0,B|288:56,1,180,8|0
264,128,46601,2,0,B|80:128,1,180
96,344,47556,1,0
312,328,48129,1,0
400,216,48511,1,0
400,144,48703,1,0
256,128,49085,1,0
256,272,49467,5,4
64,56,50231,1,0
256,272,50996,1,0
456,64,51760,1,0
256,272,52524,5,0
64,56,53289,1,0
352,56,54053,2,0,B|288:64|352:152|256:152|176:152|208:296|160:328|104:328,1,360
264,280,55199,5,0
296,216,55390,1,0
328,152,55582,1,4
40,120,56346,1,0
328,120,57110,1,0
40,120,57874,1,0
328,120,58639,5,0
184,120,59021,2,0,B|88:120,1,90
88,336,59785,1,0
232,336,60167,1,0
256,192,60550,12,4,61314
480,192,61696,6,0,B|384:112|304:192|312:304|144:184,1,360
104,272,63225,2,0,C|56:224|176:72|240:152,1,360
72,352,64753,2,0,B|48:304|72:272|120:208|56:160|56:160,1,180
128,136,65327,2,0,B|131:114|179:154|235:226|275:154|295:157,1,180
368,280,66091,6,0,B|416:240|384:168|338:128|384:96|384:96,1,180
248,176,66855,2,0,B|244:164|273:197|244:236|212:308|260:348,1,180
360,240,67620,1,0
456,128,68002,1,0
312,120,68384,2,0,C|288:80|264:120|240:160|216:120|192:80|168:120|144:160|120:120|96:80|80:56,1,450
256,280,70104,5,0
144,192,70486,1,8
256,96,70868,1,0
360,192,71250,1,8
256,192,71441,12,4,72779
120,152,72970,5,0
192,152,73161,1,0
336,152,73543,1,4
456,232,73925,6,0,C|288:288|88:232,1,360,4|0
400,184,75454,2,0,B|320:32|152:88|104:200,1,360
107,253,76983,6,0,B|-8:181|73:63,1,180,0|8
120,104,77556,2,0,B|188:177|278:75,1,180
208,208,78320,6,0,B|204:308|340:300,1,180
456,224,79085,2,0,B|464:360|320:360,1,180
184,240,80040,6,0,C|272:264|376:240,1,180,0|8
360,176,80613,2,0,C|272:144|180:168,1,180
256,192,81187,12,0,82333
96,128,82715,5,8
168,128,82906,1,0
240,128,83097,1,0
96,128,83480,1,8
256,192,83862,12,0,85390
208,168,85773,5,0
256,112,85964,1,0
304,56,86155,1,0
208,168,86537,1,4
256,192,86919,12,4,89212
