osu file format v9

[General]
AudioFilename: Kiseki.mp3
AudioLeadIn: 2000
PreviewTime: 57735
Countdown: 0
SampleSet: Normal
StackLeniency: 0.3
Mode: 0
LetterboxInBreaks: 0

[Editor]
DistanceSpacing: 1
BeatDivisor: 4
GridSize: 4

[Metadata]
Title:Kiseki (TV Size)
Artist:NIRGILIS
Creator:Yomeiro
Version:Insane
Source:Tetsuwan Birdy Decode
Tags:birdy the mighty

[Difficulty]
HPDrainRate:7
CircleSize:5
OverallDifficulty:9
ApproachRate:8
SliderMultiplier:1.5
SliderTickRate:2

[Events]
//Background and Video events
Video,0,"Kiseki.avi.AVI"
0,0,"Kiseki.jpg"
//Break Periods
//Storyboard Layer 0 (Background)
//Storyboard Layer 1 (Fail)
//Storyboard Layer 2 (Pass)
//Storyboard Layer 3 (Foreground)
//Storyboard Sound Samples
//Background Colour Transformations
3,100,163,162,255

[TimingPoints]
847,444.444444444444,4,1,1,60,1,0
57736,-100,4,1,1,60,0,1
89735,-100,4,1,1,5,0,0

[Colours]
Combo1 : 117,117,255
Combo2 : 170,255,255
Combo3 : 0,108,108
Combo4 : 255,183,183

[HitObjects]
32,120,847,6,0,B|32:196,2,75,4|0|8
108,120,1513,1,0
184,120,1735,1,0
260,120,1958,1,8
260,196,2180,1,2
184,196,2402,1,8
108,196,2624,6,0,B|108:276,2,75,0|0|8
184,196,3291,1,0
260,196,3513,1,0
260,272,3735,1,8
336,272,3958,1,2
336,348,4180,1,8
412,344,4402,6,0,B|412:264,2,75,0|0|8
488,344,5069,1,0
488,268,5291,1,0
488,192,5513,1,8
488,116,5735,1,2
488,40,5958,1,8
408,40,6180,6,0,B|328:40,2,75,0|0|8
332,40,6847,1,0
256,40,7069,1,0
256,116,7291,1,8
256,192,7513,1,2
256,268,7735,1,8
256,348,7958,6,0,B|220:384|184:340,1,75,8|0
190,347,8291,1,0
190,347,8402,1,8
256,348,8624,2,0,B|292:384|328:340,1,75,8|0
321,347,8958,1,0
321,347,9069,1,8
256,268,9291,1,4
256,268,9958,6,0,B|256:120,1,150
156,64,10624,1,4
256,212,11069,1,4
356,64,11513,1,4
256,192,11735,12,0,12847
220,28,13291,6,0,B|308:28,1,75
256,116,13735,2,0,B|256:196,1,75,4|0
256,192,14180,1,4
236,208,14291,1,0
216,224,14402,1,4
256,192,14624,1,4
276,208,14735,1,0
296,224,14847,1,4
256,352,15069,5,0
204,268,15291,1,0
152,352,15513,1,8
204,268,15735,1,8
104,268,15958,1,0
204,268,16180,1,0
152,184,16402,1,8
204,268,16624,1,0
256,184,16847,5,0
204,268,17069,1,0
304,268,17291,1,8
304,268,17513,1,8
356,184,17735,1,0
408,268,17958,1,0
356,184,18180,1,8
456,184,18402,1,0
356,184,18624,5,0
408,96,18846,1,0
356,184,19069,1,8
308,96,19291,1,8
356,184,19513,1,0
256,184,19735,1,0
200,96,19958,2,8,B|124:96,1,75,8|0
48,96,20402,6,0,B|48:176,1,75
48,244,20846,2,8,B|128:244,1,75
200,244,21291,2,0,B|200:168,1,75
124,164,21735,1,8
124,164,21958,1,0
200,164,22180,6,0,B|252:108,1,75,0|0
328,108,22624,2,8,B|384:164,1,75,8|8
384,236,23069,2,8,B|328:292,1,75,0|0
256,288,23513,2,8,B|204:236,1,75,8|8
292,196,23958,1,0
368,196,24180,2,8,B|368:272,1,75,0|8
368,344,24624,1,8
292,344,24846,5,4
244,344,25069,1,4
196,344,25291,1,4
148,344,25513,1,4
76,344,25735,6,0,B|0:344,1,75
0,272,26180,2,8,B|76:272,1,75
76,200,26624,2,0,B|0:200,1,75
4,128,27069,2,8,B|80:128,1,75,8|8
152,128,27513,1,0
228,128,27735,2,8,B|304:128,1,75,0|8
380,128,28180,1,8
380,204,28402,5,4
428,260,28624,1,4
396,328,28846,1,4
328,356,29069,1,4
256,328,29291,6,0,B|256:252,1,75
120,192,29735,2,8,B|196:192,1,75
256,56,30180,2,0,B|256:132,1,75
392,192,30624,2,8,B|316:192,1,75,8|0
256,192,31069,6,8,B|256:268,1,75,0|0
256,192,31513,2,0,B|180:192,1,75,8|8
256,192,31958,2,0,B|332:192,1,75
256,192,32402,2,8,B|256:116,1,75,8|0
308,64,32846,5,0
360,116,33069,1,0
308,172,33291,1,8
256,116,33513,1,8
256,116,33735,5,0
204,64,33958,1,0
148,116,34180,1,8
204,168,34402,1,0
256,116,34624,5,0
308,168,34846,1,0
204,168,35069,1,8
256,224,35291,1,8
256,352,35513,6,0,B|180:352,1,75
256,352,35958,2,8,B|332:352,1,75,8|0
140,280,36402,6,0,B|192:228,1,75
372,280,36846,2,8,B|320:228,1,75
408,144,37291,2,0,B|332:144,1,75
104,144,37735,2,8,B|180:144,1,75,8|8
256,92,38180,1,0
256,16,38402,2,0,B|256:96,1,75,0|8
256,164,38846,1,8
256,368,39069,5,4
256,320,39291,1,4
256,272,39513,1,4
256,224,39735,1,4
372,104,39958,6,0,B|320:156,1,75
140,104,40402,2,8,B|192:156,1,75
104,240,40846,2,0,B|180:240,1,75
408,240,41291,2,8,B|332:240,1,75,8|8
256,292,41735,1,0
256,368,41958,2,0,B|256:292,1,75,0|8
256,220,42402,1,8
256,28,42624,6,0,B|228:56,2,37.5,4|0|4
256,28,43069,2,0,B|284:56,2,37.5,4|0|4
112,196,43513,6,0,B|168:240|216:160|264:200,1,150,4|8
254,194,44180,1,4
396,196,44402,2,0,B|340:240|292:160|244:200,1,150,4|8
254,194,45069,1,4
256,50,45291,2,0,B|300:106|220:154|260:202,1,150,4|8
256,264,45958,1,4
256,356,46180,6,0,B|228:328,2,37.5,4|0|4
256,356,46624,2,0,B|284:328,2,37.5,4|0|4
400,188,47069,6,0,B|344:144|296:224|248:184,1,150,4|8
258,190,47736,1,4
116,188,47958,2,0,B|172:144|220:224|268:184,1,150,4|8
258,190,48625,1,4
256,334,48847,2,0,B|212:278|292:230|252:182,1,150,4|8
260,192,49513,1,4
260,192,49735,6,0,B|228:160,2,37.5,0|0|4
260,192,50180,2,0,B|292:160,2,37.5,0|0|4
256,56,50624,6,0,B|104:56,1,150,4|8
68,120,51291,1,4
104,188,51513,2,0,B|104:340,1,150,4|8
176,364,52180,1,4
248,340,52402,2,0,B|400:340,1,150,4|8
424,268,53069,1,4
400,196,53291,2,0,B|400:44,1,150,4|8
332,16,53958,1,4
332,16,54180,1,4
256,192,54402,12,4,55513
256,96,55958,5,4
256,124,56069,1,0
256,152,56180,1,4
352,192,56402,5,4
324,192,56513,1,0
296,192,56624,1,4
256,288,56846,5,4
256,260,56958,1,0
256,232,57069,1,4
160,192,57291,5,4
188,192,57402,1,0
216,192,57513,1,4
256,132,57735,6,0,B|256:56,1,75,4|0
328,56,58180,2,8,B|404:56,1,75
404,132,58624,2,0,B|480:132,1,75
480,132,59069,1,8
480,208,59291,6,0,B|480:360,3,150,8|8|8|8
404,360,60846,2,0,B|328:360,1,75,8|0
216,360,61291,5,0
104,360,61513,1,0
104,252,61735,2,8,B|104:176,1,75,8|8
104,288,62180,1,0
216,288,62402,1,0
220,176,62624,2,0,B|144:176,1,75,8|0
256,176,63069,5,0
256,64,63291,1,0
256,176,63513,2,0,B|256:252,1,75,8|8
256,140,63958,1,0
256,28,64180,1,0
368,28,64402,5,8
384,48,64513,1,8
392,72,64624,1,8
384,96,64735,1,8
368,116,64846,2,0,B|368:192,1,75,4|0
368,264,65291,2,8,B|368:340,1,75
296,340,65735,2,0,B|220:340,1,75
148,340,66180,1,8
72,340,66402,6,8,B|72:188,3,150,8|8|8|8
240,40,68180,6,8,B|316:40,1,75,0|0
204,40,68624,1,0
204,152,68846,1,8
92,152,69069,2,0,B|168:152,1,75,8|0
56,152,69513,1,0
56,264,69735,1,8
168,264,69958,2,0,B|244:264,1,75,0|0
132,264,70402,1,0
132,376,70624,1,8
244,376,70846,2,0,B|320:376,1,75,8|0
316,264,71291,1,0
428,264,71513,5,8
444,244,71624,1,8
452,220,71735,1,8
444,196,71846,1,8
428,176,71958,2,0,B|428:100,1,75,4|0
424,28,72402,2,8,B|371:80,1,75
308,124,72846,2,0,B|256:72,1,75
204,124,73291,5,8
204,200,73513,2,0,B|204:52,3,150,8|8|8|8
356,48,75291,6,0,B|276:48,1,75,0|0
280,124,75735,1,0
280,200,75958,1,8
356,200,76180,2,0,B|432:200,1,75,8|0
432,124,76624,1,0
508,124,76846,1,8
508,200,77069,6,0,B|508:280,1,75,0|0
432,276,77513,1,0
432,200,77735,1,8
356,200,77958,2,0,B|268:200,1,75,8|0
256,128,78402,1,0
256,272,78624,1,8
256,272,78735,1,8
256,272,78846,1,8
256,356,79069,6,0,B|220:392|184:348,1,75,8|0
190,355,79402,1,0
190,355,79513,1,8
255,356,79735,2,0,B|291:392|327:348,1,75,8|0
320,355,80069,1,0
320,355,80180,1,8
256,272,80402,1,4
256,272,81069,6,0,B|256:124,1,150
156,60,81735,1,4
256,212,82180,1,4
356,60,82624,1,4
256,192,82846,12,0,83958
256,36,84180,6,4,B|256:112,1,75
80,200,84846,1,4
424,200,85291,1,4
256,364,85735,2,4,B|256:284,1,75
256,192,86180,12,4,89735
