osu file format v9

[General]
AudioFilename: Kiseki.mp3
AudioLeadIn: 2000
PreviewTime: 57735
Countdown: 0
SampleSet: Normal
StackLeniency: 0.3
Mode: 0
LetterboxInBreaks: 0

[Editor]
DistanceSpacing: 1
BeatDivisor: 4
GridSize: 4

[Metadata]
Title:Kiseki (TV Size)
Artist:NIRGILIS
Creator:Yomeiro
Version:Hard
Source:Tetsuwan Birdy Decode
Tags:birdy the mighty

[Difficulty]
HPDrainRate:6
CircleSize:4
OverallDifficulty:6
ApproachRate:6
SliderMultiplier:1.5
SliderTickRate:2

[Events]
//Background and Video events
Video,0,"Kiseki.avi.AVI"
0,0,"Kiseki.jpg"
//Break Periods
//Storyboard Layer 0 (Background)
//Storyboard Layer 1 (Fail)
//Storyboard Layer 2 (Pass)
//Storyboard Layer 3 (Foreground)
//Storyboard Sound Samples
//Background Colour Transformations
3,100,163,162,255

[TimingPoints]
847,444.444444444444,4,1,1,60,1,0
57736,-100,4,1,1,60,0,1
89735,-100,4,1,1,5,0,0

[Colours]
Combo1 : 117,117,255
Combo2 : 170,255,255
Combo3 : 0,108,108
Combo4 : 255,183,183

[HitObjects]
48,44,847,2,0,B|48:196,2,150,4|0|0
200,44,2180,1,0
200,120,2402,2,0,B|200:272,2,150,0|0|0
328,44,3735,2,0,B|412:44,1,75,0|8
404,120,4180,2,0,B|320:120,1,75,8|0
328,196,4624,2,0,B|416:196,1,75,0|8
404,272,5069,2,0,B|320:272,1,75,8|0
176,272,5735,5,8
100,272,5958,2,0,B|100:120,1,150,8|0
100,48,6624,2,8,B|176:48,1,75,8|8
180,124,7069,1,0
256,124,7291,1,8
180,124,7513,1,8
256,124,7735,1,0
256,48,7958,6,0,B|408:48,1,150,4|0
404,124,8624,2,4,B|240:124,1,150,4|0
256,200,9291,2,4,B|416:200,1,150,4|0
404,276,9958,2,4,B|244:276,1,150,4|0
256,352,10624,1,0
256,192,11069,1,0
256,28,11513,1,0
256,192,11735,12,0,12847
256,80,13291,5,4
368,192,13735,1,4
256,304,14180,1,4
144,192,14624,1,4
256,276,15069,6,0,B|256:124,3,150,0|8|0|8
256,44,16624,2,0,B|108:44,1,150,0|0
100,192,17513,1,0
256,192,17958,2,0,B|408:192,1,150,0|0
408,268,18624,6,0,B|488:268,1,75
480,192,19069,2,8,B|480:108,1,75,8|0
480,40,19513,2,0,B|328:40,1,150,0|8
330,115,20180,2,0,B|182:115,3,150,0|0|0|8
109,247,21958,5,8
109,247,22180,2,8,B|277:247,1,150,0|8
264,97,23069,1,0
412,124,23513,2,0,B|412:216,1,75,8|8
412,340,24180,2,0,B|256:340,1,150,0|8
188,340,24846,1,4
40,340,25291,1,4
36,196,25735,6,0,B|188:196,3,150,0|8|0|8
260,196,27291,2,0,B|260:48,1,150,8|0
412,48,28180,1,8
488,48,28402,5,4
484,200,28846,1,4
483,350,29291,1,0
333,348,29735,6,0,B|261:216|261:216|192:352,1,300,8|8
118,354,30846,1,0
116,204,31291,2,0,B|116:52,2,150,0|0|0
252,272,32624,6,0,B|332:272,1,75,0|0
328,348,33069,2,0,B|416:348,1,75,0|8
400,272,33513,1,0
476,272,33735,2,0,B|476:124,1,150,0|8
476,48,34402,2,0,B|324:48,1,150,0|0
176,48,35291,1,8
24,48,35735,2,0,B|112:48,1,75,0|8
256,48,36402,5,0
116,188,36846,1,8
256,328,37291,1,0
396,188,37735,2,0,B|396:108,1,75,8|8
396,264,38402,2,0,B|240:264,1,150,0|8
172,264,39069,1,4
24,264,39513,1,4
24,264,39958,6,0,B|24:112,3,150,0|8|0|8
24,40,41513,1,8
168,40,41958,1,0
316,40,42402,1,8
392,40,42624,2,4,B|392:116,1,75,0|0
468,116,43069,2,4,B|468:192,1,75,4|4
468,264,43513,6,0,B|316:264,1,150,0|0
316,340,44180,2,0,B|168:340,1,150,0|0
16,340,45069,1,0
16,192,45513,2,0,B|16:116,1,75,0|8
164,192,46402,5,0
240,192,46624,2,8,B|240:112,1,75,8|0
165,119,47069,2,0,B|165:43|165:43|245:43,1,150,8|0
314,42,47735,1,8
312,192,48180,1,8
309,342,48624,2,8,B|157:342,2,150
312,192,49958,5,0
382,218,50180,1,8
440,265,50402,1,0
450,339,50624,2,0,B|302:339,1,150,8|0
225,338,51291,1,8
163,201,51735,5,4
221,62,52180,1,0
273,201,52624,1,4
331,62,53069,1,0
384,200,53513,1,4
256,192,53958,12,4,55513
36,32,55958,5,8
112,32,56180,2,0,B|112:120,1,75,0|8
112,32,56624,2,0,B|188:32,1,75,0|8
188,108,57069,2,0,B|188:192,1,75,0|8
112,180,57513,1,0
188,184,57735,6,0,B|188:344,3,150,4|8|0|8
264,336,59291,1,0
416,336,59735,1,0
416,188,60180,1,0
416,36,60624,6,0,B|416:116,1,75,0|8
340,112,61069,2,0,B|340:32,1,75,0|8
264,40,61513,2,0,B|264:120,1,75,0|8
188,116,61958,2,0,B|188:36,1,75,0|8
56,116,62624,5,8
56,191,62846,2,0,B|56:343,1,150,8|0
131,341,63513,2,8,B|211:341,1,75,8|0
281,342,63958,2,0,B|281:258,1,75,0|0
206,268,64402,2,8,B|118:268,1,75,8|8
56,268,64846,6,0,B|56:120,3,150,4|8|0|8
56,44,66402,1,0
208,44,66846,1,0
356,44,67291,1,0
356,196,67735,1,0
356,44,68180,6,0,B|444:44,1,75,0|8
432,120,68624,2,0,B|432:200,1,75,0|8
432,268,69069,1,0
356,268,69291,2,0,B|204:268,1,150,8|8
132,268,69958,6,0,B|132:116,1,150,0|0
132,44,70624,2,8,B|208:44,1,75
208,120,71069,2,0,B|284:120,1,75
288,196,71513,2,8,B|364:196,1,75,8|0
436,196,71958,6,0,B|436:48,3,150,4|8|0|8
360,44,73513,2,0,B|360:196,3,150,0|0|0|0
356,344,75291,5,0
281,344,75513,2,0,B|205:344,1,75
131,344,75958,2,8,B|55:344,1,75
54,269,76402,2,0,B|138:269,1,75
204,268,76846,2,8,B|280:268,1,75,8|0
279,118,77513,5,0
280,43,77735,2,8,B|356:43,1,75
430,44,78180,2,0,B|430:120,1,75
430,194,78624,2,8,B|353:194,1,75,8|0
354,269,79069,6,4,B|202:269,1,150,4|0
204,194,79735,2,4,B|356:194,1,150,0|0
355,119,80402,2,4,B|203:119,1,150,0|0
206,44,81069,2,4,B|362:44,1,150,0|0
431,46,81735,1,4
431,195,82180,1,4
256,192,82624,12,0,83735
256,32,84180,6,4,B|256:112,1,75
132,192,84846,1,4
380,192,85291,1,4
256,352,85735,2,4,B|256:272,1,75
256,192,86180,12,4,89735
