osu file format v14

[General]
AudioFilename: OP.mp3
AudioLeadIn: 0
PreviewTime: 2099
Countdown: 0
SampleSet: Soft
StackLeniency: 0.7
Mode: 0
LetterboxInBreaks: 0
WidescreenStoryboard: 0

[Editor]
DistanceSpacing: 1.4
BeatDivisor: 4
GridSize: 4
TimelineZoom: 1.7

[Metadata]
Title:the WORLD ~TV Size~
TitleUnicode:the WORLD ~TVサイズ~
Artist:NIGHTMARE
ArtistUnicode:ナイトメア
Creator:smallboat
Version:Insane
Source:DEATH NOTE
Tags:opening studio avex madhouse heart attack number time death note brain chase battle heaven hell game comic movie survive mystery black red apple killer kira oba tsugumi obata Takeshi ryuk eye m1223961117 dream117er kencho
BeatmapID:943990
BeatmapSetID:438535

[Difficulty]
HPDrainRate:6
CircleSize:4
OverallDifficulty:8
ApproachRate:9
SliderMultiplier:1.6
SliderTickRate:1

[Events]
//Background and Video events
0,0,"bg6.jpg",0,0
Video,0,"video.flv"
//Break Periods
//Storyboard Layer 0 (Background)
//Storyboard Layer 1 (Fail)
//Storyboard Layer 2 (Pass)
//Storyboard Layer 3 (Foreground)
//Storyboard Sound Samples

[TimingPoints]
279,315.789473684211,4,2,1,70,1,0
1226,-100,4,2,1,20,0,0
1384,-100,4,2,6,90,0,0
2173,-100,4,2,1,70,0,0
2647,-90.9090909090909,4,2,1,85,0,1
3910,-90.9090909090909,4,2,4,85,0,1
4068,-90.9090909090909,4,2,1,85,0,1
5173,-90.9090909090909,4,2,4,75,0,1
5331,-90.9090909090909,4,2,1,85,0,1
6436,-90.9090909090909,4,2,3,85,0,1
6594,-90.9090909090909,4,2,1,85,0,1
7700,-90.9090909090909,4,2,7,85,0,1
7857,-90.9090909090909,4,2,1,85,0,1
8963,-90.9090909090909,4,2,6,75,0,1
9121,-90.9090909090909,4,2,1,85,0,1
10226,-90.9090909090909,4,2,1,85,0,1
10384,-90.9090909090909,4,2,1,85,0,1
11489,-90.9090909090909,4,2,6,85,0,1
11647,-90.9090909090909,4,2,1,85,0,1
12752,-100,4,2,4,70,0,0
13226,-100,4,2,1,75,0,0
15279,-100,4,2,3,70,0,0
15436,-100,4,2,1,80,0,0
17805,-100,4,2,4,70,0,0
17963,-100,4,2,1,80,0,0
20331,-100,4,2,7,70,0,0
20489,-100,4,2,1,75,0,0
22384,-100,4,2,7,80,0,0
23015,-100,4,2,1,65,0,0
23963,-100,4,2,1,60,0,0
24752,-100,4,2,1,20,0,0
24910,-100,4,2,5,60,0,0
24963,-100,4,2,5,20,0,0
25068,-166.666666666667,4,2,1,60,0,0
25226,-166.666666666667,4,2,1,20,0,0
25384,-100,4,2,3,95,0,0
25700,-100,4,2,3,20,0,0
25857,-100,4,2,1,75,0,0
30436,-100,4,2,7,70,0,0
30594,-100,4,2,1,75,0,0
32963,-100,4,2,1,75,0,0
33121,-100,4,2,6,70,0,0
33279,-100,4,2,1,75,0,0
35015,-100,4,2,1,85,0,0
35647,-125,4,2,8,80,0,0
38173,-125,4,2,8,85,0,0
39436,-125,4,2,8,90,0,0
40068,-200,4,2,2,90,0,0
40542,-200,4,2,1,5,0,0
40700,-100,4,2,1,80,0,0
40857,-100,4,2,1,80,0,0
43068,-100,4,2,8,80,0,0
43226,-100,4,2,1,80,0,0
45594,-100,4,2,7,80,0,0
45752,-100,4,2,1,80,0,0
46068,-100,4,2,3,70,0,0
47015,-100,4,2,1,70,0,0
48121,-100,4,2,3,80,0,0
48279,-100,4,2,1,80,0,0
49384,-100,4,2,6,70,0,0
49542,-100,4,2,1,80,0,0
49857,-100,4,2,1,85,0,0
50173,-100,4,2,1,90,0,0
50489,-100,4,2,1,20,0,0
50647,-100,4,2,1,80,0,0
51436,-100,4,2,9,95,0,0
51910,-90.9090909090909,4,2,1,85,0,1
53173,-90.9090909090909,4,2,4,85,0,1
53331,-90.9090909090909,4,2,1,85,0,1
54436,-90.9090909090909,4,2,4,75,0,1
54594,-90.9090909090909,4,2,1,85,0,1
55700,-90.9090909090909,4,2,3,85,0,1
55857,-90.9090909090909,4,2,1,85,0,1
56963,-90.9090909090909,4,2,7,85,0,1
57121,-90.9090909090909,4,2,1,85,0,1
58226,-90.9090909090909,4,2,6,75,0,1
58384,-90.9090909090909,4,2,1,85,0,1
59489,-90.9090909090909,4,2,1,85,0,1
59647,-90.9090909090909,4,2,1,85,0,1
60752,-90.9090909090909,4,2,6,85,0,1
60910,-90.9090909090909,4,2,1,85,0,1
62015,-100,4,2,6,70,0,0
62173,-100,4,2,1,80,0,0
63279,-100,4,2,4,80,0,0
63436,-100,4,2,1,80,0,0
64542,-100,4,2,6,75,0,0
64700,-100,4,2,1,80,0,0
65805,-100,4,2,4,80,0,0
65963,-100,4,2,1,80,0,0
67068,-100,4,2,6,70,0,0
67226,-100,4,2,1,80,0,0
68331,-100,4,2,7,80,0,0
68489,-100,4,2,1,80,0,0
69121,-100,4,2,1,70,0,0
69331,-100,4,3,1,60,0,0
69752,-100,4,2,1,70,0,0
69963,-100,4,3,1,60,0,0
70384,-100,4,2,1,70,0,0
70700,342.857142857143,4,2,1,80,1,0
70871,-100,4,2,1,80,0,0
71042,-100,4,2,1,80,0,0
71214,315.789473684211,4,2,1,80,1,0
72161,-100,4,2,8,70,0,0
72319,315.789473684211,4,2,1,80,1,0
73424,-100,4,2,8,70,0,0
73582,-100,4,2,1,80,0,0
74687,-100,4,2,8,70,0,0
74845,-100,4,2,1,80,0,0
75161,-100,4,2,1,90,0,0
76108,-100,4,2,1,80,0,0
76740,-100,4,2,1,70,0,0
77055,-100,4,2,1,30,0,0
77134,-100,4,2,1,5,0,0

[Colours]
Combo1 : 168,168,168
Combo2 : 213,106,0
Combo3 : 0,87,193
Combo4 : 189,0,0

[HitObjects]
256,192,279,12,0,1226,0:0:0:0:
256,192,1384,5,8,0:0:0:0:
423,286,1700,5,8,0:0:0:0:
362,108,1857,1,8,0:0:0:0:
247,218,2015,1,8,0:0:0:0:
175,147,2173,5,0,0:0:0:0:
175,147,2331,2,0,P|150:172|141:231,1,80
312,43,2647,6,0,P|344:28|405:33,1,88.000002685547,4|0,0:0|0:0,0:0:0:0:
451,218,2963,1,0,0:0:0:0:
320,180,3121,1,8,0:0:0:0:
503,135,3279,1,0,0:0:0:0:
469,301,3436,1,0,0:0:0:0:
469,301,3594,2,0,P|425:296|387:273,1,88.000002685547,0|8,0:0|0:0,0:0:0:0:
230,105,3910,6,0,L|339:100,1,88.000002685547,4|0,0:0|0:0,0:0:0:0:
385,194,4226,1,0,0:0:0:0:
216,303,4384,2,0,P|191:277|180:228,1,88.000002685547,2|0,0:0|0:0,0:0:0:0:
302,302,4700,1,0,0:0:0:0:
92,257,4857,2,0,P|87:220|117:157,1,88.000002685547,0|8,0:0|0:0,0:0:0:0:
270,20,5173,6,0,L|286:117,1,88.000002685547,4|0,0:0|0:0,0:0:0:0:
352,281,5489,1,0,0:0:0:0:
352,281,5647,2,0,P|392:276|437:247,1,88.000002685547,2|0,0:0|0:0,0:0:0:0:
160,281,5963,1,0,0:0:0:0:
160,281,6121,2,0,P|120:276|75:247,1,88.000002685547,0|8,0:0|0:0,0:0:0:0:
245,115,6436,6,0,P|281:55|392:47,1,176.000005371094,4|0,0:0|0:0,0:0:0:0:
432,251,6910,2,0,P|384:249|349:220,1,88.000002685547,2|0,0:0|0:0,0:0:0:0:
338,122,7226,1,0,0:0:0:0:
338,122,7384,1,0,0:0:0:0:
292,277,7542,1,8,0:0:0:0:
432,251,7700,6,0,L|422:160,1,88.000002685547,4|0,0:0|0:0,0:0:0:0:
277,282,8015,1,0,0:0:0:0:
197,132,8173,1,2,0:0:0:0:
263,285,8331,1,0,0:0:0:0:
185,130,8489,1,0,0:0:0:0:
53,241,8647,2,0,P|24:210|16:154,1,88.000002685547,0|2,0:0|0:0,0:0:0:0:
173,128,8963,6,0,P|257:108|341:133,1,176.000005371094,4|0,0:0|0:0,0:0:0:0:
251,357,9436,2,0,P|208:351|175:322,1,88.000002685547,2|0,0:0|0:0,0:0:0:0:
263,234,9752,1,0,0:0:0:0:
427,215,9910,2,0,P|426:258|408:298,1,88.000002685547,0|8,0:0|0:0,0:0:0:0:
175,240,10226,6,0,L|277:233,1,88.000002685547,4|0,0:0|0:0,0:0:0:0:
108,296,10542,1,0,0:0:0:0:
248,147,10700,1,2,0:0:0:0:
388,312,10857,2,0,P|403:270|408:227,1,88.000002685547
370,46,11173,5,0,0:0:0:0:
491,136,11331,1,8,0:0:0:0:
305,247,11489,2,0,P|239:258|140:203,1,176.000005371094,4|0,0:0|0:0,0:0:0:0:
266,29,11963,2,0,L|253:123,1,88.000002685547,10|0,0:0|0:0,0:0:0:0:
145,209,12279,5,0,0:0:0:0:
253,116,12436,1,8,0:0:0:0:
305,247,12594,1,8,0:0:0:0:
459,181,12752,2,0,P|427:113|342:86,1,160,4|0,0:0|0:0,0:0:0:0:
225,257,13226,6,0,L|315:245,1,80,8|0,0:0|0:0,0:0:0:0:
409,315,13542,1,0,0:0:0:0:
256,174,13700,1,0,0:0:0:0:
416,59,13857,2,0,L|431:152,1,80,8|0,0:0|0:0,0:0:0:0:
378,246,14173,5,0,0:0:0:0:
260,329,14331,1,0,0:0:0:0:
152,285,14489,2,0,L|73:298,1,80,8|0,0:0|0:0,0:0:0:0:
73,85,14805,2,0,L|152:99,1,80
302,113,15121,1,0,0:0:0:0:
152,285,15279,6,0,L|168:183,1,80,4|0,0:0|0:0,0:0:0:0:
225,16,15594,1,0,0:0:0:0:
387,34,15752,2,0,L|376:113,1,80,8|0,0:0|0:0,0:0:0:0:
311,249,16068,2,0,L|300:329,1,80
470,108,16384,2,0,L|482:29,1,80,8|0,0:0|0:0,0:0:0:0:
505,209,16700,5,0,0:0:0:0:
386,298,16857,1,0,0:0:0:0:
324,148,17015,2,0,L|412:138,1,80,8|0,0:0|0:0,0:0:0:0:
191,287,17331,2,0,L|109:297,1,80,8|0,0:0|0:0,0:0:0:0:
180,145,17647,1,2,0:0:0:0:
386,298,17805,6,0,L|372:196,1,80,4|0,0:0|0:0,0:0:0:0:
301,98,18121,1,0,0:0:0:0:
113,108,18279,2,0,L|24:101,1,80,8|0,0:0|0:0,0:0:0:0:
33,282,18594,2,0,L|113:276,1,80
294,239,18910,2,0,L|288:320,1,80,8|0,0:0|0:0,0:0:0:0:
155,344,19226,5,0,0:0:0:0:
75,187,19384,1,0,0:0:0:0:
186,73,19542,2,0,L|184:153,1,80,8|0,0:0|0:0,0:0:0:0:
328,153,19857,2,0,L|326:73,1,80
256,191,20173,1,2,0:0:0:0:
413,327,20332,6,0,B|436:334|436:334|514:311,1,80,4|0,0:0|0:0,0:0:0:0:
501,170,20647,1,0,0:0:0:0:
341,274,20805,2,0,B|313:282|313:282|262:273,1,80,10|0,0:0|0:0,0:0:0:0:
116,138,21121,2,0,B|141:128|141:128|192:137,1,80
334,192,21436,2,0,B|306:200|306:200|255:191,1,80,10|0,0:0|0:0,0:0:0:0:
109,56,21752,6,0,B|134:46|134:46|185:55,1,80
23,185,22068,2,0,P|14:159|19:104,1,80,10|0,0:0|0:0,0:0:0:0:
103,293,22384,5,8,0:0:0:0:
241,167,22542,1,8,0:0:0:0:
275,341,22700,1,8,0:0:0:0:
154,209,22857,1,8,0:0:0:0:
110,372,23015,5,4,0:0:0:0:
110,372,23173,2,0,B|102:292,1,80,4|0,0:0|0:0,0:0:0:0:
161,114,23489,1,0,0:0:0:0:
367,307,23647,1,10,0:0:0:0:
256,192,23963,5,4,0:0:0:0:
256,192,24042,12,0,24752,0:0:0:0:
139,190,24910,5,8,0:0:0:0:
77,111,25068,2,0,L|69:51,1,47.9999985351563
290,198,25384,6,0,B|249:218|249:218|123:185,1,160,4|0,0:0|0:0,0:0:0:0:
164,359,25857,2,0,P|184:326|187:286,1,80,2|0,0:0|0:0,0:0:0:0:
255,367,26173,1,0,0:0:0:0:
413,293,26331,1,0,0:0:0:0:
347,359,26489,2,0,P|327:326|324:286,1,80,2|0,0:0|0:0,0:0:0:0:
477,222,26805,2,0,P|497:188|500:148,1,80
483,37,27121,1,2,0:0:0:0:
382,159,27279,1,0,0:0:0:0:
257,210,27436,6,0,P|243:176|248:123,1,80
394,171,27752,1,2,0:0:0:0:
224,275,27910,2,0,P|184:275|150:256,1,80
44,102,28226,1,0,0:0:0:0:
222,35,28384,2,0,L|199:130,1,80,10|0,0:0|0:0,0:0:0:0:
91,182,28700,1,0,0:0:0:0:
205,352,28857,6,0,L|228:257,1,80,0|8,0:0|0:0,0:0:0:0:
380,328,29173,1,0,0:0:0:0:
380,328,29331,2,0,P|365:290|368:251,1,80
286,189,29647,1,10,0:0:0:0:
445,275,29805,1,0,0:0:0:0:
507,152,29963,2,0,L|501:72,1,80
387,9,30279,1,8,0:0:0:0:
265,165,30436,6,0,B|217:159|217:159|190:141,1,80,4|0,0:0|0:0,0:0:0:0:
192,8,30752,1,0,0:0:0:0:
82,78,30910,2,0,L|2:83,1,80,10|0,0:0|0:0,0:0:0:0:
23,247,31226,1,0,0:0:0:0:
23,247,31384,1,0,0:0:0:0:
138,342,31542,2,0,B|171:352|171:352|222:336,1,80,10|0,0:0|0:0,0:0:0:0:
402,276,31857,5,0,0:0:0:0:
339,128,32015,1,0,0:0:0:0:
490,161,32173,2,0,P|506:125|508:86,1,80,10|0,0:0|0:0,0:0:0:0:
402,276,32489,2,0,P|389:238|391:198,1,80
414,110,32805,1,0,0:0:0:0:
356,36,32963,1,0,0:0:0:0:
172,128,33121,6,0,P|133:127|97:111,1,80,4|0,0:0|0:0,0:0:0:0:
339,128,33436,2,0,P|378:127|414:111,1,80,10|0,0:0|0:0,0:0:0:0:
256,61,33752,1,0,0:0:0:0:
256,173,33910,1,0,0:0:0:0:
256,286,34068,1,10,0:0:0:0:
256,286,34384,5,8,0:0:0:0:
256,286,34542,1,8,0:0:0:0:
428,264,34700,1,10,0:0:0:0:
428,264,35015,5,8,0:0:0:0:
240,353,35173,1,8,0:0:0:0:
360,156,35331,1,8,0:0:0:0:
148,189,35489,1,8,0:0:0:0:
360,156,35647,6,0,L|364:89,1,64,2|0,0:0|0:0,0:0:0:0:
256,25,35963,1,2,0:0:0:0:
256,25,36121,1,8,0:0:0:0:
152,253,36279,6,0,L|148:186,1,64,2|0,0:0|0:0,0:0:0:0:
256,122,36595,1,2,0:0:0:0:
256,122,36753,1,8,0:0:0:0:
360,345,36910,6,0,L|364:278,1,64,2|8,0:0|0:0,0:0:0:0:
256,214,37226,1,2,0:0:0:0:
256,214,37384,1,8,0:0:0:0:
363,280,37542,6,0,L|427:273,1,64,2|0,0:0|0:0,0:0:0:0:
148,280,37857,2,0,L|85:273,1,64,2|0,0:0|0:0,0:0:0:0:
50,75,38173,6,0,B|64:108|64:108|89:120,1,64,6|0,0:0|0:0,0:0:0:0:
191,103,38489,1,2,0:0:0:0:
256,31,38647,1,8,0:0:0:0:
38,85,38805,6,0,B|52:118|52:118|77:130,1,64,2|0,0:0|0:0,0:0:0:0:
179,113,39121,1,2,0:0:0:0:
244,41,39279,1,8,0:0:0:0:
25,91,39436,6,0,B|39:124|39:124|64:136,1,64,2|8,0:0|0:0,0:0:0:0:
166,119,39752,1,2,0:0:0:0:
231,47,39910,1,8,0:0:0:0:
142,231,40068,6,0,P|193:233|252:180,1,120,10|0,0:0|0:0,0:0:0:0:
310,21,40700,6,0,B|335:6|335:6|385:10,1,80,4|0,0:0|0:0,0:0:0:0:
389,180,41015,2,0,B|372:164|372:164|357:94,1,80,8|0,0:0|0:0,0:0:0:0:
472,110,41331,1,0,0:0:0:0:
296,156,41489,1,0,0:0:0:0:
403,258,41647,2,0,L|385:157,1,80,8|0,0:0|0:0,0:0:0:0:
286,332,41963,5,0,0:0:0:0:
286,332,42121,1,0,0:0:0:0:
140,233,42279,2,0,L|121:128,1,80,8|0,0:0|0:0,0:0:0:0:
283,76,42594,1,0,0:0:0:0:
283,76,42752,1,0,0:0:0:0:
99,28,42910,1,8,0:0:0:0:
296,156,43068,6,0,P|363:156|435:77,1,160,4|0,0:0|0:0,0:0:0:0:
192,2,43542,2,0,L|205:86,1,80,8|0,0:0|0:0,0:0:0:0:
104,165,43857,1,0,0:0:0:0:
242,222,44015,1,0,0:0:0:0:
65,308,44173,2,0,L|53:204,1,80,8|0,0:0|0:0,0:0:0:0:
214,152,44489,5,0,0:0:0:0:
274,294,44647,1,0,0:0:0:0:
418,359,44805,2,0,P|457:354|491:334,1,80,8|0,0:0|0:0,0:0:0:0:
370,184,45121,2,0,P|330:179|296:159,1,80
458,95,45436,1,8,0:0:0:0:
242,222,45594,6,0,P|217:190|214:147,1,80,4|0,0:0|0:0,0:0:0:0:
232,19,45910,1,0,0:0:0:0:
86,45,46068,2,0,L|-10:36,1,80,8|0,0:0|0:0,0:0:0:0:
41,154,46384,1,0,0:0:0:0:
156,22,46542,1,0,0:0:0:0:
267,90,46700,2,0,L|346:97,1,80,8|0,0:0|0:0,0:0:0:0:
489,33,47015,5,0,0:0:0:0:
441,167,47173,1,0,0:0:0:0:
302,224,47331,2,0,P|263:222|207:185,1,80,2|0,0:0|0:0,0:0:0:0:
76,152,47647,1,8,0:0:0:0:
138,267,47805,1,0,0:0:0:0:
9,235,47963,1,8,0:0:0:0:
110,371,48121,6,0,P|184:359|240:265,1,160,4|0,0:0|0:0,0:0:0:0:
281,41,48594,1,8,0:0:0:0:
128,88,48752,1,0,0:0:0:0:
250,205,48910,1,8,0:0:0:0:
194,19,49068,1,0,0:0:0:0:
152,185,49226,1,8,0:0:0:0:
328,149,49384,2,0,P|338:113|369:64,1,80,4|0,0:0|0:0,0:0:0:0:
467,65,49700,1,0,0:0:0:0:
400,279,49857,5,2,0:0:0:0:
112,279,50173,1,10,0:0:0:0:
112,279,50647,6,0,P|79:265|63:221,1,80,4|0,0:0|0:0,0:0:0:0:
52,45,50963,1,8,0:0:0:0:
148,203,51121,1,2,0:0:0:0:
283,92,51279,1,8,0:0:0:0:
445,147,51436,5,2,0:0:0:0:
411,40,51594,2,0,P|444:20|484:19,1,80,2|2,0:0|0:0,0:0:0:0:
361,183,51910,6,0,P|356:140|368:98,1,88.000002685547,4|0,0:0|0:0,0:0:0:0:
509,211,52226,1,0,0:0:0:0:
473,359,52384,1,8,0:0:0:0:
320,251,52542,1,0,0:0:0:0:
403,381,52699,1,0,0:0:0:0:
242,286,52857,2,0,L|252:198,1,88.000002685547,0|8,0:0|0:0,0:0:0:0:
447,106,53173,6,0,L|437:5,1,88.000002685547,4|0,0:0|0:0,0:0:0:0:
324,54,53489,1,0,0:0:0:0:
252,199,53647,2,0,P|207:200|146:174,1,88.000002685547,8|0,0:0|0:0,0:0:0:0:
141,57,53963,1,0,0:0:0:0:
20,194,54121,2,0,P|23:238|58:281,1,88.000002685547,0|8,0:0|0:0,0:0:0:0:
218,123,54436,6,0,P|255:110|305:118,1,88.000002685547,4|0,0:0|0:0,0:0:0:0:
431,186,54752,1,0,0:0:0:0:
275,338,54910,2,0,P|282:295|305:258,1,88.000002685547,8|0,0:0|0:0,0:0:0:0:
424,195,55226,1,0,0:0:0:0:
216,197,55384,2,0,P|177:217|152:253,1,88.000002685547,0|8,0:0|0:0,0:0:0:0:
379,332,55699,6,0,P|460:306|491:226,1,176.000005371094,4|0,0:0|0:0,0:0:0:0:
342,48,56173,2,0,L|328:154,1,88.000002685547,2|0,0:0|0:0,0:0:0:0:
139,157,56489,5,0,0:0:0:0:
302,223,56647,1,0,0:0:0:0:
103,44,56805,1,8,0:0:0:0:
117,254,56963,6,0,P|166:255|215:226,1,88.000002685547,4|0,0:0|0:0,0:0:0:0:
305,82,57278,1,0,0:0:0:0:
139,157,57436,1,2,0:0:0:0:
311,217,57594,1,0,0:0:0:0:
213,80,57752,1,0,0:0:0:0:
51,88,57910,2,0,P|33:127|36:170,1,88.000002685547,0|8,0:0|0:0,0:0:0:0:
201,240,58226,6,0,P|237:163|213:80,1,176.000005371094,4|0,0:0|0:0,0:0:0:0:
3,262,58699,2,0,P|43:267|88:249,1,88.000002685547,2|0,0:0|0:0,0:0:0:0:
145,152,59015,1,0,0:0:0:0:
115,34,59173,2,0,L|27:30,1,88.000002685547,0|8,0:0|0:0,0:0:0:0:
275,85,59489,6,0,B|308:91|308:91|377:78,1,88.000002685547,4|0,0:0|0:0,0:0:0:0:
478,104,59805,1,0,0:0:0:0:
396,221,59963,1,2,0:0:0:0:
258,220,60121,2,0,B|236:228|236:228|162:211,1,88.000002685547
312,108,60436,1,0,0:0:0:0:
312,108,60594,1,8,0:0:0:0:
462,194,60752,6,0,P|490:134|462:24,1,176.000005371094,4|0,0:0|0:0,0:0:0:0:
329,240,61226,2,0,L|316:327,1,88.000002685547,2|0,0:0|0:0,0:0:0:0:
183,144,61542,6,0,L|195:56,1,88.000002685547,2|0,0:0|0:0,0:0:0:0:
106,184,61857,1,2,0:0:0:0:
329,240,62015,6,0,B|347:207|347:207|342:154,1,80,4|0,0:0|0:0,0:0:0:0:
263,60,62331,1,0,0:0:0:0:
263,60,62489,1,2,0:0:0:0:
146,249,62647,1,0,0:0:0:0:
349,232,62805,2,0,B|367:199|367:199|362:146,1,80,10|0,0:0|0:0,0:0:0:0:
281,274,63121,1,8,0:0:0:0:
180,81,63279,6,0,P|102:74|36:116,1,160,4|0,0:0|0:0,0:0:0:0:
47,328,63752,2,0,P|85:311|113:268,1,80,8|0,0:0|0:0,0:0:0:0:
181,82,64068,1,8,0:0:0:0:
264,243,64226,1,0,0:0:0:0:
126,173,64384,1,8,0:0:0:0:
336,258,64542,6,0,B|370:268|370:268|509:229,1,160,4|0,0:0|0:0,0:0:0:0:
282,71,65015,2,0,L|276:156,1,80,2|0,0:0|0:0,0:0:0:0:
180,306,65331,1,8,0:0:0:0:
336,258,65489,1,0,0:0:0:0:
205,108,65647,1,8,0:0:0:0:
361,180,65805,6,0,B|376:0,1,160,4|0,0:0|0:0,0:0:0:0:
423,256,66279,2,0,B|415:350,1,80,2|0,0:0|0:0,0:0:0:0:
509,246,66594,1,8,0:0:0:0:
274,225,66752,1,0,0:0:0:0:
458,178,66910,1,8,0:0:0:0:
321,345,67068,6,0,P|244:353|181:307,1,160,4|0,0:0|0:0,0:0:0:0:
339,125,67542,2,0,P|372:121|421:87,1,80,8|0,0:0|0:0,0:0:0:0:
149,235,67857,2,0,P|116:231|69:197,1,80,8|0,0:0|0:0,0:0:0:0:
154,109,68173,1,8,0:0:0:0:
316,198,68331,6,0,P|336:165|330:101,1,80,4|0,0:0|0:0,0:0:0:0:
248,15,68647,1,8,0:0:0:0:
90,52,68805,1,2,0:0:0:0:
90,52,68884,1,0,0:0:0:0:
90,52,68963,2,0,L|26:47,1,40
14,132,69121,5,10,0:0:0:0:
195,72,69331,1,8,0:0:0:0:
213,254,69542,1,8,0:0:0:0:
498,132,69752,5,10,0:0:0:0:
317,72,69962,1,8,0:0:0:0:
299,254,70173,1,8,0:0:0:0:
512,280,70384,2,0,P|514:241|503:202,1,80,2|0,0:0|0:0,0:0:0:0:
425,101,70700,1,0,0:0:0:0:
322,338,70871,6,0,P|246:318|209:249,1,160,4|0,0:0|0:0,0:0:0:0:
347,68,71371,2,0,L|367:168,1,80,8|0,0:0|0:0,0:0:0:0:
396,261,71687,1,8,0:0:0:0:
260,112,71845,1,0,0:0:0:0:
491,115,72003,1,8,0:0:0:0:
314,256,72161,6,0,B|288:237|288:237|260:112,1,160,4|0,0:0|0:0,0:0:0:0:
212,268,72634,2,0,L|233:365,1,80,8|0,0:0|0:0,0:0:0:0:
314,256,72950,1,8,0:0:0:0:
132,215,73108,1,0,0:0:0:0:
260,112,73266,1,8,0:0:0:0:
416,251,73424,6,0,B|396:75,1,160,4|0,0:0|0:0,0:0:0:0:
23,186,73897,2,0,B|16:220|16:220|29:264,1,80,8|0,0:0|0:0,0:0:0:0:
78,129,74213,1,8,0:0:0:0:
270,132,74371,1,0,0:0:0:0:
56,57,74529,1,8,0:0:0:0:
213,28,74687,6,0,B|189:186,1,160,4|0,0:0|0:0,0:0:0:0:
257,335,75161,5,8,0:0:0:0:
414,252,75319,1,0,0:0:0:0:
257,335,75476,1,8,0:0:0:0:
341,192,75634,1,0,0:0:0:0:
428,340,75792,1,8,0:0:0:0:
27,307,76108,5,4,0:0:0:0:
27,307,76266,1,8,0:0:0:0:
221,48,76582,1,0,0:0:0:0:
341,192,76740,2,0,L|438:192,1,80,10|0,0:0|0:0,0:0:0:0:
256,192,77055,5,4,0:0:0:0:
256,192,77134,12,0,79107,0:0:0:0:
