osu file format v14

[General]
AudioFilename: Haikyuu.mp3
AudioLeadIn: 0
PreviewTime: 43453
Countdown: 0
SampleSet: Soft
StackLeniency: 0.7
Mode: 0
LetterboxInBreaks: 0
WidescreenStoryboard: 0

[Editor]
DistanceSpacing: 1.3
BeatDivisor: 4
GridSize: 4
TimelineZoom: 1

[Metadata]
Title:Tenchi Gaeshi
TitleUnicode:天地ガエシ
Artist:NICO Touches the Walls
ArtistUnicode:NICO Touches the Walls
Creator:-Nya-
Version:Normal
Source:ハイキュー!!
Tags:Haikyuu!! tv size ending ED1 first season
BeatmapID:864269
BeatmapSetID:397016

[Difficulty]
HPDrainRate:4
CircleSize:3.5
OverallDifficulty:4
ApproachRate:5
SliderMultiplier:1.2
SliderTickRate:1

[Events]
//Background and Video events
0,0,"Volleyball!!.jpg",0,0
Video,-238,"optc.flv"
//Break Periods
//Storyboard Layer 0 (Background)
//Storyboard Layer 1 (Fail)
//Storyboard Layer 2 (Pass)
//Storyboard Layer 3 (Foreground)
//Storyboard Sound Samples

[TimingPoints]
2453,500,4,2,1,70,1,0
44453,-100,4,2,1,80,0,1
60328,-100,4,2,1,80,0,0
60453,-100,4,2,1,80,0,1
76453,-100,4,2,1,70,0,0

[Colours]
Combo1 : 0,217,108
Combo2 : 255,137,81
Combo3 : 94,166,255
Combo4 : 247,102,123

[HitObjects]
68,112,2453,6,0,P|104:80|184:72,1,120,4|0,0:0|0:0,0:0:0:0:
240,112,3203,1,8,0:0:0:0:
292,172,3453,2,0,P|328:204|408:212,1,120,0|0,0:0|0:0,0:0:0:0:
472,196,4203,1,8,0:0:0:0:
468,272,4453,2,0,B|444:324|444:324|360:360,2,120
472,196,5703,1,8,0:0:0:0:
456,120,5953,2,0,L|424:68,1,60,0|8,3:3|0:0,0:0:0:0:
348,60,6453,6,0,P|300:64|212:60,1,120,4|0,0:0|0:0,0:0:0:0:
152,52,7203,1,8,0:0:0:0:
96,108,7453,2,0,P|104:168|72:232,1,120,0|0,0:0|0:0,0:0:0:0:
40,288,8203,1,8,0:0:0:0:
108,328,8453,2,0,B|164:308|224:324|224:324|284:296|352:308,1,240,0|4,3:3|0:0,0:0:0:0:
180,40,10453,6,0,P|208:76|216:152,1,120,4|0,0:0|0:0,0:0:0:0:
192,224,11203,1,8,0:0:0:0:
264,248,11453,2,0,B|324:236|324:236|384:236,1,120,0|0,0:0|0:0,0:0:0:0:
448,92,12453,2,0,P|424:60|340:44,2,120
452,172,13703,1,8,0:0:0:0:
456,248,13953,2,0,L|456:320,1,60,0|8,0:0|0:0,0:0:0:0:
392,352,14453,6,0,B|352:344|316:352|316:352|272:340,1,120,0|0,0:0|0:0,0:0:0:0:
204,308,15203,1,8,0:0:0:0:
144,260,15453,2,0,P|108:216|136:136,1,120,0|0,0:0|0:0,0:0:0:0:
260,92,16453,2,0,B|288:80|320:88|320:88|340:64|376:56,1,120
444,40,17203,1,8,0:0:0:0:
448,116,17453,2,0,P|436:184|420:252,1,120,0|0,0:0|0:0,0:0:0:0:
296,320,18453,6,0,P|248:312|168:344,1,120,4|0,0:0|0:0,0:0:0:0:
104,348,19203,1,8,0:0:0:0:
60,284,19453,2,0,L|40:152,1,120,0|0,0:0|0:0,0:0:0:0:
140,44,20453,2,0,B|196:52|196:52|272:48,2,120
64,68,21703,1,8,0:0:0:0:
92,140,21953,2,0,L|140:188,1,60,0|8,0:0|0:0,0:0:0:0:
204,220,22453,6,0,P|244:240|236:312,1,120,0|0,0:0|0:0,0:0:0:0:
296,364,23203,1,8,0:0:0:0:
372,356,23453,2,0,P|452:340|496:324,1,120
468,172,24453,2,0,B|452:144|420:136|420:136|424:100|396:76,1,120
332,52,25203,1,8,0:0:0:0:
256,52,25453,2,0,P|216:68|180:72,1,60,0|8,1:1|0:0,0:0:0:0:
124,88,25953,2,0,P|94:94|67:106,1,60,0|8,1:1|0:0,0:0:0:0:
28,176,26453,6,0,P|20:216|36:316,1,120,4|0,0:0|0:0,0:0:0:0:
72,360,27203,1,8,0:0:0:0:
148,336,27453,2,0,P|204:328|276:352,1,120,0|0,0:0|3:3,0:0:0:0:
364,224,28453,2,0,B|384:176|384:176|380:92,1,120
328,52,29203,1,8,0:0:0:0:
252,52,29453,2,0,P|228:84|152:112,1,120,0|0,0:0|3:3,0:0:0:0:
152,268,30453,6,0,B|184:260|208:284|208:284|236:272|288:292,1,120
340,308,31203,1,8,0:0:0:0:
408,268,31453,2,0,P|440:212|448:136,1,120,0|0,0:0|3:3,0:0:0:0:
332,52,32453,2,0,P|300:64|204:48,1,120
140,48,33203,1,8,0:0:0:0:
108,120,33453,2,0,P|108:204|96:260,1,120,0|0,0:0|3:3,0:0:0:0:
84,316,34203,1,8,0:0:0:0:
160,336,34453,6,0,B|208:328|208:328|280:328,2,120,4|0|0,0:0|0:0|0:0,0:0:0:0:
84,316,35703,1,8,0:0:0:0:
112,244,35953,2,0,L|148:172,1,60,0|8,3:3|0:0,0:0:0:0:
176,120,36453,2,0,P|204:84|296:52,2,120
138,190,37703,1,8,0:0:0:0:
204,232,37953,2,0,P|244:256|272:260,1,60,0|8,3:3|0:0,0:0:0:0:
332,272,38453,6,0,P|400:240|428:176,1,120,4|0,0:0|0:0,0:0:0:0:
432,128,39203,1,8,0:0:0:0:
376,76,39453,2,0,P|308:108|280:172,1,120,0|0,0:0|3:3,0:0:0:0:
276,220,40203,1,8,0:0:0:0:
256,192,40453,12,4,42453,0:0:0:0:
208,40,44453,6,0,P|160:68|120:124,1,120,4|0,0:0|0:0,0:0:0:0:
116,196,45203,1,8,0:0:0:0:
160,260,45453,2,0,P|216:308|248:356,1,120,0|0,0:0|0:0,0:0:0:0:
396,316,46453,2,0,P|448:292|456:228,1,120
428,164,47203,1,8,0:0:0:0:
388,96,47453,2,0,B|352:48|352:48|292:24,1,120,0|0,3:3|0:0,0:0:0:0:
220,24,48203,1,8,0:0:0:0:
168,84,48453,6,0,P|156:140|156:208,1,120,0|0,0:0|0:0,0:0:0:0:
188,272,49203,1,8,0:0:0:0:
264,288,49453,2,0,P|304:296|384:280,1,120,0|0,0:0|0:0,0:0:0:0:
384,124,50453,2,0,B|360:108|320:112|320:112|316:76|284:44,1,120
228,36,51203,1,8,0:0:0:0:
160,72,51453,2,0,P|116:116|64:160,1,120,0|0,3:3|3:3,0:0:0:0:
28,216,52203,1,8,0:0:0:0:
76,280,52453,6,0,B|108:304|112:344|112:344|180:356,2,120,4|0|0,0:0|0:0|0:0,0:0:0:0:
28,216,53703,1,8,0:0:0:0:
92,172,53953,2,0,L|160:136,1,60,0|8,0:0|0:0,0:0:0:0:
220,124,54453,2,0,P|264:120|336:144,1,120
392,200,55203,1,8,0:0:0:0:
356,268,55453,2,0,P|300:289|240:287,1,120,0|0,0:0|3:3,0:0:0:0:
88,264,56453,6,0,P|64:220|96:152,1,120,4|0,0:0|0:0,0:0:0:0:
164,136,57203,1,8,0:0:0:0:
240,124,57453,2,0,P|264:80|232:12,1,120
96,72,58453,2,0,P|44:108|-16:168,1,120,4|0,0:0|0:0,0:0:0:0:
0,224,59203,2,0,P|43:264|93:298,1,120,4|8,0:0|0:0,0:0:0:0:
168,328,59953,2,0,L|232:328,1,60,0|0,3:3|3:3,0:0:0:0:
304,316,60453,6,0,B|352:272|352:272|372:200,2,120,4|0|0,0:0|0:0|0:0,0:0:0:0:
228,328,61703,1,8,0:0:0:0:
216,252,61953,2,0,L|200:176,1,60,0|8,0:0|0:0,0:0:0:0:
188,116,62453,2,0,P|156:80|88:56,2,120,0|0|0,0:0|0:0|3:3,0:0:0:0:
203,193,63703,1,8,0:0:0:0:
144,244,63953,2,0,P|116:264|92:280,1,60,0|8,3:3|0:0,0:0:0:0:
72,352,64453,6,0,P|24:312|28:240,1,120
48,184,65203,1,8,0:0:0:0:
100,124,65453,2,0,P|140:84|200:40,1,120
348,60,66453,2,0,B|368:104|368:104|356:192,1,120
340,252,67203,1,8,0:0:0:0:
268,284,67453,2,0,P|232:296|168:352,1,120,0|0,3:3|3:3,0:0:0:0:
56,244,68453,6,0,B|80:212|104:208|104:208|104:172|124:152,1,120,4|0,0:0|0:0,0:0:0:0:
172,92,69203,1,8,0:0:0:0:
240,56,69453,2,0,L|368:84,1,120
416,224,70453,2,0,P|384:252|296:252,2,120,0|0|0,0:0|0:0|3:3,0:0:0:0:
428,148,71703,1,8,0:0:0:0:
352,128,71953,2,0,L|288:124,1,60,0|8,3:3|0:0,0:0:0:0:
212,124,72453,6,0,P|192:168|144:256,1,120,4|0,0:0|0:0,0:0:0:0:
116,296,73203,1,8,0:0:0:0:
60,240,73453,2,0,P|24:192|40:132,1,120,4|0,0:0|0:0,0:0:0:0:
152,32,74453,1,4,0:0:0:0:
296,92,74953,1,4,0:0:0:0:
324,244,75453,2,0,L|304:320,1,60,0|8,3:3|0:0,0:0:0:0:
232,292,75953,2,0,L|212:368,1,60,0|8,3:3|0:0,0:0:0:0:
140,360,76453,6,0,P|72:336|64:284,1,120,4|0,0:0|0:0,0:0:0:0:
72,216,77203,1,8,0:0:0:0:
116,152,77453,2,0,P|152:104|184:52,1,120
260,32,78203,1,8,0:0:0:0:
336,52,78453,2,0,P|367:103|403:151,1,120
448,216,79203,1,8,0:0:0:0:
424,288,79453,2,0,L|388:336,1,60,0|8,3:3|0:0,0:0:0:0:
312,320,79953,2,0,L|276:368,1,60,0|8,0:0|0:0,0:0:0:0:
204,340,80453,6,0,B|200:304|212:284|212:284|204:248|232:208,1,120,4|0,0:0|0:0,0:0:0:0:
240,148,81203,1,8,0:0:0:0:
256,72,81453,2,0,P|184:48|136:68,1,120
76,100,82203,1,8,0:0:0:0:
60,176,82453,2,0,B|60:220|88:252|88:252|100:312,1,120,4|0,0:0|0:0,0:0:0:0:
148,344,83203,1,8,0:0:0:0:
224,332,83453,2,0,P|260:320|288:232,1,120,0|0,3:3|3:3,0:0:0:0:
276,172,84203,1,8,0:0:0:0:
228,112,84453,5,4,0:0:0:0:
256,192,84953,12,0,88286,1:1:0:0:
