osu file format v14

[General]
AudioFilename: Haikyuu.mp3
AudioLeadIn: 0
PreviewTime: 43453
Countdown: 0
SampleSet: Soft
StackLeniency: 0.7
Mode: 0
LetterboxInBreaks: 0
WidescreenStoryboard: 0

[Editor]
DistanceSpacing: 1.3
BeatDivisor: 4
GridSize: 4
TimelineZoom: 1

[Metadata]
Title:Tenchi Gaeshi
TitleUnicode:天地ガエシ
Artist:NICO Touches the Walls
ArtistUnicode:NICO Touches the Walls
Creator:-Nya-
Version:Insane
Source:ハイキュー!!
Tags:Haikyuu!! tv size ending ED1 first season
BeatmapID:863579
BeatmapSetID:397016

[Difficulty]
HPDrainRate:7
CircleSize:4
OverallDifficulty:8
ApproachRate:8.5
SliderMultiplier:1.6
SliderTickRate:1

[Events]
//Background and Video events
0,0,"Volleyball!!.jpg",0,0
Video,-238,"optc.flv"
//Break Periods
//Storyboard Layer 0 (Background)
//Storyboard Layer 1 (Fail)
//Storyboard Layer 2 (Pass)
//Storyboard Layer 3 (Foreground)
//Storyboard Sound Samples

[TimingPoints]
2453,500,4,2,1,70,1,0
9453,-200,4,2,1,70,0,0
10453,-133.333333333333,4,2,1,70,0,0
25703,-133.333333333333,4,2,1,40,0,0
26203,-133.333333333333,4,2,1,70,0,0
44453,-66.6666666666667,4,2,1,80,0,1
60328,-66.6666666666667,4,2,1,80,0,0
60453,-66.6666666666667,4,2,1,80,0,1
76453,-100,4,2,1,70,0,0

[Colours]
Combo1 : 0,217,108
Combo2 : 255,137,81
Combo3 : 94,166,255
Combo4 : 247,102,123

[HitObjects]
92,56,2453,6,0,L|132:148,1,80,4|8,0:0|0:0,0:0:0:0:
152,196,2828,1,0,0:0:0:0:
184,260,2953,2,0,P|208:296|244:324,1,80,0|8,0:0|0:0,0:0:0:0:
380,320,3453,6,0,P|410:294|432:260,1,80,0|8,0:0|0:0,0:0:0:0:
436,188,3828,1,0,0:0:0:0:
404,124,3953,2,0,L|352:52,1,80,0|8,0:0|0:0,0:0:0:0:
284,48,4328,1,0,3:3:0:0:
212,60,4453,6,0,B|200:100|200:100|164:132,1,80,0|8,3:3|0:0,0:0:0:0:
100,144,4828,1,0,0:0:0:0:
36,180,4953,2,0,P|24:224|32:264,1,80,0|8,0:0|0:0,0:0:0:0:
140,348,5453,2,0,L|220:312,1,80,0|8,0:0|0:0,0:0:0:0:
276,280,5828,1,0,3:3:0:0:
276,280,5953,1,0,3:3:0:0:
356,160,6203,1,8,0:0:0:0:
244,48,6453,6,0,P|196:44|168:56,1,80,4|8,0:0|0:0,0:0:0:0:
104,92,6828,1,0,0:0:0:0:
60,152,6953,2,0,P|48:196|52:232,1,80,0|8,0:0|0:0,0:0:0:0:
192,308,7453,6,0,L|284:288,1,80,0|8,0:0|0:0,0:0:0:0:
340,268,7828,1,0,0:0:0:0:
388,212,7953,1,0,0:0:0:0:
404,140,8078,1,0,0:0:0:0:
376,72,8203,1,8,0:0:0:0:
240,28,8453,1,0,3:3:0:0:
96,40,8703,1,8,0:0:0:0:
72,180,8953,1,0,0:0:0:0:
196,252,9203,1,8,0:0:0:0:
340,268,9453,6,0,P|360:228|320:152,1,120,4|0,0:0|0:0,0:0:0:0:
212,84,10453,5,4,0:0:0:0:
164,180,10703,2,0,P|152:224|152:256,1,60.0000022888184,8|0,0:0|0:0,0:0:0:0:
200,332,11203,1,8,0:0:0:0:
304,356,11453,2,0,L|376:360,1,60.0000022888184,0|8,0:0|0:0,0:0:0:0:
372,252,11953,2,0,L|317:226,1,60.0000022888184,0|8,0:0|0:0,0:0:0:0:
244,132,12453,6,0,P|252:100|268:68,1,60.0000022888184,0|8,0:0|0:0,0:0:0:0:
236,28,12828,1,0,0:0:0:0:
184,20,12953,2,0,L|100:20,1,60.0000022888184,0|8,0:0|0:0,0:0:0:0:
24,64,13453,1,0,0:0:0:0:
136,164,13703,1,8,0:0:0:0:
304,104,13953,1,0,0:0:0:0:
278,119,14078,1,0,0:0:0:0:
260,142,14203,1,8,0:0:0:0:
252,171,14328,1,0,0:0:0:0:
252,200,14453,6,0,P|280:236|316:248,1,60.0000022888184,0|8,0:0|0:0,0:0:0:0:
400,256,14953,2,0,L|452:212,1,60.0000022888184,0|8,0:0|0:0,0:0:0:0:
492,244,15328,1,0,0:0:0:0:
508,296,15453,2,0,L|462:334,1,60.0000022888184,0|8,0:0|0:0,0:0:0:0:
360,368,15953,2,0,P|320:380|280:372,1,60.0000022888184,0|8,0:0|0:0,0:0:0:0:
156,284,16453,6,0,P|148:240|152:204,1,60.0000022888184,0|8,0:0|0:0,0:0:0:0:
152,172,16828,1,0,0:0:0:0:
172,124,16953,2,0,L|212:52,1,60.0000022888184,0|8,0:0|0:0,0:0:0:0:
300,32,17453,1,0,0:0:0:0:
384,100,17703,1,8,0:0:0:0:
380,208,17953,1,0,0:0:0:0:
367,235,18078,1,0,0:0:0:0:
355,262,18203,1,8,0:0:0:0:
343,290,18328,1,0,0:0:0:0:
332,320,18453,5,4,0:0:0:0:
224,340,18703,1,8,0:0:0:0:
124,304,18953,2,0,L|80:260,1,60.0000022888184,0|8,0:0|0:0,0:0:0:0:
68,208,19328,1,0,0:0:0:0:
80,156,19453,2,0,P|92:132|132:88,1,60.0000022888184,0|8,0:0|0:0,0:0:0:0:
216,76,19953,1,0,0:0:0:0:
324,84,20203,1,8,0:0:0:0:
248,160,20453,5,0,0:0:0:0:
356,168,20703,1,8,0:0:0:0:
316,272,20953,1,0,0:0:0:0:
316,282,21078,1,0,0:0:0:0:
317,292,21203,1,8,0:0:0:0:
319,303,21328,1,0,0:0:0:0:
324,312,21453,6,0,P|352:336|384:340,1,60.0000022888184,0|8,0:0|0:0,0:0:0:0:
456,268,21953,1,0,0:0:0:0:
460,238,22078,1,0,0:0:0:0:
464,208,22203,1,8,0:0:0:0:
468,178,22328,1,0,0:0:0:0:
472,148,22453,6,0,L|448:68,1,60.0000022888184,0|8,0:0|0:0,0:0:0:0:
360,40,22953,2,0,P|328:36|292:48,1,60.0000022888184,0|8,0:0|0:0,0:0:0:0:
248,60,23328,1,0,0:0:0:0:
200,88,23453,2,0,L|152:132,1,60.0000022888184,0|8,0:0|0:0,0:0:0:0:
88,212,23953,1,0,0:0:0:0:
80,219,24078,1,0,0:0:0:0:
75,228,24203,1,8,0:0:0:0:
72,238,24328,1,0,0:0:0:0:
72,248,24453,6,0,P|88:296|108:320,1,60.0000022888184,0|8,0:0|0:0,0:0:0:0:
200,320,24953,1,0,0:0:0:0:
229,316,25078,1,0,0:0:0:0:
259,316,25203,1,8,0:0:0:0:
289,321,25328,1,0,0:0:0:0:
320,328,25453,5,0,0:0:0:0:
349,323,25578,1,0,1:1:0:0:
373,305,25703,1,0,1:1:0:0:
408,204,25953,1,0,1:1:0:0:
356,112,26203,1,0,1:0:0:0:
208,48,26453,6,0,P|176:68|136:80,1,60.0000022888184,4|8,0:0|0:0,0:0:0:0:
88,160,26953,2,0,P|120:180|160:192,1,60.0000022888184,0|8,0:0|0:0,0:0:0:0:
244,212,27453,1,0,0:0:0:0:
240,320,27703,1,0,3:3:0:0:
244,328,27828,1,0,3:3:0:0:
248,336,27953,1,0,3:3:0:0:
244,212,28203,1,8,0:0:0:0:
276,168,28328,1,0,0:0:0:0:
308,124,28453,6,0,L|384:84,1,60.0000022888184,0|8,0:0|0:0,0:0:0:0:
496,112,28953,2,0,L|420:152,1,60.0000022888184,0|8,0:0|0:0,0:0:0:0:
360,208,29453,1,0,0:0:0:0:
388,312,29703,1,0,3:3:0:0:
392,320,29828,1,0,3:3:0:0:
396,328,29953,1,0,3:3:0:0:
360,208,30203,1,8,0:0:0:0:
312,180,30328,1,0,0:0:0:0:
268,152,30453,6,0,P|216:136|192:120,1,60.0000022888184,0|8,0:0|0:0,0:0:0:0:
136,28,30953,2,0,P|188:44|212:60,1,60.0000022888184,0|8,0:0|0:0,0:0:0:0:
124,132,31453,1,0,0:0:0:0:
120,240,31703,1,0,3:3:0:0:
124,248,31828,1,0,3:3:0:0:
128,256,31953,1,0,3:3:0:0:
124,132,32203,1,8,0:0:0:0:
172,108,32328,1,0,0:0:0:0:
220,84,32453,6,0,P|240:76|288:40,1,60.0000022888184,0|8,0:0|0:0,0:0:0:0:
388,112,32953,2,0,P|363:128|335:140,1,60.0000022888184,0|8,0:0|0:0,0:0:0:0:
240,192,33453,1,0,0:0:0:0:
256,300,33703,1,0,3:3:0:0:
274,323,33828,1,0,3:3:0:0:
300,336,33953,1,0,3:3:0:0:
330,336,34078,1,0,3:3:0:0:
357,323,34203,1,0,3:3:0:0:
374,299,34328,1,0,3:3:0:0:
380,268,34453,6,0,P|384:224|372:192,1,60.0000022888184,4|8,0:0|0:0,0:0:0:0:
364,156,34828,1,0,0:0:0:0:
344,104,34953,2,0,L|316:36,1,60.0000022888184,0|8,0:0|0:0,0:0:0:0:
216,32,35453,2,0,P|172:36|148:28,1,60.0000022888184,0|8,0:0|0:0,0:0:0:0:
104,28,35828,1,0,3:3:0:0:
104,28,35953,1,0,3:3:0:0:
36,112,36203,1,8,0:0:0:0:
44,232,36453,6,0,P|56:268|56:300,1,60.0000022888184,0|8,0:0|0:0,0:0:0:0:
60,348,36828,1,0,0:0:0:0:
120,352,36953,2,0,L|184:336,1,60.0000022888184,0|8,0:0|0:0,0:0:0:0:
252,244,37453,2,0,L|193:258,1,60.0000022888184,0|8,0:0|0:0,0:0:0:0:
136,268,37828,1,0,3:3:0:0:
136,268,37953,1,0,3:3:0:0:
252,244,38203,1,8,0:0:0:0:
348,172,38453,6,0,P|364:132|364:96,1,60.0000022888184,4|8,0:0|0:0,0:0:0:0:
368,60,38828,1,0,0:0:0:0:
420,44,38953,2,0,L|488:24,1,60.0000022888184,0|8,0:0|0:0,0:0:0:0:
496,132,39453,2,0,P|492:176|492:220,1,60.0000022888184,0|8,0:0|0:0,0:0:0:0:
484,300,39953,1,0,3:3:0:0:
461,319,40078,1,0,3:3:0:0:
433,329,40203,1,0,3:3:0:0:
403,330,40328,1,0,3:3:0:0:
376,320,40453,5,4,0:0:0:0:
224,216,40703,1,8,0:0:0:0:
400,212,40953,1,0,0:0:0:0:
200,320,41203,1,8,0:0:0:0:
400,212,41453,1,0,3:3:0:0:
402,201,41578,1,0,3:3:0:0:
404,191,41703,1,0,3:3:0:0:
406,181,41828,1,0,3:3:0:0:
412,152,41953,5,0,3:3:0:0:
414,122,42078,1,0,3:3:0:0:
406,93,42203,1,0,3:3:0:0:
387,70,42328,1,0,3:3:0:0:
361,56,42453,1,4,0:0:0:0:
352,56,43453,5,0,3:3:0:0:
340,56,43953,1,0,3:3:0:0:
328,56,44453,6,0,P|288:60|204:96,1,120.000004577637,4|8,0:0|0:0,0:0:0:0:
164,148,44828,1,0,0:0:0:0:
136,220,44953,2,0,P|132:288|176:324,1,120.000004577637,0|8,0:0|0:0,0:0:0:0:
240,344,45328,1,0,0:0:0:0:
240,344,45453,1,0,0:0:0:0:
380,276,45703,1,8,0:0:0:0:
428,128,45953,2,0,L|388:64,1,60.0000022888184
324,44,46203,1,8,0:0:0:0:
168,56,46453,6,0,L|128:112,1,60.0000022888184
100,176,46703,1,8,0:0:0:0:
96,252,46828,2,0,P|152:232|176:180,1,120.000004577637
224,120,47203,1,8,0:0:0:0:
316,248,47453,1,0,3:3:0:0:
356,292,47578,1,0,3:3:0:0:
404,328,47703,2,0,P|456:312|476:244,1,120.000004577637,8|0,0:0|0:0,0:0:0:0:
476,176,48078,1,0,0:0:0:0:
476,176,48203,1,8,0:0:0:0:
388,48,48453,6,0,P|316:48|268:32,1,120.000004577637,0|8,0:0|0:0,0:0:0:0:
192,20,48828,1,0,0:0:0:0:
120,52,48953,2,0,P|56:152|40:184,1,120.000004577637,0|8,0:0|0:0,0:0:0:0:
32,228,49328,1,0,0:0:0:0:
32,228,49453,1,0,0:0:0:0:
80,376,49703,1,8,0:0:0:0:
204,280,49953,2,0,L|248:212,1,60.0000022888184
284,168,50203,1,8,0:0:0:0:
436,132,50453,6,0,P|436:200|412:248,1,120.000004577637,0|8,0:0|0:0,0:0:0:0:
364,308,50828,1,0,0:0:0:0:
288,337,50953,2,0,P|228:329|204:273,1,120.000004577637,0|8,0:0|0:0,0:0:0:0:
208,200,51328,1,0,3:3:0:0:
184,144,51453,1,0,3:3:0:0:
160,88,51578,1,0,3:3:0:0:
136,32,51703,1,0,3:3:0:0:
16,132,51953,1,0,3:3:0:0:
44,284,52203,1,8,0:0:0:0:
48,300,52328,1,0,0:0:0:0:
56,316,52453,6,0,B|104:356|104:356|176:368,1,120.000004577637,4|8,0:0|0:0,0:0:0:0:
240,364,52828,1,0,0:0:0:0:
316,348,52953,2,0,P|376:300|388:248,1,120.000004577637,0|8,0:0|0:0,0:0:0:0:
376,184,53328,1,0,0:0:0:0:
360,108,53453,2,0,P|300:68|240:40,1,120.000004577637,0|8,0:0|0:0,0:0:0:0:
176,32,53828,1,0,0:0:0:0:
176,32,53953,1,0,0:0:0:0:
56,132,54203,1,8,0:0:0:0:
92,284,54453,6,0,P|120:324|196:308,1,120.000004577637,0|8,0:0|0:0,0:0:0:0:
228,252,54828,1,0,0:0:0:0:
260,180,54953,2,0,L|284:124,1,60.0000022888184
316,52,55203,1,8,0:0:0:0:
392,32,55328,2,0,P|444:52|488:112,1,120.000004577637,0|0,0:0|3:3,0:0:0:0:
480,180,55703,1,8,0:0:0:0:
432,328,55953,1,0,3:3:0:0:
276,332,56203,1,8,0:0:0:0:
260,328,56328,1,0,0:0:0:0:
244,324,56453,6,0,P|188:304|140:232,1,120.000004577637,4|8,0:0|0:0,0:0:0:0:
112,188,56828,1,0,0:0:0:0:
104,112,56953,2,0,P|152:64|196:28,1,120.000004577637,0|8,0:0|0:0,0:0:0:0:
268,24,57328,1,0,0:0:0:0:
268,24,57453,1,0,0:0:0:0:
380,132,57703,1,8,0:0:0:0:
364,288,57953,1,0,0:0:0:0:
236,196,58203,1,8,0:0:0:0:
380,132,58453,6,0,P|436:168|464:224,1,120.000004577637,4|8,0:0|0:0,0:0:0:0:
464,296,58828,1,0,0:0:0:0:
464,296,58953,1,0,0:0:0:0:
320,360,59203,1,4,0:0:0:0:
168,332,59453,1,0,3:3:0:0:
124,291,59578,1,0,3:3:0:0:
124,232,59703,1,0,3:3:0:0:
172,196,59828,1,0,3:3:0:0:
236,196,59953,1,0,3:3:0:0:
288,168,60078,1,0,3:3:0:0:
288,108,60203,1,0,3:3:0:0:
260,56,60328,1,0,3:3:0:0:
304,16,60453,6,0,P|372:40|400:80,1,120.000004577637,4|8,0:0|0:0,0:0:0:0:
432,148,60828,1,0,0:0:0:0:
432,224,60953,2,0,L|316:288,1,120.000004577637,0|8,0:0|0:0,0:0:0:0:
252,312,61328,1,0,0:0:0:0:
252,312,61453,1,0,0:0:0:0:
106,235,61703,1,8,0:0:0:0:
116,80,61953,1,0,0:0:0:0:
128,68,62078,1,0,0:0:0:0:
144,56,62203,1,8,0:0:0:0:
160,44,62328,1,0,0:0:0:0:
176,32,62453,6,0,B|236:40|236:40|300:72,1,120.000004577637,0|8,0:0|0:0,0:0:0:0:
344,124,62828,1,0,0:0:0:0:
368,200,62953,2,0,P|356:264|368:332,1,120.000004577637,0|8,0:0|0:0,0:0:0:0:
208,348,63453,1,0,3:3:0:0:
207,336,63578,1,0,3:3:0:0:
207,324,63703,1,8,0:0:0:0:
207,312,63828,1,0,3:3:0:0:
207,300,63953,1,0,3:3:0:0:
212,144,64203,1,8,0:0:0:0:
240,92,64328,1,0,0:0:0:0:
284,52,64453,6,0,P|348:64|392:100,1,120.000004577637,0|8,0:0|0:0,0:0:0:0:
384,176,64828,1,0,0:0:0:0:
384,256,64953,2,0,P|336:291|278:301,1,120.000004577637,0|8,0:0|0:0,0:0:0:0:
200,296,65328,1,0,0:0:0:0:
200,296,65453,1,0,0:0:0:0:
84,192,65703,1,8,0:0:0:0:
84,192,65828,1,0,0:0:0:0:
84,192,65953,2,0,L|120:60,1,120.000004577637,0|8,0:0|0:0,0:0:0:0:
168,20,66328,1,0,0:0:0:0:
244,36,66453,6,0,B|304:44|304:44|388:76,1,120.000004577637,0|8,0:0|0:0,0:0:0:0:
404,128,66828,1,0,0:0:0:0:
396,204,66953,2,0,P|376:280|400:340,1,120.000004577637,0|8,0:0|0:0,0:0:0:0:
480,192,67453,1,0,3:3:0:0:
491,133,67578,1,0,3:3:0:0:
472,77,67703,1,8,0:0:0:0:
429,36,67828,1,0,3:3:0:0:
371,21,67953,1,0,3:3:0:0:
248,116,68203,1,8,0:0:0:0:
244,132,68328,1,0,0:0:0:0:
240,148,68453,6,0,L|208:264,1,120.000004577637,4|8,0:0|0:0,0:0:0:0:
156,324,68828,1,0,0:0:0:0:
80,308,68953,2,0,P|20:268|8:192,1,120.000004577637,0|8,0:0|0:0,0:0:0:0:
12,148,69328,1,0,0:0:0:0:
12,148,69453,1,0,0:0:0:0:
132,48,69703,1,8,0:0:0:0:
240,160,69953,1,0,0:0:0:0:
148,288,70203,1,8,0:0:0:0:
240,160,70453,5,0,0:0:0:0:
247,150,70578,1,0,0:0:0:0:
256,144,70703,1,8,0:0:0:0:
268,144,70828,1,0,0:0:0:0:
280,148,70953,2,0,P|344:120|376:68,1,120.000004577637,0|8,0:0|0:0,0:0:0:0:
492,180,71453,1,0,3:3:0:0:
456,228,71578,1,0,3:3:0:0:
412,272,71703,1,8,0:0:0:0:
368,312,71828,1,0,3:3:0:0:
324,352,71953,1,0,3:3:0:0:
176,308,72203,1,0,3:3:0:0:
156,152,72453,6,0,P|156:88|200:36,1,120.000004577637,4|8,0:0|0:0,0:0:0:0:
264,52,72828,1,0,0:0:0:0:
288,124,72953,2,0,P|268:200|260:244,1,120.000004577637,0|8,0:0|0:0,0:0:0:0:
256,320,73328,1,0,0:0:0:0:
256,320,73453,1,4,0:0:0:0:
88,292,73703,1,8,0:0:0:0:
156,152,73953,1,0,0:0:0:0:
256,320,74203,1,8,0:0:0:0:
60,216,74453,5,4,0:0:0:0:
164,36,74703,1,8,0:0:0:0:
280,172,74953,1,4,0:0:0:0:
48,108,75203,1,8,0:0:0:0:
164,36,75453,1,0,3:3:0:0:
223,28,75578,1,0,3:3:0:0:
283,32,75703,1,8,0:0:0:0:
340,49,75828,1,0,3:3:0:0:
393,78,75953,1,0,3:3:0:0:
416,232,76203,1,8,0:0:0:0:
284,324,76453,6,0,P|236:340|188:320,1,80,4|8,0:0|0:0,0:0:0:0:
144,300,76828,1,0,0:0:0:0:
104,240,76953,2,0,L|72:156,1,80,0|8,0:0|0:0,0:0:0:0:
164,52,77453,6,0,L|240:100,1,80,0|8,0:0|0:0,0:0:0:0:
292,136,77828,1,0,0:0:0:0:
356,172,77953,2,0,P|416:152|440:128,1,80,0|8,0:0|0:0,0:0:0:0:
348,260,78453,6,0,P|304:264|264:248,1,80,0|8,0:0|0:0,0:0:0:0:
212,208,78828,1,0,0:0:0:0:
148,172,78953,2,0,P|84:172|64:184,1,80,0|8,0:0|0:0,0:0:0:0:
80,324,79453,1,0,3:3:0:0:
118,333,79578,1,0,3:3:0:0:
157,342,79703,1,8,0:0:0:0:
196,351,79828,1,0,3:3:0:0:
236,360,79953,2,0,P|288:352|332:328,1,80,0|8,0:0|0:0,0:0:0:0:
408,212,80453,6,0,L|424:120,1,80,4|8,0:0|0:0,0:0:0:0:
388,68,80828,1,0,0:0:0:0:
316,60,80953,2,0,P|264:48|232:24,1,80,0|8,0:0|0:0,0:0:0:0:
112,92,81453,6,0,P|100:144|80:176,1,80,0|8,0:0|0:0,0:0:0:0:
44,224,81828,1,0,0:0:0:0:
32,296,81953,2,0,L|116:352,1,80,0|8,0:0|0:0,0:0:0:0:
260,348,82453,5,4,0:0:0:0:
332,184,82703,1,8,0:0:0:0:
388,348,82953,1,0,0:0:0:0:
212,184,83203,1,8,0:0:0:0:
204,176,83328,1,0,3:3:0:0:
196,168,83453,1,0,3:3:0:0:
112,52,83703,5,8,0:0:0:0:
80,77,83828,1,0,3:3:0:0:
57,109,83953,1,0,3:3:0:0:
43,146,84078,1,0,3:3:0:0:
39,186,84203,1,8,0:0:0:0:
45,225,84328,1,0,3:3:0:0:
64,260,84453,1,4,0:0:0:0:
288,348,84786,5,0,0:0:0:0:
300,252,84953,2,0,L|308:176,1,53.3333333333333,0|0,3:3|0:0,0:0:0:0:
312,104,85286,1,0,0:0:0:0:
384,40,85453,2,0,P|416:44|448:60,1,53.3333333333333,0|0,3:3|0:0,0:0:0:0:
500,124,85786,1,0,0:0:0:0:
496,220,85953,2,0,L|496:288,1,53.3333333333333,0|0,3:3|0:0,0:0:0:0:
452,356,86286,1,0,0:0:0:0:
356,348,86453,6,0,P|316:352|288:360,1,53.3333333333333,0|0,3:3|0:0,0:0:0:0:
208,352,86786,1,0,0:0:0:0:
112,336,86953,2,0,L|68:276,1,53.3333333333333,0|0,3:3|0:0,0:0:0:0:
52,200,87286,1,0,0:0:0:0:
76,96,87453,1,0,3:3:0:0:
172,52,87619,5,0,3:3:0:0:
272,92,87786,1,0,3:3:0:0:
292,196,87953,1,0,3:3:0:0:
224,276,88119,1,0,3:3:0:0:
116,284,88286,1,0,3:3:0:0:
