osu file format v14

[General]
AudioFilename: Haikyuu.mp3
AudioLeadIn: 0
PreviewTime: 43453
Countdown: 0
SampleSet: Soft
StackLeniency: 0.3
Mode: 0
LetterboxInBreaks: 0
WidescreenStoryboard: 0

[Editor]
DistanceSpacing: 1.4
BeatDivisor: 4
GridSize: 4
TimelineZoom: 1

[Metadata]
Title:Tenchi Gaeshi
TitleUnicode:天地ガエシ
Artist:NICO Touches the Walls
ArtistUnicode:NICO Touches the Walls
Creator:-Nya-
Version:Hard
Source:ハイキュー!!
Tags:Haikyuu!! tv size ending ED1 first season
BeatmapID:864268
BeatmapSetID:397016

[Difficulty]
HPDrainRate:6
CircleSize:4
OverallDifficulty:6
ApproachRate:7.5
SliderMultiplier:1.4
SliderTickRate:1

[Events]
//Background and Video events
0,0,"Volleyball!!.jpg",0,0
Video,-238,"optc.flv"
//Break Periods
//Storyboard Layer 0 (Background)
//Storyboard Layer 1 (Fail)
//Storyboard Layer 2 (Pass)
//Storyboard Layer 3 (Foreground)
//Storyboard Sound Samples

[TimingPoints]
2453,500,4,2,1,70,1,0
44453,-100,4,2,1,80,0,1
60328,-100,4,2,1,80,0,0
60453,-100,4,2,1,80,0,1
76453,-100,4,2,1,70,0,0

[Colours]
Combo1 : 0,217,108
Combo2 : 255,137,81
Combo3 : 94,166,255
Combo4 : 247,102,123

[HitObjects]
124,84,2453,6,0,P|172:60|256:72,1,140,4|0,0:0|0:0,0:0:0:0:
324,140,3203,1,8,0:0:0:0:
332,236,3453,2,0,B|320:272|320:272|228:328,1,140
188,344,4078,1,8,0:0:0:0:
140,340,4203,1,0,0:0:0:0:
56,292,4453,6,0,P|28:248|60:152,1,140
140,140,5203,1,8,0:0:0:0:
228,100,5453,2,0,L|184:40,1,70,0|8,0:0|0:0,0:0:0:0:
144,20,5828,1,0,0:0:0:0:
96,32,5953,2,0,P|96:72|104:112,1,70,0|8,3:3|0:0,0:0:0:0:
160,228,6453,6,0,P|228:240|280:188,1,140,4|0,0:0|0:0,0:0:0:0:
304,100,7203,1,8,0:0:0:0:
400,120,7453,2,0,P|428:176|456:272,1,140
456,300,8078,1,8,0:0:0:0:
452,348,8203,1,0,3:3:0:0:
356,356,8453,6,0,B|304:352|284:360|284:360|252:336|188:336,1,140,4|0,0:0|0:0,0:0:0:0:
132,300,9203,1,8,0:0:0:0:
68,176,9453,2,0,P|72:96|192:48,1,210,4|0,0:0|0:0,0:0:0:0:
272,72,10453,5,4,0:0:0:0:
352,128,10703,1,8,0:0:0:0:
324,224,10953,2,0,P|308:260|288:284,1,70,0|8,0:0|0:0,0:0:0:0:
200,328,11453,2,0,L|124:340,1,70,0|8,0:0|0:0,0:0:0:0:
40,304,11953,1,0,0:0:0:0:
28,208,12203,1,8,0:0:0:0:
96,88,12453,6,0,B|132:48|132:48|220:24,1,140
312,36,13203,1,8,0:0:0:0:
344,128,13453,2,0,L|336:212,1,70,0|8,0:0|0:0,0:0:0:0:
304,292,13953,2,0,L|272:336,3,35,0|0|8|0,0:0|0:0|0:0|0:0,0:0:0:0:
248,356,14453,6,0,P|200:336|156:332,1,70,0|8,0:0|0:0,0:0:0:0:
88,300,14953,2,0,L|68:228,1,70,0|8,0:0|0:0,0:0:0:0:
48,136,15453,1,0,0:0:0:0:
112,64,15703,1,8,0:0:0:0:
208,76,15953,2,0,P|248:108|280:116,1,70,0|8,0:0|0:0,0:0:0:0:
348,168,16453,5,0,0:0:0:0:
360,264,16703,1,8,0:0:0:0:
360,264,16828,2,0,L|288:304,1,70
200,304,17328,2,0,P|176:264|200:180,1,105,0|8,0:0|0:0,0:0:0:0:
216,116,17953,2,0,L|251:71,3,35,0|0|8|0,0:0|0:0|0:0|0:0,0:0:0:0:
272,52,18453,6,0,P|308:48|364:52,1,70,4|8,0:0|0:0,0:0:0:0:
404,124,18953,2,0,P|428:172|456:212,1,70,0|8,0:0|0:0,0:0:0:0:
452,232,19328,1,0,0:0:0:0:
444,280,19453,2,0,P|424:316|376:344,1,70,0|8,0:0|0:0,0:0:0:0:
308,360,19953,1,0,0:0:0:0:
216,324,20203,1,8,0:0:0:0:
188,188,20453,6,0,B|176:152|144:132|144:132|144:96|104:64,1,140
24,108,21203,1,8,0:0:0:0:
28,204,21453,2,0,P|36:256|56:348,1,140,0|0,0:0|0:0,0:0:0:0:
148,372,22203,1,8,0:0:0:0:
284,344,22453,6,0,B|344:312|344:312|384:240,1,140
368,152,23203,1,8,0:0:0:0:
332,60,23453,1,0,0:0:0:0:
240,32,23703,1,8,0:0:0:0:
152,80,23953,1,0,0:0:0:0:
136,176,24203,1,8,0:0:0:0:
192,300,24453,6,0,P|212:336|308:304,1,140,0|0,0:0|0:0,0:0:0:0:
368,256,25203,1,8,0:0:0:0:
376,160,25453,1,0,0:0:0:0:
376,160,25578,1,0,1:1:0:0:
376,160,25703,1,0,1:1:0:0:
332,72,25953,1,0,1:1:0:0:
236,52,26203,1,0,1:1:0:0:
152,164,26453,6,0,B|140:204|96:208|96:208|112:240|100:284,1,140,4|0,0:0|0:0,0:0:0:0:
96,368,27203,1,8,0:0:0:0:
192,356,27453,2,0,L|256:320,1,70,0|0,0:0|3:3,0:0:0:0:
264,276,27828,1,0,3:3:0:0:
276,228,27953,2,0,L|340:192,1,70,0|8,3:3|0:0,0:0:0:0:
412,76,28453,6,0,P|392:40|300:44,1,140,0|0,0:0|0:0,0:0:0:0:
256,128,29203,1,8,0:0:0:0:
164,164,29453,2,0,P|112:164|84:156,1,70,0|0,0:0|3:3,0:0:0:0:
52,136,29828,1,0,3:3:0:0:
44,88,29953,2,0,P|78:81|113:83,1,70,0|8,3:3|0:0,0:0:0:0:
160,240,30453,6,0,P|228:208|236:136,1,140
336,168,31203,1,8,0:0:0:0:
424,212,31453,2,0,L|452:284,1,70,0|0,0:0|3:3,0:0:0:0:
424,320,31828,1,0,3:3:0:0:
392,356,31953,2,0,P|332:360|304:356,1,70,0|8,3:3|0:0,0:0:0:0:
184,344,32453,5,0,0:0:0:0:
112,280,32703,1,8,0:0:0:0:
188,220,32953,1,0,0:0:0:0:
124,144,33203,1,8,0:0:0:0:
184,64,33453,2,0,B|220:52|220:52|280:52,1,70,0|0,0:0|3:3,0:0:0:0:
340,92,33953,2,0,L|372:140,3,35,0|0|0|0,3:3|3:3|3:3|3:3,0:0:0:0:
380,164,34453,6,0,L|392:240,1,70,4|8,0:0|0:0,0:0:0:0:
324,336,34953,2,0,L|313:266,1,70,0|8,0:0|0:0,0:0:0:0:
264,180,35453,1,0,0:0:0:0:
184,124,35703,2,0,L|128:60,1,70,8|0,0:0|3:3,0:0:0:0:
216,12,36203,2,0,P|256:8|296:16,1,70,8|0,0:0|0:0,0:0:0:0:
372,56,36703,1,8,0:0:0:0:
400,148,36953,6,0,P|436:128|460:104,1,70,0|8,0:0|0:0,0:0:0:0:
504,196,37453,2,0,L|504:276,1,70,0|8,0:0|0:0,0:0:0:0:
500,316,37828,1,0,3:3:0:0:
464,348,37953,1,0,3:3:0:0:
368,328,38203,1,8,0:0:0:0:
240,268,38453,6,0,P|208:248|180:208,1,70,4|8,0:0|0:0,0:0:0:0:
144,136,38953,2,0,P|121:109|91:91,1,70,0|8,0:0|0:0,0:0:0:0:
16,156,39453,1,0,0:0:0:0:
8,252,39703,1,8,0:0:0:0:
64,332,39953,2,0,L|100:360,3,35,0|0|0|0,3:3|3:3|3:3|3:3,0:0:0:0:
140,360,40453,6,0,P|216:344|244:288,1,140,4|0,0:0|0:0,0:0:0:0:
260,196,41203,1,8,0:0:0:0:
304,108,41453,2,0,L|360:40,1,70,0|0,3:3|3:3,0:0:0:0:
432,104,41953,2,0,L|387:158,1,70,0|0,3:3|3:3,0:0:0:0:
356,196,42328,1,0,3:3:0:0:
332,240,42453,6,0,P|312:280|432:328,1,210,4|0,0:0|0:0,0:0:0:0:
472,248,43453,5,0,3:3:0:0:
472,248,43953,1,0,3:3:0:0:
472,248,44453,6,0,L|480:148,1,70,4|8,0:0|0:0,0:0:0:0:
488,80,44953,1,0,0:0:0:0:
400,32,45203,1,8,0:0:0:0:
400,32,45328,1,0,0:0:0:0:
400,32,45453,2,0,L|300:20,1,70,0|8,0:0|0:0,0:0:0:0:
236,52,45953,1,0,0:0:0:0:
212,148,46203,1,8,0:0:0:0:
196,288,46453,6,0,P|156:288|124:272,1,70,0|8,0:0|0:0,0:0:0:0:
52,216,46953,1,0,0:0:0:0:
44,120,47203,2,0,L|36:44,1,70,0|0,3:3|3:3,0:0:0:0:
80,28,47578,1,0,3:3:0:0:
128,20,47703,1,8,0:0:0:0:
220,52,47953,1,0,0:0:0:0:
212,148,48203,1,8,0:0:0:0:
316,244,48453,6,0,L|400:280,1,70,0|8,0:0|0:0,0:0:0:0:
276,312,48953,2,0,L|211:284,1,70,0|8,0:0|0:0,0:0:0:0:
168,264,49328,1,0,0:0:0:0:
136,228,49453,1,0,0:0:0:0:
120,132,49703,1,8,0:0:0:0:
200,76,49953,2,0,P|236:64|272:36,1,70,0|8,0:0|0:0,0:0:0:0:
404,56,50453,6,0,B|420:88|404:128|404:128|424:168|416:216,1,140,0|0,0:0|0:0,0:0:0:0:
412,288,51203,1,8,0:0:0:0:
320,324,51453,2,0,P|236:300|184:284,1,140,0|0,3:3|3:3,0:0:0:0:
92,252,52203,1,8,0:0:0:0:
92,252,52328,1,0,0:0:0:0:
92,252,52453,6,0,L|72:180,1,70,4|8,0:0|0:0,0:0:0:0:
124,100,52953,2,0,L|144:28,1,70,0|8,0:0|0:0,0:0:0:0:
236,64,53453,2,0,P|272:68|320:56,1,70,0|8,0:0|0:0,0:0:0:0:
348,36,53828,1,0,0:0:0:0:
396,52,53953,1,0,0:0:0:0:
480,100,54203,1,8,0:0:0:0:
440,236,54453,6,0,P|420:276|376:300,1,70,0|8,0:0|0:0,0:0:0:0:
356,312,54828,2,0,P|300:320|244:348,1,105,0|8,0:0|0:0,0:0:0:0:
208,352,55328,2,0,L|108:280,1,105,0|8,0:0|0:0,0:0:0:0:
64,212,55953,1,0,3:3:0:0:
96,120,56203,1,8,0:0:0:0:
232,96,56453,6,0,P|264:72|276:32,1,70,4|8,0:0|0:0,0:0:0:0:
372,32,56953,2,0,L|396:120,1,70,0|8,0:0|0:0,0:0:0:0:
400,148,57328,1,0,0:0:0:0:
408,196,57453,1,0,0:0:0:0:
400,292,57703,1,8,0:0:0:0:
312,332,57953,2,0,P|256:328|216:328,1,70,0|8,0:0|0:0,0:0:0:0:
112,280,58453,6,0,P|76:220|136:152,1,140,4|0,0:0|0:0,0:0:0:0:
192,112,59203,1,4,0:0:0:0:
280,68,59453,2,0,L|324:56,3,35,0|0|0|0,3:3|3:3|3:3|3:3,0:0:0:0:
360,76,59953,2,0,L|404:64,3,35,0|0|0|0,3:3|3:3|3:3|3:3,0:0:0:0:
440,52,60453,6,0,P|472:88|476:136,1,70,4|8,0:0|0:0,0:0:0:0:
460,204,60953,2,0,P|428:240|424:288,1,70,0|8,0:0|0:0,0:0:0:0:
420,308,61328,1,0,0:0:0:0:
436,352,61453,1,0,0:0:0:0:
340,364,61703,1,8,0:0:0:0:
248,324,61953,2,0,L|168:272,1,70,0|8,0:0|0:0,0:0:0:0:
100,176,62453,5,0,0:0:0:0:
160,100,62703,1,8,0:0:0:0:
240,156,62953,2,0,P|280:152|308:104,1,70,0|8,0:0|0:0,0:0:0:0:
344,44,63453,1,0,0:0:0:0:
296,28,63578,1,0,3:3:0:0:
248,16,63703,1,0,3:3:0:0:
152,24,63953,1,0,3:3:0:0:
80,92,64203,1,8,0:0:0:0:
80,92,64328,1,0,0:0:0:0:
80,92,64453,6,0,P|72:136|76:184,1,70,0|8,0:0|0:0,0:0:0:0:
88,260,64953,2,0,P|87:294|80:329,1,70,0|8,0:0|0:0,0:0:0:0:
172,360,65453,2,0,L|240:336,1,70,0|8,0:0|0:0,0:0:0:0:
280,312,65828,1,0,0:0:0:0:
324,292,65953,1,0,0:0:0:0:
376,208,66203,1,8,0:0:0:0:
360,68,66453,6,0,P|304:56|284:60,1,70,0|8,0:0|0:0,0:0:0:0:
217,132,66953,2,0,P|251:139|285:133,1,70,0|8,0:0|0:0,0:0:0:0:
212,56,67453,2,0,L|132:36,1,70,0|0,3:3|3:3,0:0:0:0:
60,88,67953,2,0,L|36:144,3,35,0|0|8|0,3:3|0:0|0:0|0:0,0:0:0:0:
32,168,68453,6,0,P|28:208|40:264,1,70,4|8,0:0|0:0,0:0:0:0:
104,304,68953,2,0,L|204:300,1,70,0|8,0:0|0:0,0:0:0:0:
224,300,69328,1,0,0:0:0:0:
272,300,69453,1,0,0:0:0:0:
348,236,69703,1,8,0:0:0:0:
348,136,69953,1,0,0:0:0:0:
288,60,70203,1,8,0:0:0:0:
428,56,70453,6,0,P|440:112|452:212,1,140
452,292,71203,1,8,0:0:0:0:
364,332,71453,2,0,P|312:344|292:356,1,70,0|0,3:3|3:3,0:0:0:0:
252,364,71828,1,0,3:3:0:0:
204,364,71953,1,0,3:3:0:0:
124,304,72203,1,0,3:3:0:0:
124,304,72328,1,0,0:0:0:0:
124,304,72453,6,0,L|116:224,1,70,4|8,0:0|0:0,0:0:0:0:
192,144,72953,2,0,L|198:213,1,70,0|8,0:0|0:0,0:0:0:0:
292,284,73453,2,0,L|285:214,1,70,4|8,0:0|0:0,0:0:0:0:
280,116,73953,1,0,0:0:0:0:
228,32,74203,1,8,0:0:0:0:
100,92,74453,6,0,P|64:140|48:144,1,70,4|8,0:0|0:0,0:0:0:0:
56,240,74953,2,0,P|85:258|98:290,1,70,4|8,0:0|0:0,0:0:0:0:
172,356,75453,2,0,L|216:368,3,35,0|0|0|0,3:3|3:3|3:3|3:3,0:0:0:0:
256,364,75953,2,0,P|316:316|320:296,1,70,0|8,3:3|0:0,0:0:0:0:
300,184,76453,6,0,B|312:144|344:128|344:128|340:88|360:56,1,140,4|0,0:0|0:0,0:0:0:0:
452,40,77203,1,8,0:0:0:0:
472,136,77453,2,0,P|476:204|472:276,1,140,0|0,0:0|0:0,0:0:0:0:
396,336,78203,1,8,0:0:0:0:
256,332,78453,6,0,B|216:328|216:328|112:340,1,140
20,348,79203,1,8,0:0:0:0:
24,252,79453,2,0,L|8:176,1,70,0|0,3:3|3:3,0:0:0:0:
92,132,79953,2,0,L|148:80,1,70,0|8,0:0|0:0,0:0:0:0:
276,40,80453,6,0,P|336:64|328:140,1,140,4|0,0:0|0:0,0:0:0:0:
252,184,81203,1,8,0:0:0:0:
192,260,81453,2,0,P|224:308|292:364,1,140,0|0,0:0|0:0,0:0:0:0:
384,356,82203,1,8,0:0:0:0:
412,220,82453,6,0,B|416:176|400:148|400:148|420:112|404:56,1,140,4|0,0:0|0:0,0:0:0:0:
324,36,83203,1,0,3:3:0:0:
324,36,83328,1,0,3:3:0:0:
324,36,83453,2,0,P|288:64|276:84,1,70,0|0,3:3|3:3,0:0:0:0:
252,180,83953,1,0,3:3:0:0:
264,228,84078,1,0,0:0:0:0:
280,272,84203,1,0,3:3:0:0:
400,344,84453,6,0,P|436:336|464:308,1,70,4|0,0:0|0:0,0:0:0:0:
460,216,84953,2,0,L|460:148,2,46.6666666666667,0|0|0,3:3|0:0|0:0,0:0:0:0:
380,216,85453,2,0,L|380:148,2,46.6666666666667,0|0|0,3:3|0:0|0:0,0:0:0:0:
300,216,85953,2,0,L|300:148,2,46.6666666666667,0|0|0,3:3|0:0|0:0,0:0:0:0:
260,284,86453,6,0,L|228:332,2,46.6666666666667,0|0|0,3:3|0:0|0:0,0:0:0:0:
336,284,86953,2,0,L|368:332,2,46.6666666666667,0|0|0,3:3|0:0|0:0,0:0:0:0:
300,216,87453,1,0,3:3:0:0:
264,144,87619,6,0,P|240:108|224:92,1,46.6666666666667,0|0,3:3|3:3,0:0:0:0:
160,108,87953,2,0,P|145:126|133:146,1,46.6666666666667,0|0,3:3|3:3,0:0:0:0:
96,212,88286,1,0,3:3:0:0:
