osu file format v14

[General]
AudioFilename: Haikyuu.mp3
AudioLeadIn: 0
PreviewTime: 43453
Countdown: 0
SampleSet: Soft
StackLeniency: 0.7
Mode: 0
LetterboxInBreaks: 0
WidescreenStoryboard: 0

[Editor]
DistanceSpacing: 1
BeatDivisor: 4
GridSize: 4
TimelineZoom: 1

[Metadata]
Title:Tenchi Gaeshi
TitleUnicode:天地ガエシ
Artist:NICO Touches the Walls
ArtistUnicode:NICO Touches the Walls
Creator:-Nya-
Version:Easy
Source:ハイキュー!!
Tags:Haikyuu!! tv size ending ED1 first season
BeatmapID:864267
BeatmapSetID:397016

[Difficulty]
HPDrainRate:2
CircleSize:3
OverallDifficulty:2
ApproachRate:3
SliderMultiplier:1
SliderTickRate:1

[Events]
//Background and Video events
0,0,"Volleyball!!.jpg",0,0
Video,-238,"optc.flv"
//Break Periods
//Storyboard Layer 0 (Background)
//Storyboard Layer 1 (Fail)
//Storyboard Layer 2 (Pass)
//Storyboard Layer 3 (Foreground)
//Storyboard Sound Samples

[TimingPoints]
2453,500,4,2,1,70,1,0
44453,-100,4,2,1,80,0,1
60328,-100,4,2,1,80,0,0
60453,-100,4,2,1,80,0,1
76453,-100,4,2,1,70,0,0

[Colours]
Combo1 : 0,217,108
Combo2 : 255,137,81
Combo3 : 94,166,255
Combo4 : 247,102,123

[HitObjects]
120,72,2453,6,0,P|188:44|316:60,1,200,4|0,0:0|3:3,0:0:0:0:
380,132,3953,1,0,1:1:0:0:
356,228,4453,2,0,B|308:261|264:261|264:261|232:309|188:325,1,200,0|0,3:3|3:3,0:0:0:0:
88,316,5953,1,0,1:1:0:0:
36,228,6453,6,0,P|20:204|48:36,1,200,4|0,0:0|3:3,0:0:0:0:
140,32,7953,1,0,1:1:0:0:
228,80,8453,2,0,P|260:132|320:260,1,200,4|4,0:0|0:0,0:0:0:0:
136,340,10453,6,0,L|72:248,1,100,4|0,0:0|0:0,0:0:0:0:
68,160,11453,2,0,L|132:68,1,100,0|0,3:3|1:1,0:0:0:0:
216,36,12453,2,0,B|256:64|256:64|288:132,2,100,0|0|0,3:3|0:0|3:3,0:0:0:0:
180,128,13953,1,0,1:1:0:0:
220,220,14453,6,0,P|236:260|276:304,1,100,0|0,3:3|0:0,0:0:0:0:
372,304,15453,2,0,P|405:267|425:221,1,100,0|0,3:3|1:1,0:0:0:0:
420,120,16453,2,0,P|384:76|240:60,1,200,0|0,3:3|3:3,0:0:0:0:
156,92,17953,1,0,1:1:0:0:
128,188,18453,6,0,B|128:244|156:288|156:288|112:372,2,200,4|0|0,0:0|3:3|3:3,0:0:0:0:
156,92,20953,1,0,0:0:0:0:
248,128,21453,2,0,L|348:192,1,100,0|0,3:3|1:1,0:0:0:0:
412,240,22453,6,0,P|408:292|384:332,1,100,0|0,3:3|0:0,0:0:0:0:
284,328,23453,2,0,P|258:285|255:235,1,100,0|0,3:3|1:1,0:0:0:0:
224,140,24453,2,0,B|180:104|128:120|128:120|88:88|28:108,1,200,0|0,3:3|3:3,0:0:0:0:
24,204,25953,1,0,1:1:0:0:
36,304,26453,6,0,P|56:344|204:344,1,200,4|0,0:0|3:3,0:0:0:0:
252,272,27953,1,0,1:1:0:0:
300,184,28453,2,0,B|368:144|360:64|432:32,1,200,0|0,3:3|3:3,0:0:0:0:
484,116,29953,1,0,1:1:0:0:
484,216,30453,6,0,B|444:308|444:308|340:356,1,200,0|0,3:3|3:3,0:0:0:0:
256,360,31953,1,0,1:1:0:0:
156,348,32453,2,0,P|96:304|132:200,1,200,0|0,3:3|3:3,0:0:0:0:
220,152,33953,1,0,1:1:0:0:
316,128,34453,6,0,P|288:84|232:52,1,100,4|0,0:0|0:0,0:0:0:0:
152,76,35453,2,0,L|68:131,1,100,0|0,3:3|1:1,0:0:0:0:
40,228,36453,2,0,P|40:276|32:328,2,100,0|0|0,3:3|0:0|3:3,0:0:0:0:
128,180,37953,1,0,1:1:0:0:
224,156,38453,6,0,B|256:192|256:252|256:252|300:268|352:312,1,200,4|0,0:0|3:3,0:0:0:0:
428,344,39953,1,0,1:1:0:0:
452,248,40453,2,0,P|468:184|464:84,2,150,4|8|0,0:0|0:0|1:1,0:0:0:0:
352,240,42453,5,4,0:0:0:0:
156,196,43453,2,0,L|124:300,1,100,0|0,1:1|1:1,0:0:0:0:
204,356,44453,6,0,P|256:344|316:372,1,100,4|0,0:0|1:1,0:0:0:0:
400,352,45453,2,0,L|460:264,1,100,0|0,3:3|1:1,0:0:0:0:
484,172,46453,2,0,P|476:140|328:104,1,200,0|0,3:3|3:3,0:0:0:0:
244,144,47953,1,0,1:1:0:0:
176,216,48453,6,0,P|216:240|284:232,2,100,0|0|0,3:3|1:1|3:3,0:0:0:0:
76,204,49953,1,0,1:1:0:0:
48,300,50453,2,0,L|144:360,1,100,0|0,3:3|1:1,0:0:0:0:
232,368,51453,2,0,P|280:376|348:356,1,100,0|0,3:3|1:1,0:0:0:0:
424,328,52453,6,0,B|472:296|468:244|468:244|524:216|508:140,1,200,4|0,0:0|3:3,0:0:0:0:
444,88,53953,1,0,1:1:0:0:
356,44,54453,2,0,P|308:24|240:32,1,100,0|0,3:3|1:1,0:0:0:0:
160,24,55453,2,0,P|110:23|64:48,1,100,0|0,3:3|1:1,0:0:0:0:
132,120,56453,6,0,P|140:180|120:228,2,100,4|0|0,0:0|1:1|3:3,0:0:0:0:
44,164,57953,1,0,1:1:0:0:
36,264,58453,2,0,P|112:316|208:276,1,200,4|0,0:0|3:3,0:0:0:0:
236,184,59953,1,0,1:1:0:0:
296,104,60453,6,0,L|356:20,1,100,4|0,0:0|1:1,0:0:0:0:
448,56,61453,2,0,L|422:152,1,100,0|0,3:3|1:1,0:0:0:0:
396,248,62453,2,0,P|300:252|184:228,1,200,0|0,3:3|3:3,0:0:0:0:
100,212,63953,1,0,1:1:0:0:
120,116,64453,6,0,P|136:64|128:4,2,100,0|0|0,3:3|1:1|3:3,0:0:0:0:
24,148,65953,1,0,1:1:0:0:
24,248,66453,2,0,B|64:268|120:260|120:260|172:284|228:260,1,200,0|0,3:3|3:3,0:0:0:0:
312,228,67953,1,0,1:1:0:0:
332,128,68453,6,0,P|344:80|384:52,1,100,4|0,0:0|1:1,0:0:0:0:
468,108,69453,2,0,P|456:156|416:184,1,100,0|0,3:3|1:1,0:0:0:0:
328,228,70453,2,0,P|288:256|276:303,1,100,0|0,3:3|1:1,0:0:0:0:
188,352,71453,2,0,L|92:296,1,100,0|0,3:3|1:1,0:0:0:0:
40,224,72453,6,0,P|32:148|144:108,1,200,4|4,0:0|0:0,0:0:0:0:
224,140,73953,1,0,1:1:0:0:
304,204,74453,2,0,L|380:268,1,100,4|4,0:0|0:0,0:0:0:0:
444,192,75453,2,0,L|368:128,1,100,0|0,1:1|1:1,0:0:0:0:
288,68,76453,6,0,B|224:44|224:44|72:52,1,200,4|0,0:0|3:3,0:0:0:0:
32,128,77953,1,0,1:1:0:0:
36,228,78453,2,0,P|56:288|176:332,1,200,0|0,3:3|3:3,0:0:0:0:
264,280,79953,1,0,1:1:0:0:
300,188,80453,6,0,B|328:132|368:116|368:116|388:68|444:44,1,200,4|0,0:0|3:3,0:0:0:0:
468,144,81953,1,0,1:1:0:0:
468,244,82453,2,0,P|408:320|308:356,1,200,4|0,0:0|3:3,0:0:0:0:
216,332,83953,1,0,1:1:0:0:
168,244,84453,5,4,0:0:0:0:
256,192,84953,12,0,88286,1:1:0:0:
