osu file format v14

[General]
AudioFilename: naruto.mp3
AudioLeadIn: 0
PreviewTime: 56501
Countdown: 0
SampleSet: Soft
StackLeniency: 0.7
Mode: 0
LetterboxInBreaks: 0
WidescreenStoryboard: 1

[Editor]
DistanceSpacing: 1
BeatDivisor: 4
GridSize: 4
TimelineZoom: 1.5

[Metadata]
Title:Niwaka Ame ni mo Makezu
TitleUnicode:ニワカ雨ニモ負ケズ
Artist:NICO Touches the Walls
ArtistUnicode:NICO Touches the Walls
Creator:monstrata
Version:Normal
Source:NARUTO -ナルト- 疾風伝
Tags:kyuubi naruto shippuuden shippuden shipuuden shipuden uzumaki akatsuki tailed beasts Not Even Giving In To the Sudden Rain
BeatmapID:837665
BeatmapSetID:378559

[Difficulty]
HPDrainRate:4
CircleSize:3
OverallDifficulty:5
ApproachRate:5
SliderMultiplier:1
SliderTickRate:1

[Events]
//Background and Video events
0,0,"123123123123123.jpg",0,0
//Break Periods
//Storyboard Layer 0 (Background)
//Storyboard Layer 1 (Fail)
//Storyboard Layer 2 (Pass)
//Storyboard Layer 3 (Foreground)
//Storyboard Sound Samples

[TimingPoints]
453,322.58064516129,4,2,1,70,1,0
4323,-100,4,2,1,70,0,0
4969,-100,4,2,1,70,0,0
5614,-100,4,2,1,70,0,0
8194,-100,4,2,1,70,0,0
9969,-100,4,2,1,70,0,0
13356,-100,4,2,1,70,0,0
14969,-100,4,2,1,70,0,0
18517,-100,4,2,1,70,0,0
20130,-100,4,2,1,70,0,0
46904,-100,4,2,1,70,0,0
51904,-100,4,2,1,70,0,0
52065,-100,4,2,1,70,0,0
56582,-100,4,2,1,70,0,0
57227,-100,4,2,1,70,0,1
80291,-100,4,2,1,70,0,0
80452,-100,4,2,1,70,0,1
95936,-100,4,2,1,70,0,0
98517,-100,4,2,1,70,0,0
100130,-100,4,2,1,70,0,0
103678,-100,4,2,1,70,0,0
105452,-100,4,2,1,70,0,0
108840,-100,4,2,1,70,0,0
110614,-100,4,2,1,70,0,0

[Colours]
Combo1 : 102,171,193
Combo2 : 216,39,39
Combo3 : 192,192,192
Combo4 : 133,48,122

[HitObjects]
109,165,4323,6,0,P|142:126|207:108,1,100,4|4,0:2|0:2,0:0:0:0:
199,208,4969,2,0,L|253:233,1,50,4|2,0:1|0:0,0:0:0:0:
290,212,5291,1,8,0:0:0:0:
371,153,5614,6,0,P|388:198|347:295,2,150,2|2|8,0:0|0:0|0:0,0:0:0:0:
292,91,6904,2,0,L|186:106,1,100,2|8,0:0|0:0,0:0:0:0:
146,86,7388,2,0,B|160:133|160:133|145:234,1,150,2|8,0:0|0:0,0:0:0:0:
65,292,8194,6,0,P|106:325|171:329,1,100,2|8,0:0|0:0,0:0:0:0:
237,280,8840,1,2,0:0:0:0:
324,326,9162,1,8,0:0:0:0:
407,273,9485,2,0,B|432:228|432:228|425:179,1,100,2|8,0:0|0:0,0:0:0:0:
417,130,9969,2,0,P|349:100|277:116,1,150,8|8,0:3|0:0,0:0:0:0:
214,193,10775,6,0,P|179:128|197:57,2,150,4|2|8,0:0|0:0|0:0,0:0:0:0:
313,211,12065,2,0,L|429:232,1,100,2|8,0:0|0:0,0:0:0:0:
459,214,12549,2,0,B|435:251|435:251|458:311|428:352,1,150,2|8,0:0|0:0,0:0:0:0:
330,372,13356,6,0,L|220:359,1,100,2|8,0:0|0:0,0:0:0:0:
190,268,14001,1,2,0:0:0:0:
90,256,14323,1,8,0:0:0:0:
49,163,14646,2,0,P|66:116|103:83,1,100,2|2,0:0|0:0,0:0:0:0:
152,72,15130,2,0,P|214:111|286:100,1,150,8|8,0:3|3:2,0:0:0:0:
378,59,15936,6,0,L|359:240,2,150,6|2|8,0:0|0:0|0:0,0:0:0:0:
461,2,17227,2,0,P|477:54|461:117,1,100,2|8,0:0|0:0,0:0:0:0:
456,146,17711,2,0,B|479:190|479:190|468:289,1,150,2|8,0:0|0:0,0:0:0:0:
408,369,18517,6,0,P|379:333|372:261,1,100,2|8,0:0|0:0,0:0:0:0:
364,181,19162,1,2,0:0:0:0:
274,134,19485,1,8,0:0:0:0:
188,188,19807,2,0,P|148:181|91:130,1,100,2|8,0:0|0:0,0:0:0:0:
69,106,20291,2,0,L|74:289,1,150,8|8,0:3|0:0,0:0:0:0:
79,356,21098,6,0,P|135:337|165:295,1,100,6|8,0:0|0:0,0:0:0:0:
174,258,21582,2,0,B|219:279|219:279|338:268,1,150,2|8,0:0|0:0,0:0:0:0:
375,187,22388,2,0,L|275:177,1,100,2|8,0:0|0:0,0:0:0:0:
225,170,22872,2,0,P|267:111|259:38,1,150,2|8,0:0|0:0,0:0:0:0:
172,86,23678,6,0,P|139:123|129:185,1,100,4|8,0:0|0:0,0:0:0:0:
178,257,24323,2,0,P|109:269|43:222,2,150,8|2|8,0:3|0:0|0:0,0:0:0:0:
225,170,25614,2,0,L|328:172,1,100,2|8,0:0|0:3,0:0:0:0:
376,86,26259,6,0,P|417:134|417:211,1,100,0|8,0:0|0:0,0:0:0:0:
372,255,26904,2,0,B|296:296|296:232|224:272,1,150,2|2,0:0|0:0,0:0:0:0:
158,341,27711,1,2,0:0:0:0:
61,315,28033,2,0,P|34:245|56:168,1,150,2|8,0:0|0:0,0:0:0:0:
143,134,28840,6,0,P|191:147|239:135,1,100,0|8,0:0|0:0,0:0:0:0:
300,56,29485,2,0,P|335:112|320:195,1,150,2|2,0:0|0:0,0:0:0:0:
231,233,30291,1,2,0:0:0:0:
139,274,30614,2,0,P|192:326|283:320,1,150,0|8,0:0|0:0,0:0:0:0:
354,284,31420,6,0,L|472:266,1,100,0|8,0:0|0:0,0:0:0:0:
470,169,32065,2,0,L|298:195,1,150,2|2,0:0|0:0,0:0:0:0:
237,136,32872,1,2,0:0:0:0:
152,80,33194,2,0,L|4:103,1,150,0|8,0:0|0:0,0:0:0:0:
49,192,34001,6,0,L|167:174,1,100,0|8,0:0|0:0,0:0:0:0:
237,136,34646,2,0,P|246:183|186:269,2,150,2|4|8,0:0|0:0|0:0,0:0:0:0:
240,35,35936,2,0,L|303:25,1,50,2|2,0:0|0:0,0:0:0:0:
339,19,36259,1,12,0:0:0:0:
388,106,36582,6,0,L|486:121,1,100,0|8,0:0|0:0,0:0:0:0:
508,218,37227,2,0,L|409:202,1,100,2|8,0:0|0:0,0:0:0:0:
310,187,37872,2,0,P|323:254|409:303,2,150,0|0|8,0:0|0:0|0:0,0:0:0:0:
281,91,39162,6,0,L|182:106,1,100,0|8,0:0|0:0,0:0:0:0:
101,165,39807,2,0,P|82:106|123:26,2,150,2|2|8,0:0|0:0|0:0,0:0:0:0:
192,206,41098,2,0,L|207:304,1,100,0|8,0:0|0:0,0:0:0:0:
304,304,41743,6,0,L|320:206,1,100,0|8,0:0|0:0,0:0:0:0:
411,165,42388,2,0,P|430:106|389:26,1,150,2|2,0:0|0:0,0:0:0:0:
329,106,43194,1,2,0:0:0:0:
248,47,43517,2,0,P|229:106|270:186,1,150,0|8,0:0|0:0,0:0:0:0:
345,241,44323,6,0,L|324:355,1,100,2|8,0:0|0:0,0:0:0:0:
232,373,44969,2,0,P|183:370|139:332,1,100,2|0,0:0|0:0,0:0:0:0:
114,299,45452,2,0,B|137:269|137:269|137:192,1,100,4|2,0:0|0:0,0:0:0:0:
112,162,45936,1,8,0:0:0:0:
43,89,46259,2,0,P|118:61|196:106,1,150,2|2,0:0|0:0,0:0:0:0:
213,123,46904,6,0,L|328:88,2,100,0|8|2,0:0|0:0|0:0,0:0:0:0:
195,221,47872,1,8,0:0:0:0:
177,319,48194,2,0,L|25:365,2,150,0|8|8,0:0|0:3|0:0,0:0:0:0:
271,286,49485,6,0,L|358:368,2,100,0|8|2,0:0|0:0|0:0,0:0:0:0:
289,187,50452,1,8,0:0:0:0:
307,88,50775,2,0,P|258:91|191:168,2,150,4|0|8,0:3|0:0|0:0,0:0:0:0:
384,154,52065,6,0,P|386:212|316:285,1,150,2|0,0:0|0:0,0:0:0:0:
229,269,52872,1,0,3:0:0:0:
169,349,53194,2,0,P|91:366|25:324,1,150,2|8,0:0|0:0,0:0:0:0:
2,292,53840,2,0,B|26:188,1,100,0|2,0:0|0:0,0:0:0:0:
70,174,54323,1,8,0:0:0:0:
107,81,54646,6,0,L|167:74,1,50,8|8,0:0|0:0,0:0:0:0:
216,155,55130,6,0,L|276:148,1,50,8|8,0:0|0:0,0:0:0:0:
325,229,55614,6,0,L|385:222,1,50,10|10,0:0|0:0,0:0:0:0:
434,303,56098,5,10,0:0:0:0:
434,303,56259,1,10,0:0:0:0:
474,211,56582,6,0,P|485:160|476:103,1,100,0|0,0:0|0:0,0:0:0:0:
410,40,57227,6,0,L|304:55,1,100,4|8,0:0|0:0,0:0:0:0:
249,133,57872,2,0,L|149:118,1,100,2|8,0:0|0:0,0:0:0:0:
100,108,58356,2,0,P|114:147|97:222,1,100,2|2,0:0|0:0,0:0:0:0:
80,247,58840,1,8,0:0:0:0:
1,308,59162,2,0,P|45:340|100:345,1,100,8|8,0:3|0:0,0:0:0:0:
174,291,59807,6,0,L|298:306,1,100,2|8,0:0|0:0,0:0:0:0:
351,365,60452,2,0,L|450:352,1,100,2|8,0:0|0:0,0:0:0:0:
477,309,60936,2,0,P|447:279|439:204,1,100
441,174,61420,1,8,3:2:0:0:
503,95,61743,2,0,P|448:73|396:83,1,100,2|8,0:0|0:0,0:0:0:0:
339,150,62388,6,0,B|289:162|289:162|242:150,1,100,6|8,0:0|0:0,0:0:0:0:
192,62,63033,2,0,B|145:50|145:50|95:62,1,100,2|8,0:0|0:0,0:0:0:0:
45,72,63517,2,0,P|62:118|47:170,1,100,2|2,0:0|0:0,0:0:0:0:
21,209,64001,1,8,0:0:0:0:
22,308,64323,2,0,P|75:291|116:232,1,100,2|8,0:0|0:0,0:0:0:0:
154,172,64969,6,0,L|268:192,1,100,4|8,0:0|0:0,0:0:0:0:
283,228,65452,2,0,L|381:210,1,100,8|2,0:3|0:0,0:0:0:0:
409,169,65936,2,0,P|457:163|498:189,1,100,4|8,0:0|0:0,0:0:0:0:
478,235,66420,2,0,B|457:280|457:280|466:334,1,100,8|2,0:3|0:0,0:0:0:0:
443,374,66904,1,8,0:3:0:0:
356,322,67227,1,8,0:0:0:0:
267,371,67549,6,0,L|142:355,1,100,4|8,0:0|0:0,0:0:0:0:
68,345,68194,2,0,P|95:289|158:258,1,100,2|8,0:0|0:0,0:0:0:0:
174,266,68678,2,0,B|224:273|224:273|269:254,1,100,2|2,0:0|0:0,0:0:0:0:
314,230,69162,1,8,0:0:0:0:
412,247,69485,2,0,B|462:254,2,50,2|2|8,0:0|0:0|0:0,0:0:0:0:
378,154,70130,6,0,L|335:39,1,100,4|8,0:0|0:0,0:0:0:0:
256,9,70775,2,0,P|185:16|131:107,1,150,2|8,0:0|0:0,0:0:0:0:
187,159,71582,1,8,0:0:0:0:
130,241,71904,2,0,P|145:304|188:340,1,100,8|2,0:0|0:0,0:0:0:0:
213,350,72388,1,10,0:0:0:0:
230,250,72711,6,0,L|336:235,1,100,4|8,0:0|0:0,0:0:0:0:
377,148,73356,2,0,P|420:197|414:289,2,150,2|2|8,0:0|0:0|0:0,0:0:0:0:
285,106,74646,2,0,L|185:120,1,100,2|8,0:0|0:0,0:0:0:0:
88,97,75291,6,0,L|102:196,1,100,2|8,0:0|0:0,0:0:0:0:
79,294,75936,2,0,L|178:279,1,100,8|8,0:3|0:0,0:0:0:0:
211,242,76420,2,0,L|310:256,1,100,8|8,0:3|0:3,0:0:0:0:
340,296,76904,1,8,0:0:0:0:
400,375,77227,2,0,P|431:333|436:274,1,100,8|8,0:3|0:0,0:0:0:0:
395,196,77872,6,0,L|411:85,1,100,4|8,0:0|0:0,0:0:0:0:
416,46,78356,2,0,P|367:56|320:41,1,100,4|8,0:0|0:0,0:0:0:0:
276,16,78840,2,0,P|238:48|190:58,1,100,8|8,0:3|0:0,0:0:0:0:
139,59,79323,2,0,P|123:105|86:138,1,100,8|8,0:3|0:0,0:0:0:0:
42,165,79807,2,0,L|48:219,1,50,8|8,0:0|0:0,0:0:0:0:
89,241,80130,2,0,L|83:295,1,50,8|8,0:3|0:3,0:0:0:0:
75,340,80452,6,0,P|121:355|174:341,1,100,8|0,0:3|0:0,0:0:0:0:
255,292,81098,2,0,L|423:312,2,150,4|2|8,0:3|0:0|0:0,0:0:0:0:
180,225,82388,2,0,L|72:237,1,100,2|8,0:0|0:0,0:0:0:0:
109,140,83033,6,0,L|217:128,1,100,8|0,0:3|0:0,0:0:0:0:
272,52,83678,2,0,L|427:69,1,150,4|8,0:3|0:3,0:0:0:0:
482,148,84485,1,0,0:0:0:0:
421,227,84807,2,0,L|272:244,1,150,0|8,0:0|0:0,0:0:0:0:
172,259,85614,6,0,P|176:209|203:168,1,100,2|8,0:0|0:0,0:0:0:0:
302,149,86259,2,0,P|266:87|181:70,2,150,2|2|8,0:0|0:0|0:0,0:0:0:0:
271,244,87549,2,0,L|388:259,1,100,2|8,0:0|0:0,0:0:0:0:
469,269,88194,6,0,P|468:240|426:173,1,100,2|8,0:0|0:0,0:0:0:0:
360,111,88840,2,0,B|312:127|312:127|241:117,1,100,2|8,0:0|0:0,0:0:0:0:
230,82,89323,2,0,B|181:75|181:75|133:91,1,100,2|2,0:0|0:0,0:0:0:0:
87,111,89807,1,8,0:0:0:0:
21,186,90130,2,0,P|78:210|136:197,1,100,0|8,0:0|0:0,0:0:0:0:
211,181,90775,6,0,L|191:279,1,100,2|8,0:0|0:0,0:0:0:0:
220,319,91259,1,8,0:3:0:0:
367,347,91743,2,0,P|409:320|426:268,1,100,2|8,0:0|0:0,0:0:0:0:
412,226,92227,1,8,0:3:0:0:
305,120,92711,2,0,L|326:16,1,100,8|0,0:3|3:0,0:0:0:0:
225,36,93356,6,0,L|205:134,1,100,2|8,0:0|0:0,0:0:0:0:
155,142,93840,2,0,L|174:240,1,100,8|8,0:3|0:3,0:0:0:0:
163,287,94323,2,0,P|210:269|258:280,1,100,2|8,0:0|0:0,0:0:0:0:
302,304,94807,1,8,0:3:0:0:
377,370,95130,2,0,B|423:352|423:352|457:314|439:247,1,150,0|8,0:0|0:0,0:0:0:0:
384,174,95936,6,0,L|219:192,2,150,6|2|8,0:0|0:0|0:0,0:0:0:0:
483,162,97227,2,0,P|460:111|413:77,1,100,2|8,0:0|0:0,0:0:0:0:
389,49,97711,2,0,B|358:84|358:84|234:98,1,150,2|8,0:0|0:0,0:0:0:0:
192,15,98517,6,0,P|162:55|155:104,1,100,2|8,0:0|0:0,0:0:0:0:
212,185,99162,1,2,0:0:0:0:
170,273,99485,1,8,0:0:0:0:
225,353,99807,2,0,P|274:359|319:339,1,100,2|2,0:0|0:0,0:0:0:0:
334,290,100291,2,0,B|317:243|317:243|335:132,1,150,8|8,0:3|0:0,0:0:0:0:
350,44,101098,6,0,P|300:49|234:134,2,150,6|2|8,0:0|0:0|0:0,0:0:0:0:
426,108,102388,2,0,P|431:158|413:204,1,100,2|8,0:0|0:0,0:0:0:0:
383,245,102872,2,0,B|351:210|351:210|246:210,1,150,2|8,0:0|0:0,0:0:0:0:
189,290,103678,6,0,B|89:290,1,100,2|8,0:0|0:0,0:0:0:0:
39,203,104323,1,2,0:0:0:0:
89,116,104646,1,8,0:0:0:0:
189,115,104969,2,0,B|289:115,1,100,2|2,0:0|0:0,0:0:0:0:
334,96,105452,2,0,B|312:146|312:146|334:187|318:239,1,150,8|8,0:3|3:2,0:0:0:0:
274,329,106259,6,0,B|349:357|349:309|420:339,2,150,4|2|8,0:0|0:0|0:0,0:0:0:0:
197,261,107549,2,0,P|148:256|100:268,1,100,2|8,0:0|0:0,0:0:0:0:
56,291,108033,2,0,P|99:232|89:159,1,150,2|8,0:0|0:0,0:0:0:0:
59,64,108840,6,0,L|158:74,1,100,2|8,0:0|0:0,0:0:0:0:
244,23,109485,1,2,0:0:0:0:
330,72,109807,1,8,0:0:0:0:
330,170,110130,2,0,P|294:206|239:219,1,100,2|2,0:0|0:0,0:0:0:0:
205,191,110614,2,0,L|225:346,1,150,8|8,0:3|0:0,0:0:0:0:
315,298,111420,6,0,L|425:283,1,100,6|8,0:0|0:0,0:0:0:0:
463,278,111904,2,0,P|406:231|394:159,1,150,2|8,0:0|0:0,0:0:0:0:
389,58,112711,2,0,L|278:72,1,100,2|8,0:0|0:0,0:0:0:0:
241,78,113195,2,0,P|297:124|309:196,1,150,2|8,0:0|0:0,0:0:0:0:
243,273,114001,6,0,L|131:290,1,100,6|8,0:0|0:0,0:0:0:0:
94,296,114485,2,0,P|120:254|120:204,1,100,6|8,0:0|0:0,0:0:0:0:
82,171,114969,2,0,P|127:151|155:111,1,100,6|8,0:0|0:0,0:0:0:0:
143,61,115452,2,0,P|191:71|237:54,1,100,14|8,0:0|0:0,0:0:0:0:
256,6,115936,2,0,P|289:42|337:54,1,100,6|8,0:0|0:3,0:0:0:0:
380,26,116420,5,4,3:2:0:0:
