osu file format v13

[General]
AudioFilename: Niwaka Ame Nimo Makezu ~TV size~.mp3
AudioLeadIn: 0
PreviewTime: 41582
Countdown: 0
SampleSet: Soft
StackLeniency: 0.7
Mode: 0
LetterboxInBreaks: 0
WidescreenStoryboard: 0

[Editor]
Bookmarks: 936,11259,21582,31420,42227,65453,78356
DistanceSpacing: 0.8
BeatDivisor: 2
GridSize: 4
TimelineZoom: 1

[Metadata]
Title:Niwaka Ame Nimo Makezu (TV Size)
TitleUnicode:Niwaka Ame Nimo Makezu (TV Size)
Artist:NICO Touches the Walls
ArtistUnicode:NICO Touches the Walls
Creator:DarkKanaki
Version:Insane
Source:Naruto Shippuden
Tags:Opening 13
BeatmapID:276315
BeatmapSetID:105222

[Difficulty]
HPDrainRate:7
CircleSize:4
OverallDifficulty:7
ApproachRate:8
SliderMultiplier:1.8
SliderTickRate:1

[Events]
//Background and Video events
Video,356,"Video.avi"
0,0,"Background.jpg",0,0
//Break Periods
//Storyboard Layer 0 (Background)
//Storyboard Layer 1 (Fail)
//Storyboard Layer 2 (Pass)
//Storyboard Layer 3 (Foreground)
//Storyboard Sound Samples

[TimingPoints]
936.880957439313,322.58064516129,4,2,0,80,1,0
11259,-100,4,2,0,60,0,0
21582,-100,4,2,0,80,0,0
31420,-100,4,2,0,60,0,0
41582,-200,4,2,0,60,0,0
42227,-100,4,2,0,100,0,1
51904,-200,4,2,0,60,0,1
52549,-100,4,2,0,100,0,1
65453,-100,4,2,0,90,0,0
78356,-100,4,2,0,80,0,0

[Colours]
Combo1 : 0,217,54
Combo2 : 254,236,109
Combo3 : 117,255,255
Combo4 : 56,56,56

[HitObjects]
108,88,130,5,12,0:0:0:0:
252,84,453,2,0,L|352:140,1,90
396,160,775,1,2,0:0:0:0:
460,192,936,1,8,0:0:0:0:
312,348,1420,5,8,0:0:0:0:
192,268,1743,2,0,L|104:200,1,90
100,144,2065,1,2,0:0:0:0:
168,124,2227,1,8,0:0:0:0:
380,76,2711,5,8,0:0:0:0:
404,216,3033,1,0,0:0:0:0:
356,268,3194,1,0,0:0:0:0:
284,268,3356,1,2,0:0:0:0:
224,232,3517,2,8,P|168:163|228:51,5,180,8|0|8|0|8|0,0:0|0:0|0:0|0:0|0:0|0:0,0:0:0:0:
260,80,5291,5,8,0:0:0:0:
356,188,5614,2,0,L|260:188,1,90
196,188,5936,1,2,0:0:0:0:
124,188,6098,1,8,0:0:0:0:
316,288,6582,5,8,0:0:0:0:
180,248,6904,2,0,L|304:248,1,90
344,248,7227,1,2,0:0:0:0:
416,248,7388,1,8,0:0:0:0:
500,48,7872,5,8,0:0:0:0:
388,136,8194,1,0,0:0:0:0:
348,76,8356,1,0,0:0:0:0:
308,16,8517,1,2,0:0:0:0:
236,16,8678,2,8,B|124:16|124:16|72:16|12:112|104:236,1,360,12|8,0:0|0:0,0:0:0:0:
212,308,9646,1,0,0:0:0:0:
280,328,9807,2,0,B|452:292|508:280|264:196|220:140|500:200|508:144|312:36,1,450,4|0,0:0|0:0,0:0:0:0:
56,48,11259,5,6,0:0:0:0:
56,192,11582,2,0,L|56:284,2,90,0|0|2,0:0|0:0|0:0,0:0:0:0:
56,48,12227,1,0,0:0:0:0:
120,84,12388,1,2,0:0:0:0:
216,192,12711,2,0,P|296:236|408:192,1,180,0|2,0:0|0:0,0:0:0:0:
500,140,13356,1,2,0:0:0:0:
308,44,13840,5,2,0:0:0:0:
192,132,14162,2,0,L|104:196,2,90,0|0|2,0:0|0:0|0:0,0:0:0:0:
332,104,14807,1,0,0:0:0:0:
404,116,14969,1,2,0:0:0:0:
296,208,15291,5,0,0:0:0:0:
232,240,15453,1,2,0:0:0:0:
188,296,15614,1,0,0:0:0:0:
220,360,15775,1,2,0:0:0:0:
292,368,15936,1,0,0:0:0:0:
364,352,16098,1,2,0:0:0:0:
432,324,16259,1,0,0:0:0:0:
396,260,16420,1,2,0:0:0:0:
264,204,16743,6,0,L|156:204,1,90
104,200,17065,1,2,0:0:0:0:
140,60,17388,1,0,0:0:0:0:
212,52,17549,2,0,P|296:68|388:144,1,180,2|0,0:0|0:0,0:0:0:0:
448,244,18194,2,0,P|356:312|244:324,1,180,0|2,0:0|0:0,0:0:0:0:
152,292,18840,5,0,0:0:0:0:
216,264,19001,1,2,0:0:0:0:
280,136,19323,1,0,0:0:0:0:
220,180,19485,1,0,0:0:0:0:
172,128,19646,1,2,0:0:0:0:
132,68,19807,1,0,0:0:0:0:
276,64,20130,2,0,P|356:52|440:104,1,180
500,232,20775,6,0,L|468:328,1,90,2|0,0:0|0:0,0:0:0:0:
416,364,21098,2,0,L|320:364,1,90,0|2,0:0|0:0,0:0:0:0:
268,320,21420,2,0,L|236:224,1,90,0|6,0:0|0:0,0:0:0:0:
244,92,21904,5,0,0:0:0:0:
184,48,22065,1,0,0:0:0:0:
124,92,22227,1,2,0:0:0:0:
116,236,22549,2,0,L|116:332,2,90,0|0|2,0:0|0:0|0:0,0:0:0:0:
188,228,23033,2,0,P|284:228|380:196,2,180,0|2|0,0:0|0:0|0:0,0:0:0:0:
276,344,24001,5,0,0:0:0:0:
344,320,24162,1,2,0:0:0:0:
416,196,24485,2,0,L|416:100,1,90
416,36,24807,1,2,0:0:0:0:
416,196,25130,1,0,0:0:0:0:
408,108,25291,2,2,P|280:44|216:44,1,180,2|2,0:0|0:0,0:0:0:0:
172,36,25775,2,0,P|108:48|68:72,1,90,2|0,0:0|0:0,0:0:0:0:
36,112,26098,1,0,0:0:0:0:
208,160,26259,1,0,0:0:0:0:
44,236,26420,1,2,0:0:0:0:
148,88,26582,1,2,0:0:0:0:
152,268,26743,1,2,0:0:0:0:
288,320,27065,5,0,0:0:0:0:
348,276,27227,1,0,0:0:0:0:
408,320,27388,1,2,0:0:0:0:
256,164,27711,1,0,0:0:0:0:
324,144,27872,1,2,0:0:0:0:
460,96,28194,2,0,P|396:32|268:32,1,180
168,48,28840,1,2,0:0:0:0:
60,144,29162,5,0,0:0:0:0:
60,216,29323,1,2,0:0:0:0:
176,300,29646,2,0,L|80:300,2,90,0|0|2,0:0|0:0|0:0,0:0:0:0:
320,304,30291,1,0,0:0:0:0:
320,232,30453,1,2,0:0:0:0:
448,168,30775,1,0,0:0:0:0:
480,104,30936,1,0,0:0:0:0:
444,40,31098,1,0,0:0:0:0:
300,32,31420,6,0,L|204:32,1,90,4|0,0:0|0:0,0:0:0:0:
46,28,31743,2,0,L|136:28,1,90,4|0,0:0|0:0,0:0:0:0:
52,172,32227,2,0,L|52:268,1,90,0|4,0:0|0:0,0:0:0:0:
96,316,32549,1,0,0:0:0:0:
236,344,32872,6,0,L|332:344,1,90,4|0,0:0|0:0,0:0:0:0:
392,316,33194,1,4,0:0:0:0:
440,260,33356,2,0,L|488:168,1,90,0|4,0:0|0:0,0:0:0:0:
488,108,33678,1,0,0:0:0:0:
444,48,33840,2,0,L|356:20,1,90,4|0,0:0|0:0,0:0:0:0:
288,36,34162,1,4,0:0:0:0:
228,72,34323,2,0,L|256:160,1,90,0|4,0:0|0:0,0:0:0:0:
340,272,34807,6,4,L|244:272,1,90,0|4,0:0|0:0,0:0:0:0:
196,224,35130,1,0,0:0:0:0:
88,132,35453,6,0,L|88:36,2,90,4|0|4,0:0|0:0|0:0,0:0:0:0:
116,196,35936,1,0,0:0:0:0:
172,240,36098,1,4,0:0:0:0:
228,196,36259,1,0,0:0:0:0:
232,124,36420,2,0,L|232:20,2,90,4|0|4,0:0|0:0|0:0,0:0:0:0:
228,196,36904,2,0,L|228:332,1,90,0|4,0:0|0:0,0:0:0:0:
368,320,37388,5,2,0:0:0:0:
396,256,37549,1,0,0:0:0:0:
264,196,37872,2,0,P|168:196|72:260,1,180,0|2,0:0|0:0,0:0:0:0:
228,292,38517,2,0,P|324:292|420:228,1,180,2|0,0:0|0:0,0:0:0:0:
184,204,39323,1,2,0:0:0:0:
224,144,39485,1,2,0:0:0:0:
256,192,39646,12,0,41259,0:0:0:0:
256,288,41582,6,0,L|256:96,1,180,0|12,0:0|0:0,0:0:0:0:
400,104,42549,5,0,0:0:0:0:
408,176,42711,1,0,0:0:0:0:
344,208,42872,1,8,0:0:0:0:
264,88,43194,1,0,0:0:0:0:
212,140,43355,1,8,0:0:0:0:
104,236,43678,2,0,P|104:332|232:332,1,180,0|8,0:0|0:0,0:0:0:0:
364,264,44485,5,0,0:0:0:0:
436,248,44646,1,0,0:0:0:0:
440,176,44807,1,8,0:0:0:0:
336,76,45130,1,0,0:0:0:0:
272,40,45291,1,0,0:0:0:0:
224,96,45453,1,8,0:0:0:0:
84,124,45775,2,0,L|84:220,1,90
84,288,46098,1,8,0:0:0:0:
84,360,46259,1,0,0:0:0:0:
300,348,46743,6,0,L|396:284,1,90,8|2,0:0|0:0,0:0:0:0:
432,252,47065,2,0,L|368:156,1,90
344,116,47388,1,8,0:0:0:0:
212,172,47711,2,0,P|164:216|168:280,2,90,0|0|8,0:0|0:0|0:0,0:0:0:0:
68,172,48356,1,0,0:0:0:0:
68,244,48517,1,8,0:0:0:0:
212,244,48840,1,0,0:0:0:0:
428,244,49323,6,0,P|460:148|396:116,2,180,8|0|8,0:0|0:0|0:0,0:0:0:0:
284,268,50291,2,0,L|220:204,1,90,0|8,0:0|0:0,0:0:0:0:
84,152,50775,2,0,L|168:88,2,90,0|8|0,0:0|0:0|0:0,0:0:0:0:
256,96,51904,6,0,L|256:288,1,180,0|12,0:0|0:0,0:0:0:0:
112,268,52872,5,0,0:0:0:0:
164,220,53033,1,0,0:0:0:0:
112,168,53194,1,8,0:0:0:0:
204,60,53517,1,0,0:0:0:0:
264,96,53678,1,8,0:0:0:0:
384,180,54001,2,0,P|320:308|224:308,1,180,0|8,0:0|0:0,0:0:0:0:
88,256,54807,5,0,0:0:0:0:
132,196,54969,1,0,0:0:0:0:
184,144,55130,1,8,0:0:0:0:
328,144,55453,1,0,0:0:0:0:
380,192,55614,1,0,0:0:0:0:
424,252,55775,1,8,0:0:0:0:
288,304,56098,1,0,0:0:0:0:
216,288,56259,2,12,P|144:232|164:133,2,180,12|4|12,0:0|0:0|0:0,0:0:0:0:
372,136,57388,5,0,0:0:0:0:
320,184,57549,2,0,L|248:256,1,90,2|8,0:0|0:0,0:0:0:0:
204,296,57872,1,0,0:0:0:0:
348,316,58194,1,0,0:0:0:0:
432,200,58517,1,8,0:0:0:0:
336,96,58840,2,0,B|252:28|92:12|68:36|80:204,1,360,0|8,0:0|0:0,0:0:0:0:
48,300,59807,5,0,0:0:0:0:
108,340,59969,1,0,0:0:0:0:
176,360,60130,2,8,B|460:368|448:360|284:216|244:180|496:204|508:204|460:68,1,540
404,32,61259,1,0,0:0:0:0:
340,68,61420,2,8,B|224:20|204:20|68:56|28:196,1,360
36,236,62227,1,0,0:0:0:0:
140,336,62549,6,0,L|236:336,1,90
296,308,62872,1,8,0:0:0:0:
352,264,63033,2,0,L|416:200,1,90
416,128,63356,1,8,0:0:0:0:
368,76,63517,6,0,L|260:16,1,90,0|0,0:0|0:0,0:0:0:0:
216,36,63840,1,8,0:0:0:0:
144,36,64001,1,0,0:0:0:0:
72,44,64162,2,0,L|140:160,1,90,0|8,0:0|0:0,0:0:0:0:
156,184,64485,1,0,0:0:0:0:
196,244,64646,1,0,0:0:0:0:
244,296,64807,6,8,L|312:224,1,90
308,160,65130,1,8,0:0:0:0:
308,88,65291,2,8,L|424:32,1,90,8|12,0:0|0:0,0:0:0:0:
444,184,65775,5,0,0:0:0:0:
424,252,65936,1,0,0:0:0:0:
352,240,66098,1,8,0:0:0:0:
212,272,66420,1,0,0:0:0:0:
148,304,66582,1,8,0:0:0:0:
40,208,66904,2,0,P|95:129|204:136,1,180,0|8,0:0|0:0,0:0:0:0:
380,64,67711,6,8,L|284:64,2,90,8|0|8,0:0|0:0|0:0,0:0:0:0:
344,276,68517,1,0,0:0:0:0:
284,316,68678,1,8,0:0:0:0:
164,236,69001,1,0,0:0:0:0:
216,188,69162,2,12,P|280:156|376:220,2,180,12|4|12,0:0|0:0|0:0,0:0:0:0:
36,68,70291,5,0,0:0:0:0:
68,132,70453,1,2,0:0:0:0:
44,200,70614,1,8,0:0:0:0:
36,272,70775,2,0,B|20:372|72:356|196:272|208:276|360:336,1,360
404,344,71582,1,8,0:0:0:0:
476,356,71743,6,0,B|504:248|472:108|312:220|292:224|396:28|352:32|132:76,1,540
72,108,72872,1,8,0:0:0:0:
32,168,73033,6,0,B|56:300|76:364|280:360|300:360|464:252|432:152,1,540
472,156,74162,1,8,0:0:0:0:
420,104,74323,6,0,B|332:44|332:44|160:44|68:136,1,360
60,180,75130,1,8,0:0:0:0:
256,272,75614,5,2,0:0:0:0:
312,316,75775,1,8,0:0:0:0:
364,268,75936,2,0,L|364:168,1,90
308,132,76259,1,8,0:0:0:0:
108,212,76743,1,8,0:0:0:0:
180,212,76904,2,0,L|180:116,1,90
252,120,77227,1,8,0:0:0:0:
360,216,77549,5,8,0:0:0:0:
244,304,77872,2,0,L|148:240,1,90
140,168,78194,2,0,L|88:92,1,90,2|12,0:0|0:0,0:0:0:0:
228,52,78678,1,0,0:0:0:0:
296,32,78840,5,8,0:0:0:0:
396,136,79162,2,0,L|476:224,1,90
484,268,79485,1,2,0:0:0:0:
436,324,79646,2,0,P|352:356|264:336,1,180
200,312,80130,5,8,0:0:0:0:
100,208,80453,1,0,0:0:0:0:
80,140,80614,1,0,0:0:0:0:
128,88,80775,1,2,0:0:0:0:
196,60,80936,6,8,P|292:60|356:188,1,180,8|0,0:0|0:0,0:0:0:0:
212,168,81582,2,0,P|280:224|368:204,1,180,8|0,0:0|0:0,0:0:0:0:
444,88,82227,2,0,P|480:196|472:264,1,180
424,312,82711,5,8,0:0:0:0:
340,196,83033,2,0,L|244:196,1,90
176,196,83356,1,2,0:0:0:0:
104,196,83517,1,8,0:0:0:0:
256,40,84001,5,8,0:0:0:0:
396,64,84323,2,0,L|396:160,1,90
396,228,84646,1,2,0:0:0:0:
396,300,84807,1,8,0:0:0:0:
288,112,85291,5,8,0:0:0:0:
368,232,85614,1,0,0:0:0:0:
368,304,85775,1,0,0:0:0:0:
312,348,85936,1,2,0:0:0:0:
240,348,86098,6,0,L|112:220,1,180,12|4,0:0|0:0,0:0:0:0:
96,152,86582,6,0,L|224:24,1,180,12|4,0:0|0:0,0:0:0:0:
296,24,87065,6,0,L|424:184,1,180,12|4,0:0|0:0,0:0:0:0:
256,192,87549,12,8,88517,0:0:0:0:
