osu file format v14

[General]
AudioFilename: NICO Touches the Walls - Broken Youth (TV Size) .mp3
AudioLeadIn: 1500
PreviewTime: 43584
Countdown: 0
SampleSet: Normal
StackLeniency: 0.7
Mode: 0
LetterboxInBreaks: 0
WidescreenStoryboard: 0

[Editor]
DistanceSpacing: 1.2
BeatDivisor: 4
GridSize: 4
TimelineZoom: 1

[Metadata]
Title:Broken Youth (TV Size)
TitleUnicode:Broken Youth (TV Size)
Artist:NICO Touches the Walls
ArtistUnicode:ニコタッチズザウォールズ
Creator:Kagetsu
Version:Kage
Source:NARUTO -ナルト-
Tags:Shippūden Tatsuya Mitsumura Hajime Okano 夏の雪 Ki/oon Records Ending
BeatmapID:725733
BeatmapSetID:326929

[Difficulty]
HPDrainRate:6.5
CircleSize:4
OverallDifficulty:7
ApproachRate:9
SliderMultiplier:1.6
SliderTickRate:1

[Events]
//Background and Video events
0,0,"BG2.jpg",0,0
Video,0,"BG2.avi"
//Break Periods
//Storyboard Layer 0 (Background)
//Storyboard Layer 1 (Fail)
//Storyboard Layer 2 (Pass)
//Storyboard Layer 3 (Foreground)
//Storyboard Sound Samples

[TimingPoints]
630,340.909090909091,4,1,1,40,1,0
25857,-133.333333333333,4,1,1,40,0,0
29607,-100,4,1,1,40,0,0
42732,-200,4,1,1,40,0,0
43755,-100,4,1,1,35,0,0
43840,-100,4,1,1,40,0,0
44266,-100,4,1,1,40,0,1
52448,-100,4,1,1,50,0,1
55090,-100,4,1,1,40,0,1
66084,-100,4,1,1,40,0,0
76652,-100,4,1,1,5,0,0
76993,-100,4,1,1,30,0,0
77164,-100,4,1,1,35,0,0
77334,-100,4,1,1,40,0,0
77505,-100,4,1,1,30,0,0
77675,-100,4,1,1,35,0,0
77845,-100,4,1,1,40,0,0
78016,-100,4,1,1,30,0,0
78186,-100,4,1,1,35,0,0
78357,-100,4,1,1,40,0,0
78527,-100,4,1,1,30,0,0
78698,-100,4,1,1,35,0,0
78868,-100,4,1,1,40,0,0
79720,-100,4,1,1,30,0,0
79891,-100,4,1,1,35,0,0
80061,-100,4,1,1,40,0,0
80232,-100,4,1,1,30,0,0
80402,-100,4,1,1,35,0,0
80573,-100,4,1,1,40,0,0
80743,-100,4,1,1,30,0,0
80914,-100,4,1,1,35,0,0
81084,-100,4,1,1,40,0,0
81255,-100,4,1,1,30,0,0
81425,-100,4,1,1,35,0,0
81595,-100,4,1,1,40,0,0
89266,-100,4,1,1,5,0,0

[Colours]
Combo1 : 157,79,0
Combo2 : 253,109,62
Combo3 : 105,148,63
Combo4 : 255,174,136

[HitObjects]
72,172,630,6,0,P|66:237|122:309,1,160,4|8,0:3|0:0,0:0:0:0:
217,356,1141,2,0,L|240:280,1,80,0|2,0:0|0:0,0:0:0:0:
272,192,1482,1,2,0:0:0:0:
344,256,1652,1,8,0:0:0:0:
360,160,1823,6,0,P|444:152|484:84,1,160,2|2,0:0|0:0,0:0:0:0:
392,72,2334,1,8,0:0:0:0:
304,40,2505,2,0,B|236:40|236:40|212:56|212:56|144:56,1,160,2|2,0:0|0:0,0:0:0:0:
152,152,3016,2,0,P|144:192|112:232,1,80,8|0,0:0|0:0,0:0:0:0:
24,232,3357,6,0,P|60:306|140:324,1,160,4|8,0:0|0:0,0:0:0:0:
228,312,3868,1,0,0:0:0:0:
316,348,4039,2,0,P|324:308|356:276,1,80,2|2,0:0|0:0,0:0:0:0:
428,224,4380,1,8,0:0:0:0:
484,120,4550,6,0,P|443:140|400:143,1,80,0|2,0:0|0:0,0:0:0:0:
251,21,4891,2,0,P|244:60|252:100,1,80,2|8,0:0|0:0,0:0:0:0:
328,168,5232,1,2,0:0:0:0:
192,256,5402,1,2,0:0:0:0:
308,148,5573,1,2,0:0:0:0:
172,236,5743,1,8,0:0:0:0:
288,128,5914,1,2,0:0:0:0:
152,216,6084,6,0,P|128:248|120:288,1,80,4|0,0:0|0:0,0:0:0:0:
32,108,6425,2,0,P|72:116|104:148,1,80,8|2,0:0|0:0,0:0:0:0:
228,56,6766,2,0,P|224:96|196:128,1,80,2|2,0:0|0:0,0:0:0:0:
136,56,7107,1,8,0:0:0:0:
372,292,7448,6,0,P|400:324|439:332,1,80,2|2,0:0|0:0,0:0:0:0:
448,240,7789,1,8,0:0:0:0:
280,56,8130,1,2,0:0:0:0:
312,144,8300,1,2,0:0:0:0:
272,232,8470,2,0,P|232:264|160:264,1,120,8|2,0:0|0:0,0:0:0:0:
165,265,8811,5,12,0:0:0:0:
88,204,8982,1,0,0:0:0:0:
84,108,9152,1,8,0:0:0:0:
108,116,9237,1,0,0:0:0:0:
132,124,9323,1,2,0:0:0:0:
208,48,9493,1,0,0:0:0:0:
216,72,9578,1,0,0:0:0:0:
224,96,9664,1,0,0:0:0:0:
232,120,9749,1,0,0:0:0:0:
240,144,9834,6,0,L|272:224,1,80,8|2,0:0|0:0,0:0:0:0:
352,264,10175,1,2,0:0:0:0:
420,196,10345,1,2,0:0:0:0:
420,196,10516,2,0,P|446:275|408:340,1,160,8|2,0:0|0:0,0:0:0:0:
312,336,11027,1,2,0:0:0:0:
312,336,11198,2,0,P|247:336|138:365,1,160,8|4,0:0|0:0,0:0:0:0:
48,160,11880,5,8,0:0:0:0:
240,32,12220,1,2,0:0:0:0:
188,116,12391,2,0,B|170:159|170:159|196:219,1,80,0|8,0:0|0:0,0:0:0:0:
232,272,12732,1,0,0:0:0:0:
316,320,12902,6,0,B|352:308|352:308|389:261,1,80,4|0,0:0|0:0,0:0:0:0:
428,192,13243,1,8,0:0:0:0:
468,104,13414,2,0,B|449:70|449:70|397:42,1,80,0|2,0:0|0:0,0:0:0:0:
316,40,13755,1,2,0:0:0:0:
208,36,13925,2,0,B|160:44|160:44|132:100,1,80
204,176,14266,5,2,0:0:0:0:
204,176,14436,1,2,0:0:0:0:
256,288,14607,1,8,0:0:0:0:
256,288,14777,1,2,0:0:0:0:
72,236,15118,1,2,0:0:0:0:
139,157,15289,1,8,0:0:0:0:
212,96,15459,1,2,0:0:0:0:
124,48,15630,6,0,P|112:103|168:176,1,120,4|0,0:0|0:0,0:0:0:0:
139,157,15970,1,8,0:0:0:0:
232,180,16141,1,0,0:0:0:0:
328,196,16311,1,0,0:0:0:0:
336,220,16396,1,0,0:0:0:0:
344,244,16482,2,0,L|424:228,1,80,0|8,0:0|0:0,0:0:0:0:
428,332,16823,1,2,0:0:0:0:
428,332,16993,2,0,P|332:340|260:356,1,160,2|8,0:0|0:0,0:0:0:0:
184,328,17505,1,2,0:0:0:0:
252,32,17845,5,2,0:0:0:0:
268,128,18016,1,8,0:0:0:0:
312,248,18186,2,0,B|269:265|269:265|212:249,1,80,0|2,0:0|0:0,0:0:0:0:
192,136,18527,2,0,B|234:118|234:118|291:134,1,80,0|8,0:0|0:0,0:0:0:0:
436,224,19039,1,2,0:0:0:0:
492,148,19209,1,0,0:0:0:0:
456,60,19380,2,0,L|376:48,1,80,8|0,0:0|0:0,0:0:0:0:
280,40,19720,2,0,B|216:40|216:40|184:48|184:48|104:48,1,160,2|8,0:0|0:0,0:0:0:0:
44,104,20232,5,0,0:0:0:0:
32,200,20402,1,2,0:0:0:0:
80,284,20573,1,2,0:0:0:0:
160,340,20743,1,8,0:0:0:0:
248,312,20914,2,0,P|328:296|396:340,1,160,0|2,0:0|0:0,0:0:0:0:
391,334,21425,1,8,0:0:0:0:
484,320,21595,1,0,0:0:0:0:
460,228,21766,1,0,0:0:0:0:
444,212,21851,1,0,0:0:0:0:
428,196,21936,2,0,L|348:203,1,80,2|8,0:0|0:0,0:0:0:0:
256,168,22277,1,0,0:0:0:0:
56,136,22448,6,0,L|216:104,1,160,4|8,0:0|0:0,0:0:0:0:
432,48,23130,1,2,0:0:0:0:
384,120,23300,1,2,0:0:0:0:
424,200,23470,1,8,0:0:0:0:
448,288,23641,1,0,0:0:0:0:
368,320,23811,6,0,P|280:312|224:352,1,160,2|8,0:0|0:0,0:0:0:0:
144,320,24323,1,2,0:0:0:0:
144,320,24493,1,2,0:0:0:0:
176,144,24834,1,8,0:0:0:0:
336,168,25175,2,0,L|424:208,2,80,2|2|8,0:0|0:0|0:0,0:0:0:0:
96,64,25857,5,0,0:0:0:0:
176,104,26198,2,0,L|412:48,1,240.000009155274,8|8,0:0|0:0,0:0:0:0:
448,336,27220,1,0,0:0:0:0:
408,256,27561,2,0,L|168:324,1,240.000009155274,8|8,0:0|0:0,0:0:0:0:
128,72,28584,1,0,0:0:0:0:
64,128,28925,2,0,L|244:304,1,240.000009155274,8|8,0:0|0:0,0:0:0:0:
256,192,29948,12,4,31993,0:0:0:0:
72,96,32675,5,8,0:0:0:0:
52,132,32760,1,0,0:0:0:0:
44,172,32846,1,2,0:0:0:0:
40,248,33016,1,0,0:0:0:0:
43,278,33101,1,0,0:0:0:0:
54,308,33186,1,0,0:0:0:0:
78,327,33271,1,0,0:0:0:0:
106,339,33357,2,0,P|208:332|296:344,1,160,2|8,0:0|0:0,0:0:0:0:
348,292,33868,5,2,0:0:0:0:
444,272,34039,1,2,0:0:0:0:
460,176,34209,2,0,P|444:123|408:97,1,80,2|8,0:0|0:0,0:0:0:0:
305,47,34550,2,0,P|313:86|340:116,1,80,2|2,0:0|0:0,0:0:0:0:
400,188,34891,1,2,0:0:0:0:
468,256,35061,2,0,P|432:280|364:264,1,80,8|2,0:0|0:0,0:0:0:0:
308,240,35402,5,2,0:0:0:0:
236,304,35573,1,2,0:0:0:0:
144,272,35743,1,8,0:0:0:0:
103,363,35914,1,2,0:0:0:0:
43,315,36084,1,2,0:0:0:0:
41,238,36255,2,0,P|62:201|118:179,1,80,2|8,0:0|0:0,0:0:0:0:
188,172,36595,5,2,0:0:0:0:
276,136,36766,1,2,0:0:0:0:
309,45,36936,2,0,P|350:74|369:135,1,80,2|8,0:0|0:0,0:0:0:0:
388,196,37277,1,2,0:0:0:0:
477,343,37448,2,0,P|445:319|428:284,1,80,2|2,0:0|0:0,0:0:0:0:
388,196,37789,1,8,0:0:0:0:
348,108,37959,5,2,0:0:0:0:
260,68,38130,2,0,L|168:88,1,80,2|2,0:0|0:0,0:0:0:0:
53,184,38470,2,0,L|132:168,1,80,8|0,0:0|0:0,0:0:0:0:
228,164,38811,1,2,0:0:0:0:
300,220,38982,2,0,B|324:256|324:256|304:320,1,80,2|8,0:0|0:0,0:0:0:0:
240,344,39323,1,0,0:0:0:0:
144,336,39493,2,0,B|101:326|101:326|72:265,1,80,2|2,0:0|0:0,0:0:0:0:
56,200,39834,1,8,0:0:0:0:
256,88,40175,5,8,0:0:0:0:
148,195,40346,1,2,0:0:0:0:
255,302,40516,1,8,0:0:0:0:
362,194,40686,1,2,0:0:0:0:
256,88,40857,1,8,0:0:0:0:
148,195,41027,1,2,0:0:0:0:
255,302,41198,1,8,0:0:0:0:
362,194,41368,1,2,0:0:0:0:
256,40,41539,5,4,0:0:0:0:
105,47,41880,1,8,0:0:0:0:
422,40,42050,1,4,0:0:0:0:
256,336,42391,1,8,0:0:0:0:
256,136,42732,6,0,L|256:336,1,200
256,336,43754,1,0,0:0:0:0:
428,224,43924,5,0,0:0:0:0:
436,212,44010,1,0,0:0:0:0:
444,200,44095,1,0,0:0:0:0:
447,186,44181,1,0,0:0:0:0:
444,172,44266,6,0,P|380:156|300:200,1,160,4|8,0:3|0:0,0:0:0:0:
272,280,44777,2,0,L|296:360,1,80,0|2,0:0|0:0,0:0:0:0:
240,192,45118,1,2,0:0:0:0:
168,256,45288,1,8,0:0:0:0:
132,172,45459,6,0,P|60:152|20:64,1,160,2|2,0:0|0:0,0:0:0:0:
120,72,45970,1,8,0:0:0:0:
216,40,46141,2,0,P|328:24|400:40,1,160,2|8,0:0|0:0,0:0:0:0:
312,148,46652,2,0,P|338:179|385:197,1,80,2|8,0:0|0:0,0:0:0:0:
480,128,46993,6,0,P|400:120|344:48,1,160,4|8,0:0|0:0,0:0:0:0:
256,88,47504,1,0,0:0:0:0:
184,24,47675,2,0,P|176:64|144:96,1,80,2|2,0:0|0:0,0:0:0:0:
56,96,48016,1,8,0:0:0:0:
48,216,48186,6,0,P|80:184|120:168,1,80,2|2,0:0|0:0,0:0:0:0:
240,352,48527,2,0,P|256:312|248:264,1,80,0|8,0:0|0:0,0:0:0:0:
152,152,48868,1,2,0:0:0:0:
280,248,49038,1,2,0:0:0:0:
176,128,49209,1,2,0:0:0:0:
304,216,49379,1,8,0:0:0:0:
204,100,49550,1,2,0:0:0:0:
328,188,49720,6,0,P|352:156|360:116,1,80,4|0,0:0|0:0,0:0:0:0:
508,269,50061,2,0,P|475:248|436:248,1,80,8|0,0:0|0:0,0:0:0:0:
305,335,50402,2,0,P|317:297|344:268,1,80,2|2,0:0|0:0,0:0:0:0:
436,136,50743,5,8,0:0:0:0:
152,164,51084,2,0,P|168:124|224:92,1,80,2|2,0:0|0:0,0:0:0:0:
256,192,51425,1,8,0:0:0:0:
360,220,51766,2,0,P|344:260|288:292,1,80,2|2,0:0|0:0,0:0:0:0:
256,192,52106,1,8,0:0:0:0:
64,184,52448,5,0,0:0:0:0:
116,104,52618,1,0,0:0:0:0:
152,72,52703,1,0,0:0:0:0:
196,56,52789,1,0,0:0:0:0:
204,152,52959,1,0,0:0:0:0:
244,240,53130,2,0,P|275:215|296:168,1,80,0|8,0:0|0:0,0:0:0:0:
324,92,53470,1,0,0:0:0:0:
420,92,53641,2,0,P|448:160|416:256,1,160
388,268,54067,1,0,0:0:0:0:
344,288,54152,2,0,P|300:280|264:256,1,80
219,186,54493,5,0,0:0:0:0:
197,153,54578,1,0,0:0:0:0:
194,114,54663,1,0,0:0:0:0:
211,78,54749,1,0,0:0:0:0:
242,54,54834,1,0,0:0:0:0:
280,40,54919,1,0,0:0:0:0:
319,34,55004,1,0,0:0:0:0:
359,34,55090,1,0,0:0:0:0:
404,48,55175,6,0,P|369:104|281:128,1,160,4|8,0:3|0:0,0:0:0:0:
124,40,55686,1,2,0:0:0:0:
124,40,55857,2,0,P|76:64|60:116,1,80,2|2,0:0|0:0,0:0:0:0:
44,180,56197,1,8,0:0:0:0:
28,276,56368,2,0,B|48:320|48:320|80:324|80:324|96:352|96:352|160:344,1,160,2|2,0:0|0:0,0:0:0:0:
244,348,56879,1,8,0:0:0:0:
340,332,57050,2,0,P|419:306|450:230,1,160,2|0,0:0|0:0,0:0:0:0:
356,236,57561,2,0,P|334:202|329:151,1,80,2|0,0:0|0:0,0:0:0:0:
416,32,57902,6,0,L|256:28,1,160,4|8,0:0|0:0,0:0:0:0:
151,101,58413,1,0,0:0:0:0:
80,36,58584,2,0,P|58:73|68:133,1,80,2|2,0:0|0:0,0:0:0:0:
45,261,58925,1,8,0:0:0:0:
164,284,59095,2,0,L|226:221,1,80,2|2,0:0|0:0,0:0:0:0:
348,100,59436,2,0,L|284:164,1,80,2|8,0:0|0:0,0:0:0:0:
164,100,59777,2,0,L|226:162,1,80,2|2,0:0|0:0,0:0:0:0:
348,284,60118,2,0,L|284:220,1,80,2|8,0:0|0:0,0:0:0:0:
256,200,60630,6,0,L|256:292,1,80,4|0,0:0|0:0,0:0:0:0:
148,88,60971,2,0,P|186:95|216:122,1,80,8|2,0:0|0:0,0:0:0:0:
376,95,61312,2,0,P|336:100|303:122,1,80,2|2,0:0|0:0,0:0:0:0:
256,200,61653,1,8,0:0:0:0:
212,284,61823,1,2,0:0:0:0:
112,236,61993,6,0,L|24:172,1,80,2|2,0:0|0:0,0:0:0:0:
28,36,62334,2,0,L|112:96,1,80,8|2,0:0|0:0,0:0:0:0:
256,200,62675,2,0,L|168:136,1,80,2|2,0:0|0:0,0:0:0:0:
172,0,63016,2,0,L|256:60,1,80,8|2,0:0|0:0,0:0:0:0:
456,232,63357,6,0,P|407:300|324:304,1,160,2|8,0:0|0:0,0:0:0:0:
200,172,64039,1,2,0:0:0:0:
131,240,64210,1,2,0:0:0:0:
198,307,64380,1,8,0:0:0:0:
265,239,64550,1,2,0:0:0:0:
444,124,64891,5,8,0:0:0:0:
384,48,65061,1,0,0:0:0:0:
360,64,65147,1,0,0:0:0:0:
336,80,65232,1,0,0:0:0:0:
176,64,65402,1,0,0:0:0:0:
184,88,65487,1,0,0:0:0:0:
192,112,65573,1,0,0:0:0:0:
200,136,65658,1,0,0:0:0:0:
208,160,65743,1,0,0:0:0:0:
448,336,66084,5,6,0:0:0:0:
112,256,66425,1,8,0:0:0:0:
412,72,66766,2,0,P|364:72|324:104,1,80,2|2,0:0|0:0,0:0:0:0:
304,104,67022,1,0,0:0:0:0:
272,120,67107,1,0,0:0:0:0:
248,136,67192,1,0,0:0:0:0:
224,152,67277,1,0,0:0:0:0:
200,168,67362,1,0,0:0:0:0:
176,184,67448,2,0,P|128:256|152:340,2,160,0|2|2,0:0|0:0|0:0,0:0:0:0:
224,272,68300,1,2,0:0:0:0:
280,344,68470,1,12,0:0:0:0:
375,58,68811,6,0,P|303:27|228:48,1,160,2|8,0:0|0:0,0:0:0:0:
183,117,69322,1,0,0:0:0:0:
87,121,69493,2,0,P|109:155|108:200,1,80,2|2,0:0|0:0,0:0:0:0:
45,261,69834,1,8,0:0:0:0:
150,313,70004,2,0,P|195:313|234:295,1,80,2|2,0:0|0:0,0:0:0:0:
183,117,70345,2,0,P|223:134|252:173,1,80,2|8,0:0|0:0,0:0:0:0:
403,345,70686,2,0,P|362:327|334:289,1,80,2|2,0:0|0:0,0:0:0:0:
439,169,71027,2,0,P|393:169|354:187,1,80,2|8,0:0|0:0,0:0:0:0:
256,32,71539,6,0,L|256:116,1,80,4|0,0:0|0:0,0:0:0:0:
116,148,71880,2,0,P|127:187|155:214,1,80,8|0,0:0|0:0,0:0:0:0:
358,214,72220,2,0,P|386:186|396:147,1,80,2|2,0:0|0:0,0:0:0:0:
408,52,72562,5,8,0:0:0:0:
332,120,72732,1,0,0:0:0:0:
236,116,72903,2,0,P|248:168|283:199,1,80,2|2,0:0|0:0,0:0:0:0:
332,120,73244,1,8,0:0:0:0:
512,188,73585,1,2,0:0:0:0:
431,256,73755,1,2,0:0:0:0:
426,351,73925,2,0,P|358:319|342:224,1,160,8|4,0:0|0:0,0:0:0:0:
256,192,74351,12,0,76652,0:0:0:0:
64,344,76993,5,8,0:0:0:0:
160,320,77164,1,2,0:0:0:0:
256,296,77334,1,2,0:0:0:0:
464,272,77504,1,8,0:0:0:0:
376,232,77675,1,2,0:0:0:0:
288,192,77845,1,2,0:0:0:0:
96,192,78016,1,8,0:0:0:0:
184,152,78186,1,2,0:0:0:0:
272,112,78357,1,2,0:0:0:0:
448,104,78527,5,8,0:0:0:0:
360,64,78697,1,2,0:0:0:0:
272,24,78868,1,2,0:0:0:0:
192,76,79038,1,8,0:0:0:0:
276,284,79379,1,8,0:0:0:0:
448,20,79720,5,8,0:0:0:0:
360,64,79891,1,2,0:0:0:0:
272,112,80061,1,2,0:0:0:0:
48,112,80231,1,8,0:0:0:0:
136,152,80402,1,2,0:0:0:0:
224,192,80572,1,2,0:0:0:0:
416,192,80743,1,8,0:0:0:0:
328,232,80913,1,2,0:0:0:0:
240,272,81084,1,2,0:0:0:0:
64,280,81254,5,8,0:0:0:0:
152,320,81424,1,2,0:0:0:0:
240,360,81595,1,2,0:0:0:0:
324,312,81765,1,8,0:0:0:0:
240,96,82107,1,8,0:0:0:0:
448,336,82448,5,4,0:0:0:0:
392,260,82618,1,0,0:0:0:0:
72,332,82959,1,0,0:0:0:0:
400,84,83300,1,0,0:0:0:0:
112,92,83641,1,0,0:0:0:0:
256,236,83982,2,0,L|256:316,2,80
256,76,84493,5,4,0:0:0:0:
256,76,84834,2,0,L|256:244,1,160,0|4,0:0|0:0,0:0:0:0:
256,192,85345,12,4,89266,0:0:0:0:
