osu file format v14

[General]
AudioFilename: NICO Touches the Walls - Broken Youth (TV Size) .mp3
AudioLeadIn: 1500
PreviewTime: 43584
Countdown: 0
SampleSet: Normal
StackLeniency: 0.7
Mode: 0
LetterboxInBreaks: 0
WidescreenStoryboard: 1

[Editor]
DistanceSpacing: 1.2
BeatDivisor: 4
GridSize: 4
TimelineZoom: 1

[Metadata]
Title:Broken Youth (TV Size)
TitleUnicode:Broken Youth (TV Size)
Artist:NICO Touches the Walls
ArtistUnicode:ニコタッチズザウォールズ
Creator:Kagetsu
Version:Jonin
Source:NARUTO -ナルト-
Tags:Shippūden Tatsuya Mitsumura Hajime Okano 夏の雪 Ki/oon Records Ending
BeatmapID:764572
BeatmapSetID:326929

[Difficulty]
HPDrainRate:6
CircleSize:4
OverallDifficulty:6
ApproachRate:9
SliderMultiplier:1.6
SliderTickRate:1

[Events]
//Background and Video events
0,0,"BG2.jpg",0,0
Video,0,"BG2.avi"
//Break Periods
//Storyboard Layer 0 (Background)
//Storyboard Layer 1 (Fail)
//Storyboard Layer 2 (Pass)
//Storyboard Layer 3 (Foreground)
//Storyboard Sound Samples

[TimingPoints]
630,340.909090909091,4,1,1,40,1,0
9493,-133.333333333333,4,1,1,40,0,0
9749,-100,4,1,1,40,0,0
25857,-133.333333333333,4,1,1,40,0,0
29607,-100,4,1,1,40,0,0
33016,-133.333333333333,4,1,1,40,0,0
33357,-100,4,1,1,40,0,0
42732,-200,4,1,1,40,0,0
43755,-133.333333333333,4,1,1,35,0,0
43840,-100,4,1,1,40,0,0
44266,-100,4,1,1,40,0,1
52448,-100,4,1,1,50,0,1
54493,-133.333333333333,4,1,1,50,0,1
55090,-100,4,1,1,40,0,1
65402,-133.333333333333,4,1,1,40,0,1
66084,-100,4,1,1,40,0,0
67107,-133.333333333333,4,1,1,40,0,0
67448,-100,4,1,1,40,0,0
76652,-100,4,1,1,5,0,0
76993,-100,4,1,1,30,0,0
77164,-100,4,1,1,35,0,0
77334,-100,4,1,1,40,0,0
77505,-100,4,1,1,30,0,0
77675,-100,4,1,1,35,0,0
77845,-100,4,1,1,40,0,0
78016,-100,4,1,1,30,0,0
78186,-100,4,1,1,35,0,0
78357,-100,4,1,1,40,0,0
78527,-100,4,1,1,30,0,0
78698,-100,4,1,1,35,0,0
78868,-100,4,1,1,40,0,0
79720,-100,4,1,1,30,0,0
79891,-100,4,1,1,35,0,0
80061,-100,4,1,1,40,0,0
80232,-100,4,1,1,30,0,0
80402,-100,4,1,1,35,0,0
80573,-100,4,1,1,40,0,0
80743,-100,4,1,1,30,0,0
80914,-100,4,1,1,35,0,0
81084,-100,4,1,1,40,0,0
81255,-100,4,1,1,30,0,0
81425,-100,4,1,1,35,0,0
81595,-100,4,1,1,40,0,0
89266,-100,4,1,1,5,0,0

[Colours]
Combo1 : 157,79,0
Combo2 : 253,109,62
Combo3 : 105,148,63
Combo4 : 255,174,136

[HitObjects]
440,172,630,6,0,P|446:237|390:309,1,160,4|8,0:3|0:0,0:0:0:0:
296,320,1141,2,0,L|204:308,1,80,0|2,0:0|0:0,0:0:0:0:
184,216,1482,1,2,0:0:0:0:
249,133,1652,1,8,0:0:0:0:
152,133,1823,6,0,P|188:56|265:42,1,160,2|2,0:0|0:0,0:0:0:0:
351,58,2334,1,8,0:0:0:0:
448,60,2505,2,0,P|416:128|332:152,1,160,2|2,0:0|0:0,0:0:0:0:
152,133,3016,2,0,L|232:144,1,80,8|0,0:0|0:0,0:0:0:0:
339,153,3357,6,0,P|303:227|223:245,1,160,4|8,0:0|0:0,0:0:0:0:
136,256,3868,1,0,0:0:0:0:
40,252,4039,2,0,P|50:213|80:180,1,80,2|2,0:0|0:0,0:0:0:0:
152,133,4380,1,8,0:0:0:0:
232,76,4550,6,0,L|332:108,1,80,2|2,0:0|0:0,0:0:0:0:
466,140,4891,2,0,L|388:156,1,80,2|8,0:0|0:0,0:0:0:0:
223,171,5232,2,0,L|300:196,1,80,0|2,0:0|0:0,0:0:0:0:
462,224,5573,2,0,L|384:240,1,80,2|8,0:0|0:0,0:0:0:0:
293,281,5914,1,2,0:0:0:0:
201,253,6084,6,0,P|196:292|208:330,1,80,4|0,0:0|0:0,0:0:0:0:
385,317,6425,2,0,P|392:278|383:240,1,80,8|0,0:0|0:0,0:0:0:0:
348,120,6766,1,2,0:0:0:0:
325,26,6937,2,0,P|364:22|399:41,1,80,2|8,0:0|0:0,0:0:0:0:
396,236,7448,6,0,P|368:268|329:276,1,80,2|2,0:0|0:0,0:0:0:0:
320,184,7789,1,8,0:0:0:0:
192,44,8130,1,2,0:0:0:0:
288,44,8300,2,0,P|279:85|240:124,1,80,0|8,0:0|0:0,0:0:0:0:
156,276,8811,5,4,0:0:0:0:
252,292,8982,1,0,0:0:0:0:
268,196,9152,1,8,0:0:0:0:
292,204,9237,1,0,0:0:0:0:
316,212,9323,1,2,0:0:0:0:
424,232,9493,2,0,L|416:184,3,30.0000011444092
424,232,9834,6,0,L|408:136,1,80,8|2,0:0|0:0,0:0:0:0:
372,64,10175,1,2,0:0:0:0:
276,72,10345,1,2,0:0:0:0:
188,32,10516,2,0,P|189:112|250:162,1,160,8|2,0:0|0:0,0:0:0:0:
340,180,11027,1,2,0:0:0:0:
432,160,11198,2,0,P|413:242|332:275,1,160,8|4,0:0|0:0,0:0:0:0:
164,276,11880,5,8,0:0:0:0:
240,32,12220,1,2,0:0:0:0:
152,68,12391,2,0,B|164:176,1,80,2|8,0:0|0:0,0:0:0:0:
261,251,12732,2,0,L|252:172,1,80,0|2,0:0|0:0,0:0:0:0:
323,36,13073,2,0,L|332:116,1,80,2|8,0:0|0:0,0:0:0:0:
412,292,13584,5,2,0:0:0:0:
452,204,13755,2,0,L|472:116,1,80,2|8,0:0|0:0,0:0:0:0:
404,56,14095,1,0,0:0:0:0:
332,116,14266,2,0,L|224:116,1,80,2|2,0:0|0:0,0:0:0:0:
108,188,14607,2,0,L|188:188,1,80,8|2,0:0|0:0,0:0:0:0:
368,252,15118,1,2,0:0:0:0:
288,304,15289,1,8,0:0:0:0:
192,288,15459,1,2,0:0:0:0:
180,192,15630,6,0,L|192:113,1,80,4|0,0:0|0:0,0:0:0:0:
256,40,15970,1,8,0:0:0:0:
352,48,16141,1,0,0:0:0:0:
440,84,16311,5,0,0:0:0:0:
454,104,16396,1,0,0:0:0:0:
468,125,16482,2,0,L|407:179,1,80,0|8,0:0|0:0,0:0:0:0:
312,184,16823,1,2,0:0:0:0:
244,116,16993,2,0,P|217:193|256:264,1,160,2|8,0:0|0:0,0:0:0:0:
344,288,17505,1,2,0:0:0:0:
508,192,17845,1,2,0:0:0:0:
448,116,18016,1,8,0:0:0:0:
352,108,18186,2,0,B|344:28,1,80,0|2,0:0|0:0,0:0:0:0:
364,204,18527,2,0,B|372:312,1,80,0|8,0:0|0:0,0:0:0:0:
172,332,19039,5,2,0:0:0:0:
92,276,19209,1,2,0:0:0:0:
36,196,19380,2,0,L|32:112,1,80,8|0,0:0|0:0,0:0:0:0:
108,56,19720,2,0,B|164:56|164:56|184:48|184:48|268:48,1,160,2|8,0:0|0:0,0:0:0:0:
356,56,20232,1,0,0:0:0:0:
424,124,20402,1,2,0:0:0:0:
328,144,20573,1,2,0:0:0:0:
388,220,20743,1,8,0:0:0:0:
484,224,20914,2,0,P|445:296|368:316,1,160,2|2,0:0|0:0,0:0:0:0:
280,308,21425,5,8,0:0:0:0:
192,272,21595,1,0,0:0:0:0:
132,196,21766,1,0,0:0:0:0:
148,180,21851,1,0,0:0:0:0:
164,164,21936,2,0,L|244:132,1,80,2|8,0:0|0:0,0:0:0:0:
332,120,22277,1,0,0:0:0:0:
424,92,22448,6,0,L|384:260,1,160,4|8,0:0|0:0,0:0:0:0:
208,316,23130,2,0,L|240:224,1,80,2|2,0:0|0:0,0:0:0:0:
217,81,23470,2,0,L|188:156,1,80,8|0,0:0|0:0,0:0:0:0:
160,248,23811,6,0,P|97:193|100:116,1,160,2|8,0:0|0:0,0:0:0:0:
132,32,24323,2,0,L|232:52,1,80,2|2,0:0|0:0,0:0:0:0:
377,69,24664,2,0,L|300:88,1,80,0|8,0:0|0:0,0:0:0:0:
164,224,25175,2,0,L|216:312,2,80,2|2|8,0:0|0:0|0:0,0:0:0:0:
64,88,25857,5,0,0:0:0:0:
116,36,26198,2,0,L|364:36,1,240.000009155274,8|8,0:0|0:0,0:0:0:0:
464,132,27220,1,0,0:0:0:0:
412,180,27561,2,0,L|156:180,1,240.000009155274,8|8,0:0|0:0,0:0:0:0:
108,308,28584,1,0,0:0:0:0:
168,348,28925,2,0,L|412:348,1,240.000009155274,8|8,0:0|0:0,0:0:0:0:
256,192,29948,12,4,31993,0:0:0:0:
376,256,32675,5,2,0:0:0:0:
391,234,32761,1,0,0:0:0:0:
404,212,32846,1,8,0:0:0:0:
404,96,33016,2,0,L|364:96,3,30.0000011444092
404,96,33357,2,0,L|214:101,1,160,2|8,0:0|0:0,0:0:0:0:
148,96,33868,6,0,P|112:132|112:196,1,80,0|2,0:0|0:0,0:0:0:0:
229,249,34209,2,0,P|265:232|288:200,1,80,0|8,0:0|0:0,0:0:0:0:
328,112,34550,2,0,L|289:41,1,80,2|2,0:0|0:0,0:0:0:0:
376,196,34891,2,0,L|420:272,1,80,2|8,0:0|0:0,0:0:0:0:
352,340,35232,1,0,0:0:0:0:
292,264,35402,2,0,L|244:192,1,80,2|2,0:0|0:0,0:0:0:0:
152,204,35743,1,8,0:0:0:0:
60,180,35914,2,0,P|72:144|116:120,1,80,0|2,0:0|0:0,0:0:0:0:
244,224,36255,2,0,P|232:260|188:284,1,80,2|8,0:0|0:0,0:0:0:0:
180,104,36595,6,0,P|216:116|240:160,1,80,0|2,0:0|0:0,0:0:0:0:
128,300,36936,2,0,P|92:288|68:244,1,80,2|8,0:0|0:0,0:0:0:0:
44,112,37277,1,2,0:0:0:0:
96,32,37448,2,0,L|192:48,1,80,2|2,0:0|0:0,0:0:0:0:
268,64,37789,1,8,0:0:0:0:
426,99,37959,2,8,L|348:116,1,80,0|2,0:0|0:0,0:0:0:0:
264,164,38300,1,2,0:0:0:0:
97,186,38470,2,0,L|176:200,1,80,8|2,0:0|0:0,0:0:0:0:
348,115,38811,2,0,P|355:194|305:253,1,160,4|8,0:0|0:0,0:0:0:0:
216,292,39323,1,0,0:0:0:0:
120,300,39493,2,0,B|96:261|115:198,1,80,2|2,0:0|0:0,0:0:0:0:
128,128,39834,1,8,0:0:0:0:
308,196,40175,6,0,L|388:196,1,80,8|2,0:0|0:0,0:0:0:0:
212,196,40516,2,0,L|132:196,1,80,8|2,0:0|0:0,0:0:0:0:
260,132,40857,2,0,L|260:44,1,80,8|2,0:0|0:0,0:0:0:0:
260,252,41198,2,0,L|260:340,1,80,8|2,0:0|0:0,0:0:0:0:
260,196,41539,5,4,0:0:0:0:
84,130,41880,1,8,0:0:0:0:
84,268,42050,1,4,0:0:0:0:
260,196,42391,1,8,0:0:0:0:
460,196,42732,6,0,L|260:196,1,200
64,312,43755,2,0,L|60:272,5,30.0000011444092
64,312,44266,6,0,P|65:246|128:180,1,160,4|8,0:3|0:0,0:0:0:0:
224,180,44777,2,0,L|248:260,1,80,0|2,0:0|0:0,0:0:0:0:
272,348,45118,1,2,0:0:0:0:
348,288,45289,2,0,L|304:180,1,80,8|2,0:0|0:0,0:0:0:0:
212,56,45800,2,0,L|128:56,1,80,0|8,0:0|0:0,0:0:0:0:
40,24,46141,2,0,P|39:97|108:150,1,160,2|8,0:0|0:0,0:0:0:0:
277,131,46652,2,0,L|200:152,1,80,2|8,0:0|0:0,0:0:0:0:
197,254,46993,6,0,P|126:221|101:148,1,160,4|8,0:0|0:0,0:0:0:0:
168,80,47504,1,0,0:0:0:0:
248,24,47675,2,0,P|263:63|257:108,1,80,2|2,0:0|0:0,0:0:0:0:
228,192,48016,1,8,0:0:0:0:
160,260,48186,6,0,L|96:312,1,80,2|2,0:0|0:0,0:0:0:0:
16,260,48527,2,0,L|84:208,1,80,2|8,0:0|0:0,0:0:0:0:
220,104,48868,2,0,L|156:152,1,80,2|2,0:0|0:0,0:0:0:0:
68,116,49209,2,0,L|144:52,1,80,2|8,0:0|0:0,0:0:0:0:
216,28,49550,1,2,0:0:0:0:
340,82,49720,6,0,P|384:106|398:159,1,80,4|0,0:0|0:0,0:0:0:0:
296,246,50061,2,0,P|253:229|232:188,1,80,8|0,0:0|0:0,0:0:0:0:
397,130,50402,2,0,P|391:186|345:223,1,80,2|2,0:0|0:0,0:0:0:0:
235,202,50743,2,0,P|234:149|269:110,1,80,8|0,0:0|0:0,0:0:0:0:
296,44,51084,2,0,L|384:44,1,80,2|2,0:0|0:0,0:0:0:0:
472,48,51425,1,8,0:0:0:0:
436,236,51766,2,0,P|420:276|364:308,1,80,2|2,0:0|0:0,0:0:0:0:
344,216,52106,1,8,0:0:0:0:
180,320,52448,5,0,0:0:0:0:
86,325,52618,1,0,0:0:0:0:
87,301,52703,1,0,0:0:0:0:
99,280,52789,1,0,0:0:0:0:
140,192,52959,1,0,0:0:0:0:
196,116,53130,2,0,P|223:145|234:195,1,80,0|8,0:0|0:0,0:0:0:0:
268,272,53470,1,0,0:0:0:0:
340,336,53641,2,0,P|420:306|450:219,1,160
460,220,54067,1,0,0:0:0:0:
464,196,54152,2,0,P|460:156|436:106,1,80,8|0,0:0|0:0,0:0:0:0:
416,28,54493,6,0,L|376:28,7,30.0000011444092
416,28,55175,6,0,B|340:28|340:28|312:40|312:40|236:40,1,160,4|8,0:3|0:0,0:0:0:0:
172,84,55686,1,2,0:0:0:0:
88,132,55857,2,0,P|71:182|96:230,1,80,2|2,0:0|0:0,0:0:0:0:
140,280,56197,1,8,0:0:0:0:
228,316,56368,2,0,B|288:316|288:316|320:332|320:332|404:332,1,160,2|2,0:0|0:0,0:0:0:0:
468,288,56879,1,8,0:0:0:0:
472,192,57050,2,0,B|412:192|412:192|380:208|380:208|296:208,1,160,2|8,0:0|0:0,0:0:0:0:
144,192,57561,2,0,L|224:192,1,80,2|0,0:0|0:0,0:0:0:0:
372,92,57902,6,0,L|208:92,1,160,4|8,0:0|0:0,0:0:0:0:
116,80,58413,1,0,0:0:0:0:
56,160,58584,2,0,P|49:209|85:255,1,80,2|2,0:0|0:0,0:0:0:0:
144,192,58925,1,8,0:0:0:0:
228,136,59095,2,0,L|290:73,1,80,2|2,0:0|0:0,0:0:0:0:
428,35,59436,2,0,L|372:92,1,80,2|8,0:0|0:0,0:0:0:0:
315,244,59777,2,0,L|372:188,1,80,2|2,0:0|0:0,0:0:0:0:
512,168,60118,2,0,L|455:224,1,80,2|8,0:0|0:0,0:0:0:0:
264,256,60630,6,0,B|224:268|224:268|179:255,1,80,4|0,0:0|0:0,0:0:0:0:
192,80,60971,2,0,B|232:68|232:68|276:84,1,80,8|2,0:0|0:0,0:0:0:0:
344,128,61311,2,0,B|356:168|356:168|340:212,1,80,2|2,0:0|0:0,0:0:0:0:
120,200,61652,2,0,B|108:160|108:160|120:115,1,80,8|0,0:0|0:0,0:0:0:0:
140,28,61993,1,2,0:0:0:0:
236,36,62164,2,0,L|328:40,1,80,2|8,0:0|0:0,0:0:0:0:
484,132,62675,1,2,0:0:0:0:
436,216,62845,2,0,P|404:191|393:154,1,80,2|8,0:0|0:0,0:0:0:0:
396,60,63186,5,2,0:0:0:0:
396,60,63357,2,0,L|224:60,1,160,2|8,0:0|0:0,0:0:0:0:
72,164,64039,2,0,L|72:264,1,80,2|2,0:0|0:0,0:0:0:0:
152,300,64380,2,0,L|152:212,1,80,8|2,0:0|0:0,0:0:0:0:
168,28,64891,5,8,0:0:0:0:
260,48,65061,1,0,0:0:0:0:
276,72,65146,1,0,0:0:0:0:
292,96,65232,1,0,0:0:0:0:
348,168,65402,2,0,L|368:196,4,30.0000011444092
464,264,66084,5,6,0:0:0:0:
272,288,66425,1,8,0:0:0:0:
84,328,66766,2,0,P|84:288|116:240,1,80,2|2,0:0|0:0,0:0:0:0:
156,172,67107,2,0,L|172:136,3,30.0000011444092
156,172,67448,2,0,P|211:106|299:105,1,160,0|8,0:0|0:0,0:0:0:0:
376,112,67959,2,0,L|428:184,1,80,0|2,0:0|0:0,0:0:0:0:
380,268,68300,2,0,L|324:196,1,80,2|12,0:0|0:0,0:0:0:0:
204,60,68811,6,0,B|256:60|256:60|276:52|276:52|376:52,1,160,2|8,0:0|0:0,0:0:0:0:
440,92,69322,1,0,0:0:0:0:
476,184,69493,2,0,L|476:272,1,80,2|2,0:0|0:0,0:0:0:0:
412,336,69834,1,8,0:0:0:0:
328,292,70004,2,0,P|314:254|288:224,1,80,2|2,0:0|0:0,0:0:0:0:
160,112,70345,2,0,P|200:129|229:168,1,80,2|8,0:0|0:0,0:0:0:0:
168,284,70686,2,0,P|190:245|231:222,1,80,2|2,0:0|0:0,0:0:0:0:
349,104,71027,2,0,P|326:136|292:156,1,80,2|8,0:0|0:0,0:0:0:0:
108,212,71539,6,0,L|164:140,1,80,4|0,0:0|0:0,0:0:0:0:
140,52,71880,2,0,L|88:116,1,80,8|0,0:0|0:0,0:0:0:0:
212,200,72220,2,0,L|272:120,1,80,2|2,0:0|0:0,0:0:0:0:
324,64,72562,1,8,0:0:0:0:
420,72,72732,1,2,0:0:0:0:
428,168,72903,6,0,P|426:207|407:242,1,80,2|2,0:0|0:0,0:0:0:0:
328,296,73244,1,8,0:0:0:0:
148,228,73584,2,0,P|113:208|91:175,1,80,2|2,0:0|0:0,0:0:0:0:
180,140,73925,2,0,P|230:85|325:99,1,160,8|4,0:0|0:0,0:0:0:0:
256,192,74351,12,0,76652,0:0:0:0:
28,364,76993,5,8,0:0:0:0:
80,284,77164,2,0,L|172:272,1,80,2|2,0:0|0:0,0:0:0:0:
256,276,77504,1,8,0:0:0:0:
427,241,77675,2,0,L|343:227,1,80,2|2,0:0|0:0,0:0:0:0:
260,192,78016,1,8,0:0:0:0:
80,156,78186,2,0,L|172:144,1,80,2|2,0:0|0:0,0:0:0:0:
260,112,78527,1,8,0:0:0:0:
428,96,78698,2,0,L|344:82,1,80,2|2,0:0|0:0,0:0:0:0:
80,48,79038,1,8,0:0:0:0:
260,32,79379,1,8,0:0:0:0:
480,20,79720,5,8,0:0:0:0:
432,100,79891,2,0,L|340:112,1,80,2|2,0:0|0:0,0:0:0:0:
256,108,80231,1,8,0:0:0:0:
85,143,80402,2,0,L|168:156,1,80,2|2,0:0|0:0,0:0:0:0:
252,192,80743,1,8,0:0:0:0:
432,228,80913,2,0,L|340:240,1,80,2|2,0:0|0:0,0:0:0:0:
252,272,81254,1,8,0:0:0:0:
84,288,81425,2,0,L|167:301,1,80,2|2,0:0|0:0,0:0:0:0:
440,352,81765,1,8,0:0:0:0:
248,340,82107,1,8,0:0:0:0:
448,124,82448,5,4,0:0:0:0:
452,28,82618,1,0,0:0:0:0:
259,64,82959,1,0,0:0:0:0:
66,64,83300,1,0,0:0:0:0:
259,64,83641,1,0,0:0:0:0:
256,280,83982,2,0,L|256:360,2,80
260,184,84493,5,4,0:0:0:0:
260,184,84834,2,0,L|260:16,1,160,0|4,0:0|0:0,0:0:0:0:
256,192,85345,12,4,89266,0:0:0:0:
