osu file format v14

[General]
AudioFilename: NICO Touches the Walls - Broken Youth (TV Size) .mp3
AudioLeadIn: 1500
PreviewTime: 43584
Countdown: 0
SampleSet: Normal
StackLeniency: 0.7
Mode: 0
LetterboxInBreaks: 0
WidescreenStoryboard: 0

[Editor]
DistanceSpacing: 1
BeatDivisor: 2
GridSize: 4
TimelineZoom: 0.8

[Metadata]
Title:Broken Youth (TV Size)
TitleUnicode:Broken Youth (TV Size)
Artist:NICO Touches the Walls
ArtistUnicode:ニコタッチズザウォールズ
Creator:Kagetsu
Version:Genin
Source:NARUTO -ナルト-
Tags:Shippūden Tatsuya Mitsumura Hajime Okano 夏の雪 Ki/oon Records Ending
BeatmapID:729139
BeatmapSetID:326929

[Difficulty]
HPDrainRate:3
CircleSize:3
OverallDifficulty:3
ApproachRate:5
SliderMultiplier:1
SliderTickRate:1

[Events]
//Background and Video events
0,0,"BG2.jpg",0,0
Video,0,"BG2.avi"
//Break Periods
//Storyboard Layer 0 (Background)
//Storyboard Layer 1 (Fail)
//Storyboard Layer 2 (Pass)
//Storyboard Layer 3 (Foreground)
//Storyboard Sound Samples

[TimingPoints]
630,340.909090909091,4,1,1,40,1,0
44266,-100,4,1,1,40,0,1
66084,-100,4,1,1,40,0,0
79380,-133.333333333333,4,1,1,40,0,0
81766,-100,4,1,1,40,0,0
89266,-100,4,1,1,5,0,0

[Colours]
Combo1 : 157,79,0
Combo2 : 255,109,62
Combo3 : 105,148,63
Combo4 : 255,174,136

[HitObjects]
256,48,630,6,0,P|356:60|424:132,1,200,2|2,0:0|0:0,0:0:0:0:
428,224,1652,1,8,0:0:0:0:
384,316,1993,1,2,0:0:0:0:
288,320,2334,1,8,0:0:0:0:
196,280,2675,2,0,L|196:340,2,50,2|2|8,0:0|0:0|0:0,0:0:0:0:
124,208,3357,6,0,P|144:112|240:52,1,200,2|2,0:0|0:0,0:0:0:0:
324,56,4380,1,8,0:0:0:0:
424,72,4720,2,0,P|412:120|340:152,1,100,2|8,0:0|0:0,0:0:0:0:
272,172,5402,1,2,0:0:0:0:
272,272,5743,1,8,0:0:0:0:
352,308,6084,6,0,P|276:364|188:288,1,200,2|2,0:0|0:0,0:0:0:0:
104,252,7107,1,8,0:0:0:0:
40,176,7448,1,2,0:0:0:0:
92,88,7789,1,8,0:0:0:0:
184,48,8130,2,0,L|268:48,2,50,2|2|8,0:0|0:0|0:0,0:0:0:0:
204,148,8811,5,2,0:0:0:0:
152,244,9152,2,0,P|199:256|247:242,1,100,8|2,0:0|0:0,0:0:0:0:
296,148,9834,1,8,0:0:0:0:
248,60,10175,2,0,P|195:47|140:67,1,100,2|8,0:0|0:0,0:0:0:0:
64,112,10857,2,0,L|64:220,1,100,2|8,0:0|0:0,0:0:0:0:
92,308,11539,6,0,P|180:306|294:332,1,200,2|2,0:0|0:0,0:0:0:0:
388,336,12561,1,8,0:0:0:0:
472,280,12902,2,0,L|472:80,1,200,2|2,0:0|0:0,0:0:0:0:
388,32,13925,1,8,0:0:0:0:
332,112,14266,6,0,L|392:168,2,50,2|2|8,0:0|0:0|0:0,0:0:0:0:
248,64,14948,2,0,P|200:48|152:64,1,100,2|8,0:0|0:0,0:0:0:0:
72,128,15630,2,0,L|68:232,1,100,2|8,0:0|0:0,0:0:0:0:
136,304,16311,2,0,P|184:288|240:312,1,100,2|8,0:0|0:0,0:0:0:0:
328,336,16993,6,0,P|392:256|472:184,1,200,2|2,0:0|0:0,0:0:0:0:
472,96,18016,1,8,0:0:0:0:
401,25,18357,1,2,0:0:0:0:
304,56,18698,1,8,0:0:0:0:
208,40,19039,2,0,P|120:120|120:200,1,200,2|2,0:0|0:0,0:0:0:0:
216,208,20061,5,8,0:0:0:0:
316,208,20402,2,0,L|296:152,2,50,2|2|8,0:0|0:0|0:0,0:0:0:0:
356,300,21084,1,2,0:0:0:0:
260,332,21425,1,8,0:0:0:0:
164,308,21766,2,0,L|176:356,2,50,2|2|8,0:0|0:0|0:0,0:0:0:0:
144,208,22448,6,0,P|137:158|185:78,1,100,2|8,0:0|0:0,0:0:0:0:
240,52,23130,1,2,0:0:0:0:
340,40,23470,1,8,0:0:0:0:
428,92,23811,2,0,L|344:176,1,100,2|8,0:0|0:0,0:0:0:0:
284,232,24493,1,2,0:0:0:0:
312,328,24834,2,0,P|220:304|188:198,1,200,8|8,0:0|0:0,0:0:0:0:
240,128,25857,5,0,0:0:0:0:
159,70,26198,2,0,P|244:28|331:87,1,200,8|8,0:0|0:0,0:0:0:0:
396,152,27220,1,0,0:0:0:0:
460,76,27561,2,0,P|492:168|424:248,1,200,8|8,0:0|0:0,0:0:0:0:
336,260,28584,1,0,0:0:0:0:
413,324,28925,2,0,P|330:360|234:276,1,200,8|8,0:0|0:0,0:0:0:0:
256,192,29948,12,4,31993,0:0:0:0:
400,44,33357,6,0,P|412:92|390:151,1,100,2|8,0:0|0:0,0:0:0:0:
308,188,34039,2,0,P|336:228|388:244,1,100,2|8,0:0|0:0,0:0:0:0:
472,284,34720,2,0,L|520:216,2,50,2|2|8,0:0|0:0|0:0,0:0:0:0:
384,336,35402,2,0,L|276:336,1,100,2|8,0:0|0:0,0:0:0:0:
184,336,36084,6,0,P|128:336|94:285,1,100,2|8,0:0|0:0,0:0:0:0:
84,208,36766,2,0,L|34:208,2,50,2|2|8,0:0|0:0|0:0,0:0:0:0:
136,124,37448,2,0,L|86:124,2,50,2|2|8,0:0|0:0|0:0,0:0:0:0:
236,144,38130,2,0,L|236:260,1,100,2|8,0:0|0:0,0:0:0:0:
192,332,38811,5,2,0:0:0:0:
192,332,39152,2,0,P|248:343|307:309,1,100,8|2,0:0|0:0,0:0:0:0:
376,280,39834,1,8,0:0:0:0:
376,280,40175,2,0,L|376:176,1,100,2|8,0:0|0:0,0:0:0:0:
276,172,40857,1,2,0:0:0:0:
276,172,41198,2,0,L|204:252,1,100,8|2,0:0|0:0,0:0:0:0:
116,284,41880,6,0,L|116:220,1,50,8|2,0:0|0:0,0:0:0:0:
64,148,42391,2,0,P|112:132|180:164,1,100,8|4,0:0|0:0,0:0:0:0:
168,316,43584,6,0,P|188:268|248:260,1,100,2|8,0:0|0:0,0:0:0:0:
256,344,44266,2,0,P|352:328|432:232,1,200,4|2,0:0|0:0,0:0:0:0:
456,168,45289,1,8,0:0:0:0:
400,84,45630,2,0,B|320:52|272:148|200:108,1,200,2|2,0:0|0:0,0:0:0:0:
128,172,46652,1,8,0:0:0:0:
204,240,46993,6,0,B|284:272|332:176|404:216,1,200,2|2,0:0|0:0,0:0:0:0:
488,176,48016,1,8,0:0:0:0:
440,88,48357,2,0,B|360:56|312:152|240:112,1,200,2|2,0:0|0:0,0:0:0:0:
152,104,49380,1,8,0:0:0:0:
144,200,49720,6,0,L|207:286,1,100,2|8,0:0|0:0,0:0:0:0:
280,344,50402,1,2,0:0:0:0:
360,280,50743,2,0,L|424:192,1,100,8|2,0:0|0:0,0:0:0:0:
400,112,51425,1,8,0:0:0:0:
320,52,51766,2,0,L|355:16,2,50,2|2|8,0:0|0:0|0:0,0:0:0:0:
220,68,52448,6,0,P|236:120|299:147,1,100,2|8,0:0|0:0,0:0:0:0:
380,164,53130,1,2,0:0:0:0:
452,236,53470,1,8,0:0:0:0:
396,308,53811,2,0,L|320:308,2,50,2|2|8,0:0|0:0|0:0,0:0:0:0:
352,220,54493,2,0,L|268:220,2,50,2|2|8,0:0|0:0|0:0,0:0:0:0:
320,124,55175,6,0,P|228:148|208:240,1,200,4|2,0:0|0:0,0:0:0:0:
192,340,56198,1,8,0:0:0:0:
108,288,56539,1,2,0:0:0:0:
80,192,56880,1,8,0:0:0:0:
116,100,57220,2,0,L|216:84,1,100,2|8,0:0|0:0,0:0:0:0:
316,76,57902,5,6,0:0:0:0:
404,120,58243,1,8,0:0:0:0:
324,180,58584,2,0,L|236:244,1,100,2|8,0:0|0:0,0:0:0:0:
160,296,59266,1,2,0:0:0:0:
76,352,59607,1,8,0:0:0:0:
40,264,59948,2,0,L|44:152,1,100,2|8,0:0|0:0,0:0:0:0:
52,64,60630,6,0,P|136:112|140:212,1,200,4|2,0:0|0:0,0:0:0:0:
112,296,61652,1,8,0:0:0:0:
200,344,61993,2,0,P|249:323|337:325,1,100,2|8,0:0|0:0,0:0:0:0:
392,344,62675,2,0,P|392:292|344:228,1,100,2|8,0:0|0:0,0:0:0:0:
332,156,63357,5,2,0:0:0:0:
308,60,63698,1,8,0:0:0:0:
208,48,64039,2,0,L|48:60,1,150,0|0,0:0|0:0,0:0:0:0:
28,156,64891,1,8,0:0:0:0:
32,204,65061,1,8,0:0:0:0:
24,304,65402,2,0,P|57:339|106:342,1,100,2|8,0:0|0:0,0:0:0:0:
200,308,66084,6,0,L|308:304,1,100,6|8,0:0|0:0,0:0:0:0:
396,284,66766,1,2,0:0:0:0:
368,188,67107,2,0,L|445:106,1,100,8|2,0:0|0:0,0:0:0:0:
432,16,67789,1,8,0:0:0:0:
332,36,68130,2,0,L|232:140,1,100,2|8,0:0|0:0,0:0:0:0:
220,196,68811,6,0,L|328:196,1,100,6|8,0:0|0:0,0:0:0:0:
396,264,69493,1,2,0:0:0:0:
308,316,69834,2,0,L|197:316,1,100,8|2,0:0|0:0,0:0:0:0:
128,240,70516,1,8,0:0:0:0:
112,140,70857,2,0,L|62:140,2,50,2|2|8,0:0|0:0|0:0,0:0:0:0:
212,120,71539,5,4,0:0:0:0:
411,120,72220,1,0,0:0:0:0:
316,296,72902,1,0,0:0:0:0:
115,296,73584,1,0,0:0:0:0:
256,192,73925,12,4,76993,0:0:0:0:
456,264,77505,6,0,P|468:168|440:92,2,150,4|4|4,0:0|0:0|0:0,0:0:0:0:
308,252,79039,1,0,0:0:0:0:
308,252,79380,2,0,P|217:63|127:258,1,525.000020027161,0|4,0:0|0:0,0:0:0:0:
300,344,82448,5,0,0:0:0:0:
300,344,82618,2,0,L|420:344,2,100
176,304,83641,2,0,L|176:200,1,100
180,136,84152,2,0,L|288:136,2,100
256,192,85345,12,4,89266,0:0:0:0:
