osu file format v12

[General]
AudioFilename: 224958_Corrosion.mp3
AudioLeadIn: 0
PreviewTime: 31624
Countdown: 0
SampleSet: Normal
StackLeniency: 0.5
Mode: 0
LetterboxInBreaks: 1
WidescreenStoryboard: 1

[Editor]
DistanceSpacing: 1
BeatDivisor: 4
GridSize: 4

[Metadata]
Title:Corrosion
TitleUnicode:Corrosion
Artist:NH22
ArtistUnicode:NH22
Creator:MasterKirin
Version:Hard
Source:Newgrounds
Tags:nighthawk22 corrosion newgrounds
BeatmapID:366636
BeatmapSetID:143525

[Difficulty]
HPDrainRate:6
CircleSize:4
OverallDifficulty:5
ApproachRate:8
SliderMultiplier:1.6
SliderTickRate:1

[Events]
//Background and Video events
0,0,"planet-collision-13194-1920x1200.jpg",0,0
//Break Periods
2,41190,49605
2,97385,105801
2,116116,124532
2,153580,161996
//Storyboard Layer 0 (Background)
//Storyboard Layer 1 (Fail)
//Storyboard Layer 2 (Pass)
//Storyboard Layer 3 (Foreground)
//Storyboard Sound Samples
//Background Colour Transformations
3,100,163,162,255

[TimingPoints]
2356,292.682926829268,4,1,0,100,1,0
3526,-100,4,1,0,30,0,0
8220,-100,4,1,0,50,0,0
11721,-200,4,1,0,50,0,0
12307,-100,4,1,0,50,0,0
12892,-100,4,1,0,30,0,0
17575,-200,4,1,0,50,0,0
18746,-100,4,1,0,50,0,0
22258,-100,4,1,0,70,0,0
31624,-100,4,1,0,70,0,1
40990,-100,4,1,0,70,0,0
87819,-100,4,1,0,70,0,1
97185,-100,4,1,0,70,0,0
125282,-200,4,1,0,70,0,0
133477,-100,4,1,0,70,0,0
181477,-100,4,1,0,70,0,1
190843,-100,4,1,0,70,0,0

[Colours]
Combo1 : 255,192,0
Combo2 : 255,128,64
Combo3 : 204,6,6
Combo4 : 242,24,57

[HitObjects]
172,308,3526,2,0,P|100:276|112:176,1,160
220,208,4112,1,0,0:0:0:0:
336,56,4697,2,0,P|412:88|412:156,1,160
284,168,5282,1,0,0:0:0:0:
188,80,5575,2,0,P|142:68|103:80,2,80
88,160,6160,1,0,0:0:0:0:
188,80,6453,1,0,0:0:0:0:
324,49,6746,6,0,P|393:47|419:69,2,80
188,80,7331,1,0,0:0:0:0:
280,168,7624,1,0,0:0:0:0:
392,232,7916,1,0,0:0:0:0:
265,299,8209,2,0,P|183:325|94:277,1,160
192,196,8795,1,0,0:0:0:0:
404,52,9380,6,0,P|352:72|400:148,1,160
508,108,9965,1,0,0:0:0:0:
460,228,10258,2,0,P|416:280|432:292,2,80
340,272,10843,1,0,0:0:0:0:
260,172,11136,1,0,0:0:0:0:
204,288,11429,1,0,0:0:0:0:
256,192,11721,12,0,12892,0:0:0:0:
256,40,13185,6,0,L|256:204,1,160
336,360,14063,1,0,0:0:0:0:
256,200,14355,1,0,0:0:0:0:
180,360,14648,1,0,0:0:0:0:
96,240,14941,2,0,P|56:208|16:220,2,80
148,124,15526,1,0,0:0:0:0:
256,52,15819,1,0,0:0:0:0:
364,124,16112,6,0,P|404:156|392:204,2,80
336,248,16697,2,0,P|320:300|208:304,1,160
104,276,17282,1,0,0:0:0:0:
36,200,17575,2,0,P|40:132|252:44,1,320
372,280,19624,2,0,P|408:248|464:248,1,80
444,348,19916,1,0,0:0:0:0:
316,344,20209,1,0,0:0:0:0:
208,272,20502,1,0,0:0:0:0:
256,192,20795,12,0,21965,0:0:0:0:
88,116,22258,6,0,P|144:80|228:124,1,160
216,180,22697,2,0,P|188:228|148:232,1,80
88,256,22990,1,0,0:0:0:0:
120,328,23136,1,0,0:0:0:0:
200,328,23282,1,0,0:0:0:0:
200,328,23429,2,0,L|296:328,1,80
252,252,23721,6,0,L|340:252,1,80
308,176,24014,2,0,L|404:176,1,80
360,100,24307,2,0,L|460:100,1,80
360,100,24599,2,0,P|312:48|224:48,1,160
204,100,25038,2,0,P|164:132|120:124,1,80
60,116,25331,1,0,0:0:0:0:
40,192,25477,1,0,0:0:0:0:
40,192,25624,6,0,L|40:280,1,80
112,304,25916,2,0,L|112:212,1,80
184,192,26209,2,0,L|184:280,1,80
256,304,26502,2,0,L|256:204,1,80
256,144,26795,1,0,0:0:0:0:
256,144,26941,2,0,P|292:80|392:56,1,160
424,68,27380,2,0,P|436:112|416:152,1,80
460,212,27673,5,0,0:0:0:0:
460,212,27819,1,0,0:0:0:0:
436,288,27965,2,0,L|344:288,1,80
296,340,28258,2,0,L|212:340,1,80
152,292,28551,2,0,L|64:292,1,80
36,220,28843,2,0,L|128:220,1,80
160,152,29136,1,0,0:0:0:0:
160,152,29282,6,0,P|208:96|296:72,1,160
340,92,29721,2,0,P|344:128|312:172,1,80
252,252,30160,1,0,0:0:0:0:
256,192,30453,12,0,31331,0:0:0:0:
256,72,31624,6,0,L|256:184,1,80
256,232,31916,1,0,0:0:0:0:
292,304,32063,2,0,P|356:320|384:312,2,80
256,232,32502,1,0,0:0:0:0:
180,204,32648,2,0,P|132:188|80:196,1,80
28,164,32941,2,0,P|60:112|96:88,1,80
140,52,33234,5,0,0:0:0:0:
208,92,33380,1,0,0:0:0:0:
272,48,33526,1,0,0:0:0:0:
340,92,33673,1,0,0:0:0:0:
404,140,33819,1,0,0:0:0:0:
404,140,33965,2,0,P|356:188|324:184,1,80
388,260,34258,6,0,P|338:269|295:234,1,80
288,336,34551,2,0,P|250:305|249:249,1,80
160,305,34843,2,0,P|162:255|206:220,1,80
244,184,35136,1,0,0:0:0:0:
244,184,35282,2,0,L|244:80,1,80
172,72,35575,2,0,L|172:156,1,80
92,148,35868,5,0,0:0:0:0:
12,136,36014,1,0,0:0:0:0:
40,212,36160,1,0,0:0:0:0:
40,212,36307,2,0,P|72:284|96:284,1,80
140,264,36599,2,0,P|168:316|208:320,1,80
264,320,36892,2,0,P|292:372|332:376,1,80
388,376,37185,2,0,P|416:324|456:312,1,80
476,248,37477,1,0,0:0:0:0:
308,76,37916,5,0,0:0:0:0:
308,76,37989,1,0,0:0:0:0:
308,76,38062,1,0,0:0:0:0:
468,92,38355,1,0,0:0:0:0:
340,192,38648,2,0,L|240:192,1,80
180,188,38941,2,0,B|152:148|152:148|92:136,1,80
104,64,39234,2,0,B|60:86|60:86|40:143,1,80
48,196,39526,1,0,0:0:0:0:
96,260,39673,1,0,0:0:0:0:
256,192,39819,12,0,40990,0:0:0:0:
64,180,50355,6,0,P|104:112|200:68,1,160
252,72,50795,1,0,0:0:0:0:
252,72,50941,2,0,P|256:132|296:152,1,80
336,96,51234,1,0,0:0:0:0:
336,96,51380,2,0,L|376:180,1,80
432,116,51673,2,0,L|472:208,1,80
404,240,51965,2,0,L|364:332,1,80
312,260,52258,2,0,L|276:344,1,80
200,336,52551,5,0,0:0:0:0:
200,336,52697,2,0,P|88:308|76:244,1,160
156,260,53136,1,0,0:0:0:0:
156,260,53282,2,0,P|176:200|168:160,1,80
112,132,53575,1,0,0:0:0:0:
112,132,53721,2,0,L|200:76,1,80
232,28,54014,2,0,L|304:100,1,80
324,156,54307,2,0,L|380:92,1,80
444,140,54599,1,0,0:0:0:0:
476,212,54746,5,0,0:0:0:0:
476,212,54892,1,0,0:0:0:0:
476,212,55038,2,0,P|448:300|384:320,1,160
396,240,55477,1,0,0:0:0:0:
396,240,55624,2,0,P|320:232|292:248,1,80
252,276,55916,1,0,0:0:0:0:
192,332,56063,2,0,P|120:308|120:288,1,80
68,260,56355,6,0,P|92:188|112:188,1,80
160,180,56648,2,0,P|183:149|173:111,1,80
216,44,56941,2,0,P|253:34|284:57,1,80
364,76,57234,1,0,0:0:0:0:
364,76,57380,2,0,P|424:128|428:208,1,160
480,268,57819,1,0,0:0:0:0:
416,316,57965,1,0,0:0:0:0:
352,268,58112,1,0,0:0:0:0:
288,316,58258,1,0,0:0:0:0:
208,268,58551,6,0,L|208:228,14,40
80,200,60014,1,0,0:0:0:0:
188,84,60307,1,0,0:0:0:0:
480,216,60892,1,0,0:0:0:0:
480,216,61038,2,0,L|424:304,1,80
296,208,61477,1,0,0:0:0:0:
188,324,61770,5,0,0:0:0:0:
188,324,61916,1,0,0:0:0:0:
188,324,62063,2,0,P|124:288|96:196,1,160
164,64,62648,1,0,0:0:0:0:
324,88,62941,1,0,0:0:0:0:
324,88,63087,1,0,0:0:0:0:
324,88,63234,2,0,P|376:128|400:244,1,160
244,224,63819,5,0,0:0:0:0:
112,316,64112,1,0,0:0:0:0:
84,160,64404,2,0,P|100:96|192:40,2,160
364,316,65575,1,0,0:0:0:0:
364,316,65721,2,0,L|424:228,1,80
264,184,66160,1,0,0:0:0:0:
364,60,66453,2,0,P|420:120|464:48,2,160
208,92,67331,5,0,0:0:0:0:
144,240,67624,1,0,0:0:0:0:
256,192,67916,12,0,68795,0:0:0:0:
100,64,69087,6,0,L|100:152,1,80
176,116,69380,2,0,L|176:208,1,80
100,220,69673,2,0,L|100:324,1,80
176,272,69965,2,0,L|176:360,1,80
256,344,70258,1,0,0:0:0:0:
400,276,70551,1,0,0:0:0:0:
420,116,70843,1,0,0:0:0:0:
272,52,71136,5,0,0:0:0:0:
272,52,71282,1,0,0:0:0:0:
272,52,71429,2,0,P|316:124|276:196,2,160
116,84,72307,1,0,0:0:0:0:
220,204,72599,1,0,0:0:0:0:
116,328,72892,1,0,0:0:0:0:
276,328,73185,2,0,P|344:328|376:304,1,80
400,260,73477,2,0,B|376:220|376:220|384:176,1,80
436,128,73770,6,0,B|420:80|420:80|384:64,1,80
340,128,74063,2,0,B|296:152|296:152|240:128,1,80
272,60,74355,2,0,B|224:44|224:44|176:68,1,80
196,136,74648,2,0,B|160:160|160:160|100:132,1,80
84,76,74941,1,0,0:0:0:0:
48,232,75234,1,0,0:0:0:0:
168,336,75526,1,0,0:0:0:0:
328,336,75819,6,0,P|360:312|384:264,1,80
444,232,76112,2,0,B|452:180|452:180|432:148,1,80
368,196,76404,2,0,B|324:184|324:184|304:156,1,80
372,116,76697,2,0,B|368:64|368:64|316:32,1,80
264,60,76990,2,0,B|240:92|240:92|200:96,1,80
256,192,77282,12,0,78453,0:0:0:0:
76,80,78746,6,0,L|76:168,1,80
40,232,79038,1,0,0:0:0:0:
176,316,79331,1,0,0:0:0:0:
252,340,79477,1,0,0:0:0:0:
252,340,79624,2,0,P|304:336|336:304,1,80
300,244,79916,2,0,P|344:216|396:224,1,80
440,256,80209,2,0,P|476:212|476:180,1,80
412,144,80502,2,0,P|404:96|376:72,1,80
304,52,80795,6,0,P|236:52|136:104,1,160
136,168,81234,1,0,0:0:0:0:
216,180,81380,1,0,0:0:0:0:
428,296,81819,1,0,0:0:0:0:
428,296,81965,2,0,L|340:296,1,80
276,260,82258,6,0,L|184:260,1,80
140,320,82551,2,0,L|32:320,1,80
40,244,82843,2,0,P|40:170|73:153,1,80
88,108,83136,2,0,P|152:64|256:48,1,160
240,80,83575,2,0,P|280:116|328:120,1,80
152,308,84160,5,0,0:0:0:0:
152,308,84307,2,0,P|152:252|176:216,1,80
240,240,84599,2,0,P|240:296|216:332,1,80,0|0,0:0|0:0,0:0:0:0:
316,320,84892,2,0,P|316:264|340:228,1,80
408,252,85185,2,0,P|408:308|384:344,1,80
476,348,85477,2,0,P|516:296|504:176,1,160
468,140,85916,1,0,0:0:0:0:
468,140,86063,1,0,0:0:0:0:
256,192,86648,12,0,87526,0:0:0:0:
96,80,87819,5,0,0:0:0:0:
96,80,87965,1,0,0:0:0:0:
96,80,88112,2,0,L|81:163,1,80
164,144,88404,2,0,L|148:232,1,80
228,208,88697,2,0,L|211:297,2,80
292,164,89136,1,0,0:0:0:0:
276,84,89282,6,0,P|328:44|376:44,1,80
388,108,89575,2,0,P|424:136|448:184,1,80
380,216,89868,2,0,P|384:272|372:312,1,80
300,316,90160,2,0,P|204:336|140:320,1,160
80,276,90599,1,0,0:0:0:0:
40,208,90746,1,0,0:0:0:0:
60,132,90892,2,0,L|144:132,1,80
132,52,91185,6,0,P|200:60|224:92,1,80
252,132,91477,2,0,P|304:148|356:128,1,80
328,64,91770,2,0,P|408:52|440:60,1,80
452,116,92063,2,0,L|488:208,1,80
388,320,92502,2,0,P|316:338|219:313,1,160
160,288,92941,2,0,P|188:252|232:236,1,80
180,168,93234,1,0,0:0:0:0:
116,120,93380,1,0,0:0:0:0:
116,120,93526,6,0,P|160:72|264:48,1,160
380,140,94112,1,0,0:0:0:0:
380,140,94185,1,0,0:0:0:0:
380,140,94258,1,0,0:0:0:0:
488,260,94551,1,0,0:0:0:0:
348,332,94843,2,0,L|348:232,1,80
272,220,95136,2,0,L|272:320,1,80
196,332,95429,2,0,L|196:240,1,80
120,220,95721,2,0,L|120:336,1,80
256,192,96014,12,0,97185,0:0:0:0:
216,328,106551,6,0,P|152:284|152:260,2,80
296,328,106990,2,0,P|334:321|359:290,2,80
256,256,107429,2,0,L|256:148,1,80
216,20,107868,2,0,P|172:56|180:104,2,80
296,20,108307,2,0,P|327:42|334:81,2,80
256,92,108746,1,0,0:0:0:0:
400,156,109038,6,0,L|460:92,2,80
400,236,109477,2,0,L|460:304,2,80
332,192,109916,1,0,0:0:0:0:
276,248,110063,2,0,P|224:280|192:284,2,80
208,204,110502,2,0,P|144:184|120:196,1,80
56,208,110795,1,0,0:0:0:0:
56,128,110941,1,0,0:0:0:0:
56,48,111087,1,0,0:0:0:0:
216,48,111380,6,0,L|316:48,2,80
248,124,111819,2,0,L|344:124,2,80
168,112,112258,1,0,0:0:0:0:
224,264,112551,2,0,L|224:364,2,80
300,284,112990,2,0,L|300:184,2,80
372,316,113429,1,0,0:0:0:0:
472,192,113721,2,0,L|512:112,2,80
396,164,114160,2,0,L|448:72,2,80
256,192,114746,12,0,115916,0:0:0:0:
128,196,125282,6,0,P|136:140|288:68,1,240
336,132,126453,2,0,P|328:188|176:260,1,240
116,308,127624,2,0,B|44:248|44:248|76:88,1,240
136,56,128795,2,0,B|200:92|200:92|264:56|264:56|320:92|320:92|356:68,1,240
412,116,129965,2,0,P|440:200|360:320,1,240
304,264,131136,2,0,P|216:224|80:284,1,240
44,208,132307,5,0,0:0:0:0:
84,140,132599,1,0,0:0:0:0:
152,96,132892,1,0,0:0:0:0:
232,80,133185,1,0,0:0:0:0:
256,192,133477,12,0,134355,0:0:0:0:
108,112,134648,5,0,0:0:0:0:
180,80,134795,1,0,0:0:0:0:
172,160,134941,2,0,P|200:232|184:256,1,80
124,244,135234,1,0,0:0:0:0:
152,320,135380,1,0,0:0:0:0:
228,304,135526,2,0,P|296:296|332:316,1,80
372,340,135819,1,0,0:0:0:0:
452,340,135965,1,0,0:0:0:0:
412,272,136112,6,0,L|412:164,1,80
456,124,136404,1,0,0:0:0:0:
428,48,136551,1,0,0:0:0:0:
368,104,136697,1,0,0:0:0:0:
312,48,136843,1,0,0:0:0:0:
292,124,136990,2,0,P|248:152|200:124,1,80
208,68,137282,2,0,P|160:48|128:56,1,80
80,112,137575,6,0,L|12:188,1,80
96,212,137868,2,0,L|140:280,1,80
192,336,138160,1,0,0:0:0:0:
272,336,138307,1,0,0:0:0:0:
352,336,138453,1,0,0:0:0:0:
432,336,138599,1,0,0:0:0:0:
392,268,138746,2,0,P|380:224|344:196,1,80
288,244,139038,6,0,P|260:188|280:148,1,80
324,120,139331,1,0,0:0:0:0:
180,52,139624,2,0,L|144:92,8,40
216,124,140355,1,0,0:0:0:0:
168,188,140502,1,0,0:0:0:0:
84,324,140795,2,0,L|52:292,8,40
164,332,141526,1,0,0:0:0:0:
228,284,141673,6,0,B|256:232|256:232|296:212,1,80
320,288,141965,2,0,B|380:296|380:296|420:276,1,80
364,216,142258,2,0,B|400:172|400:172|444:164,1,80
416,88,142551,1,0,0:0:0:0:
344,56,142697,1,0,0:0:0:0:
264,60,142843,2,0,L|172:60,1,80
216,136,143136,2,0,L|128:136,1,80
164,212,143429,6,0,L|68:212,1,80
24,264,143721,1,0,0:0:0:0:
60,336,143868,1,0,0:0:0:0:
132,300,144014,2,0,P|200:304|216:328,1,80
256,372,144307,2,0,P|304:360|332:328,1,80
288,268,144599,2,0,P|368:256|380:268,1,80
420,304,144892,2,0,P|460:256|456:216,1,80
436,164,145185,5,0,0:0:0:0:
436,84,145331,1,0,0:0:0:0:
364,120,145477,2,0,L|300:52,1,80
276,136,145770,2,0,L|220:204,1,80
188,128,146063,2,0,L|128:44,1,80
84,120,146355,1,0,0:0:0:0:
52,192,146502,2,0,L|52:296,1,80
124,312,146795,6,0,L|124:220,1,80
196,196,147087,2,0,L|196:284,1,80
264,320,147380,1,0,0:0:0:0:
344,320,147526,2,0,L|456:320,1,80
456,248,147819,2,0,L|352:248,1,80
340,176,148112,2,0,L|436:176,1,80
416,96,148404,1,0,0:0:0:0:
356,44,148551,1,0,0:0:0:0:
288,84,148697,6,0,L|256:112,8,40
240,32,149355,2,0,L|212:4,6,40
192,84,149868,2,0,L|152:92,8,40
168,164,150526,2,0,L|144:216,6,40
244,180,151038,2,0,L|244:272,1,80
320,288,151331,2,0,L|320:204,1,80
396,180,151624,2,0,L|396:280,1,80
468,296,151916,2,0,L|468:208,1,80
256,192,152209,12,0,153380,0:0:0:0:
72,64,162746,6,0,L|72:160,1,80
144,180,163038,2,0,L|144:92,1,80
216,64,163331,2,0,L|216:156,1,80
288,184,163624,2,0,L|288:100,1,80
356,64,163916,1,0,0:0:0:0:
432,84,164063,1,0,0:0:0:0:
456,160,164209,2,0,P|456:224|440:268,1,80
380,208,164502,6,0,P|372:276|376:304,1,80
308,332,164795,1,0,0:0:0:0:
240,292,164941,1,0,0:0:0:0:
172,332,165087,2,0,B|124:332|124:332|88:296,1,80
152,244,165380,2,0,B|104:212|104:212|56:212,1,80
16,164,165673,2,0,B|36:112|36:112|88:92,1,80
132,140,165965,2,0,B|184:144|184:144|216:120,1,80
160,60,166258,5,0,0:0:0:0:
236,40,166404,1,0,0:0:0:0:
312,60,166551,2,0,P|376:64|408:44,1,80
464,32,166843,2,0,P|484:84|472:128,1,80
412,144,167136,2,0,P|420:192|444:236,1,80
424,300,167429,2,0,L|368:272,10,40
320,244,168307,1,0,0:0:0:0:
312,168,168453,6,0,L|340:124,8,40
256,112,169185,1,0,0:0:0:0:
196,60,169331,2,0,L|148:148,1,80
84,96,169624,1,0,0:0:0:0:
40,164,169770,2,0,P|40:228|64:248,1,80
124,216,170063,2,0,P|120:264|76:304,1,80
168,332,170355,2,0,P|220:332|256:312,1,80
216,244,170648,2,0,P|264:228|304:232,1,80
256,192,170941,12,0,172112,0:0:0:0:
120,60,172404,5,0,0:0:0:0:
196,88,172551,1,0,0:0:0:0:
132,140,172697,1,0,0:0:0:0:
92,296,172990,1,0,0:0:0:0:
156,248,173136,1,0,0:0:0:0:
156,248,173282,2,0,L|216:304,1,80
264,240,173575,2,0,L|332:304,1,80
364,228,173868,2,0,L|436:292,1,80
456,208,174160,6,0,L|456:120,1,80
392,80,174453,2,0,P|312:48|232:80,1,160
240,104,174892,2,0,P|196:128|160:116,1,80
32,320,175477,1,0,0:0:0:0:
32,320,175624,2,0,B|56:268|56:268|104:240,1,80
140,308,175916,2,0,B|188:324|188:324|236:292,1,80
184,232,176209,2,0,B|248:208|248:208|280:224,1,80
308,276,176502,5,0,0:0:0:0:
384,300,176648,1,0,0:0:0:0:
464,288,176795,2,0,P|472:204|424:120,1,160
408,124,177234,2,0,P|364:88|360:64,1,80
120,72,177819,1,0,0:0:0:0:
120,72,177965,2,0,L|88:160,1,80
172,156,178258,2,0,L|136:232,1,80
216,240,178551,2,0,L|168:336,1,80
260,328,178843,6,0,L|352:328,1,80
416,304,179136,2,0,P|452:248|396:144,1,160
392,152,179575,2,0,L|308:152,1,80
256,192,180307,12,0,181185,0:0:0:0:
256,80,181477,6,0,L|256:184,1,80
256,240,181770,1,0,0:0:0:0:
308,300,181916,2,0,P|368:320|388:344,2,80
256,240,182355,1,0,0:0:0:0:
180,264,182502,1,0,0:0:0:0:
180,264,182648,2,0,P|116:252|92:236,1,80
132,168,182941,2,0,P|72:140|52:108,1,80
108,64,183234,2,0,P|168:92|188:124,1,80
252,80,183526,5,0,0:0:0:0:
412,60,183819,2,0,L|468:128,1,80
424,192,184112,2,0,L|364:120,1,80
336,200,184404,2,0,L|392:268,1,80
348,332,184697,2,0,L|288:260,1,80
224,304,184990,1,0,0:0:0:0:
176,240,185136,1,0,0:0:0:0:
128,304,185282,1,0,0:0:0:0:
80,240,185429,1,0,0:0:0:0:
80,240,185575,6,0,P|68:144|248:48,1,320
396,72,186453,2,0,L|424:164,1,80
380,220,186746,1,0,0:0:0:0:
160,312,187185,1,0,0:0:0:0:
160,312,187331,2,0,P|104:288|80:248,1,80
132,204,187624,2,0,P|176:232|228:248,1,80
216,164,187916,2,0,P|204:124|168:96,1,80
228,40,188209,2,0,L|340:40,1,80
380,76,188502,5,0,0:0:0:0:
448,116,188648,1,0,0:0:0:0:
376,156,188795,2,0,L|328:228,1,80
368,292,189087,1,0,0:0:0:0:
292,312,189234,1,0,0:0:0:0:
244,248,189380,2,0,L|164:284,1,80
256,192,189673,12,0,190843,0:0:0:0:
