osu file format v5

[General]
AudioFilename: NEWS - weeeek.mp3
AudioLeadIn: 0
PreviewTime: 113644
Countdown: 1
SampleSet: Normal
StackLeniency: 0
Mode: 0
LetterboxInBreaks: 1
EditorBookmarks: 9890,29548,35828,90699,96432,149675

[Metadata]
Title:weeeek
Artist:NEWS
Creator:Echo
Version:Normal
Source:
Tags:

[Difficulty]
HPDrainRate:4
CircleSize:4
OverallDifficulty:5
SliderMultiplier:2
SliderTickRate:2

[Events]
//Background and Video events
0,0,"weeeek.jpg"
//Break Periods
2,29748,34928
2,90897,95532
//Storyboard Layer 0 (Background)
//Storyboard Layer 1 (Failing)
//Storyboard Layer 2 (Passing)
//Storyboard Layer 3 (Foreground)
//Storyboard Sound Samples
//Background Colour Transformations
3,100,163,162,255

[TimingPoints]
9885,546.075085324232,4,1,0,100,1
53297,546.075085324232,4,2,0,100,0
70226,546.075085324232,4,1,0,100,0
95067,546.075085324232,4,2,0,100,0
113087,546.075085324232,4,1,0,100,0

[HitObjects]
424,112,9885,5,2
408,272,10431,1,2
256,328,10977,2,2,B|202:341|150:326,1,100,2|4
96,280,11523,1,2
96,80,12069,6,2,B|162:73|200:104,1,100
176,176,12615,1,8
416,80,13161,2,2,B|350:73|312:104,1,100
336,176,13707,1,8
256,136,13980,6,2,B|256:256,1,100,2|4
336,336,14799,5,8
256,336,15072,1,0
176,336,15345,1,4
96,336,15618,2,2,B|96:112,1,200
128,64,16437,5,6
192,128,16710,5,6
256,192,16983,5,6
320,256,17257,5,6
392,192,17530,6,0,B|313:111|185:270|95:180,1,300
88,112,18622,5,2
104,272,19168,1,2
256,328,19714,2,2,B|310:341|362:326,1,100,2|4
416,280,20260,1,2
416,80,20806,6,2,B|350:73|312:104,1,100
336,176,21352,1,8
96,80,21898,2,2,B|162:73|200:104,1,100
176,176,22444,1,8
256,136,22717,6,2,B|256:256,1,100,2|4
176,336,23536,5,8
256,336,23809,1,0
336,336,24082,1,4
416,336,24355,2,2,B|416:112,1,200
384,64,25174,5,6
320,128,25447,5,6
256,192,25720,5,6
192,256,25994,5,6
256,192,26267,12,4,29543
256,80,35823,5,0
256,80,36096,1,2
96,120,36642,2,0,B|64:168|144:256|88:320,1,200
176,312,37461,1,2
208,240,37734,1,2
400,304,38280,6,0,B|360:296|344:240|288:240,1,100
392,216,38826,2,0,B|432:208|448:152|504:152,1,100
400,128,39373,1,2
328,88,39646,1,0
256,128,39919,1,2
184,280,40465,5,4
256,320,40738,1,0
328,280,41011,1,4
256,240,41284,5,0
200,184,41557,1,2
256,128,41830,1,2
312,184,42103,1,2
104,96,42649,6,0,B|56:176|72:232,1,100
72,264,43195,1,0
152,264,43468,1,0
192,200,43741,1,2
232,136,44014,1,0
312,136,44287,1,4
408,96,44560,6,0,B|456:176|440:232,1,100
440,264,45106,1,0
360,264,45379,1,0
320,328,45652,1,2
280,264,45925,1,0
200,264,46198,1,4
160,328,46472,1,2
128,56,47018,6,2,B|80:96|136:152,1,100
216,56,47564,6,2,B|168:96|224:152,1,100
304,56,48110,6,2,B|256:96|312:152,1,100
392,56,48656,6,2,B|344:96|400:152,1,100
384,224,49202,5,4
320,272,49475,1,0
256,312,49748,5,8
192,272,50021,1,0
256,232,50294,1,4
256,152,50567,1,0
192,192,50840,1,8
112,72,51386,5,4
208,72,51659,1,0
304,72,51932,1,4
400,72,52205,1,0
352,192,52478,5,2
256,192,52751,1,2
160,192,53024,1,2
456,120,53571,5,0
328,48,54117,1,2
184,48,54663,1,0
48,120,55209,1,2
48,264,55755,6,0,B|104:304|160:272,1,90
184,232,56301,2,0,B|240:192|296:224,1,90,2|0
328,256,56847,1,0
440,336,57393,1,2
456,192,57939,5,0
384,192,58212,1,8
392,72,58758,1,0
320,72,59031,1,2
56,192,59850,5,0
128,192,60123,1,8
120,72,60669,1,0
192,72,60943,1,0
256,104,61216,1,2
48,264,61762,6,0,B|48:200|120:176,2,100
184,336,62854,1,0
328,336,63400,1,0
464,264,63946,2,0,B|464:200|392:176,2,100
304,168,65038,2,0,B|256:192|200:168,2,100
184,320,66403,5,0
112,280,66676,1,2
208,144,67222,1,0
64,72,67768,1,2
256,280,68315,5,0
328,320,68588,1,0
400,280,68861,1,2
304,144,69407,1,0
448,72,69953,1,2
256,216,70499,5,0
256,216,70635,1,0
256,216,70772,1,4
96,88,71045,5,2
256,64,71591,1,0
416,88,72137,1,2
256,168,72683,1,0
96,200,73229,5,2
160,248,73502,1,0
208,312,73775,1,8
416,200,74321,5,2
352,248,74594,1,0
304,312,74867,1,8
256,248,75140,6,2,B|256:136,1,100,2|4
88,192,75960,5,2
112,112,76233,1,0
192,88,76506,1,8
424,192,77052,5,2
400,112,77325,1,0
320,88,77598,5,6
280,160,77871,5,6
240,232,78144,5,6
200,304,78417,5,6
120,192,78690,6,0,B|199:273|327:114|417:204,1,300
416,296,79782,5,2
256,320,80328,1,0
96,296,80874,1,2
256,216,81420,1,0
416,184,81966,5,2
352,136,82239,1,0
304,72,82512,1,8
96,184,83058,5,2
160,136,83331,1,0
208,72,83604,1,8
256,136,83877,6,2,B|256:248,1,100,2|4
424,192,84697,5,2
400,272,84970,1,0
320,296,85243,1,8
88,192,85789,5,2
112,272,86062,1,0
192,296,86335,5,6
232,224,86608,5,6
272,152,86881,5,6
312,80,87154,5,6
256,192,87427,12,4,90704
448,328,96710,5,2
384,200,97257,2,0,B|304:200|256:168,1,100
280,112,97803,1,2
144,152,98349,6,0,B|144:264,1,100
64,152,98895,2,0,B|64:264,1,100
64,328,99441,5,2
128,200,99988,2,0,B|208:200|256:168,1,100
232,112,100534,1,2
296,152,100806,1,0
360,192,101079,1,8
112,64,101898,5,2
256,64,102444,1,0
400,64,102990,1,2
400,208,103536,2,0,B|336:176|272:232|192:192,1,200,0|2
80,200,104628,1,4
448,304,105175,6,2,B|344:272|250:332,1,200
64,304,106267,2,2,B|168:272|262:332,1,200
256,208,107359,2,2,B|72:140|480:94|290:31,1,300
216,32,108451,2,2,B|166:46|54:120|370:121|364:137|364:284|239:285,1,400
168,328,109816,5,0
104,280,110089,1,0
168,232,110362,1,2
344,328,110908,5,0
408,280,111181,1,0
344,232,111454,1,2
256,192,112001,12,4,114185
424,272,114731,5,2
408,112,115277,1,2
256,56,115823,2,2,B|202:43|150:58,1,100,2|4
96,104,116369,1,2
96,304,116915,6,2,B|162:311|200:280,1,100
176,208,117461,1,8
416,304,118007,2,2,B|350:311|312:280,1,100
336,208,118553,1,8
256,248,118826,6,2,B|256:136,1,100,2|4
424,192,119646,5,2
400,112,119919,1,0
320,88,120192,1,8
88,192,120738,5,2
112,112,121011,1,0
192,88,121284,5,6
232,160,121557,5,6
272,232,121830,5,6
312,304,122103,5,6
392,192,122376,6,0,B|313:111|185:270|95:180,1,300
96,88,123468,5,2
256,64,124014,1,0
416,88,124560,1,2
256,168,125106,1,0
96,200,125652,5,2
160,248,125925,1,0
208,312,126198,1,8
416,200,126744,5,2
352,248,127017,1,0
304,312,127290,1,8
256,248,127564,6,2,B|256:128,1,100,2|4
336,48,128383,5,8
256,48,128656,1,0
176,48,128929,1,4
96,48,129202,2,2,B|96:272,1,200
128,320,130021,5,6
192,256,130294,5,6
256,192,130567,5,6
320,128,130841,5,6
256,192,131113,12,4,131932
256,192,132205,5,0
192,128,132478,1,0
128,64,132751,1,2
256,192,133297,5,0
320,128,133570,1,0
384,64,133843,1,2
376,304,134390,5,0
296,304,134663,1,0
216,304,134936,1,2
136,304,135209,1,0
176,232,135482,1,6
176,152,135755,1,6
216,80,136028,6,6,B|328:80|368:128|376:192,1,200,2|4
448,312,137120,5,2
368,312,137393,1,0
288,312,137666,1,8
232,248,137939,5,0
280,184,138212,1,2
328,120,138485,1,0
256,88,138758,5,6
208,152,139031,5,6
160,216,139304,5,6
112,280,139577,5,6
120,192,139850,6,0,B|199:111|327:270|417:180,1,300
256,192,140943,5,0
320,128,141216,1,0
384,64,141489,1,2
256,192,142035,5,0
192,128,142308,1,0
128,64,142581,1,2
136,304,143128,5,0
216,304,143401,1,0
296,304,143674,1,2
376,304,143947,1,0
336,232,144220,1,6
336,152,144493,1,6
296,80,144766,6,2,B|184:80|144:128|136:192,1,200,2|6
64,312,145858,5,2
144,312,146131,1,0
224,312,146404,1,8
280,248,146677,5,0
232,184,146950,1,2
184,120,147223,1,0
256,192,147495,12,4,149680
