osu file format v5

[General]
AudioFilename: NEWS - weeeek.mp3
AudioLeadIn: 0
PreviewTime: 113644
Countdown: 1
SampleSet: Normal
StackLeniency: 0
Mode: 0
LetterboxInBreaks: 1
EditorBookmarks: 9890,29548,35828,90699,96432,149675

[Metadata]
Title:weeeek
Artist:NEWS
Creator:Echo
Version:Hard
Source:
Tags:

[Difficulty]
HPDrainRate:6
CircleSize:5
OverallDifficulty:7
SliderMultiplier:2
SliderTickRate:2

[Events]
//Background and Video events
0,0,"weeeek.jpg"
//Break Periods
2,29748,34928
2,90897,95532
//Storyboard Layer 0 (Background)
//Storyboard Layer 1 (Failing)
//Storyboard Layer 2 (Passing)
//Storyboard Layer 3 (Foreground)
//Storyboard Sound Samples
//Background Colour Transformations
3,100,163,162,255

[TimingPoints]
9885,546.075085324232,4,1,0,100,1
53297,546.075085324232,4,2,0,100,0
69947,546.075085324232,4,1,0,100,0
95067,546.075085324232,4,2,0,100,0
113087,546.075085324232,4,1,0,100,0

[HitObjects]
368,80,9885,5,2
448,136,10158,1,0
368,192,10431,1,0
304,264,10704,2,2,B|250:277|198:262,1,100
144,192,11250,1,0
64,136,11523,1,0
144,80,11796,1,2
224,144,12069,6,2,B|231:210|200:248,1,100
256,320,12615,1,0
256,320,12751,1,0
306,240,13024,1,0
306,240,13161,2,2,B|281:210|288:144,1,100
344,72,13707,6,2,B|256:-13|162:76,1,200,2|6
152,216,14663,1,0
200,200,14799,1,8
232,240,14936,1,0
280,240,15072,1,0
312,200,15209,1,0
360,216,15345,1,0
368,320,15618,6,0,B|330:302|288:352|248:320,1,100,0|8
168,328,16164,1,0
200,216,16437,5,6
312,168,16710,5,6
200,120,16983,5,6
312,72,17257,5,6
400,192,17530,6,0,B|321:273|193:114|103:204,1,300
144,80,18622,5,2
64,136,18895,1,0
144,192,19168,1,0
208,264,19441,2,2,B|262:277|314:262,1,100
368,192,19987,1,0
448,136,20260,1,0
368,80,20533,1,2
288,144,20806,6,2,B|281:210|312:248,1,100
256,320,21352,1,0
256,320,21489,1,0
206,240,21762,1,0
206,240,21898,2,2,B|231:210|224:144,1,100
168,72,22444,6,2,B|256:-13|350:76,1,200,2|6
360,216,23400,1,0
312,200,23536,1,8
280,240,23673,1,0
232,240,23809,1,0
200,200,23946,1,0
152,216,24082,1,0
144,320,24355,6,0,B|182:302|224:352|264:320,1,100,0|8
344,328,24902,1,0
312,216,25175,5,0
200,168,25448,5,0
312,120,25721,5,0
200,72,25994,5,0
256,192,26267,12,4,29543
64,136,35823,6,2,B|96:160|48:200|120:232,1,100
192,176,36369,1,0
280,216,36642,1,8
200,272,36915,1,0
288,312,37188,5,0
336,320,37325,1,0
360,272,37461,1,0
384,224,37598,1,0
432,232,37734,1,8
440,56,38144,6,2,B|408:56|416:120|360:128,1,100
328,96,38553,1,0
296,136,38690,1,0
248,128,38826,1,8
216,168,38963,1,0
168,160,39100,2,2,B|144:160|112:144,2,50
184,328,39646,5,4
328,328,39919,1,12
448,136,40328,6,2,B|416:160|400:200,1,50
320,176,40738,1,0
232,216,41011,1,8
312,272,41284,1,0
224,312,41557,5,0
176,320,41693,1,0
152,272,41830,1,0
128,224,41966,1,0
80,232,42103,1,8
136,64,42512,5,0
160,104,42649,2,2,B|200:88|232:136|280:120,1,100
328,56,43195,2,0,B|378:94|352:160,1,100,8|0
256,192,43741,1,0
208,280,44014,1,2
256,296,44151,1,2
304,280,44287,1,14
112,88,44833,6,0,B|168:88|224:48,1,100
304,56,45379,2,0,B|360:56|424:96,1,100,8|0
360,176,45925,1,2
256,176,46198,1,0
152,176,46472,1,8
96,328,46881,5,0
128,288,47018,1,0
96,248,47154,1,0
192,328,47427,5,0
224,288,47564,1,8
192,248,47700,1,0
288,328,47973,5,0
320,288,48110,1,0
288,248,48246,1,0
384,328,48519,5,0
416,288,48656,1,8
384,248,48792,1,0
304,48,49202,6,2,B|256:40|200:48,1,100
176,144,49748,1,8
216,176,49885,1,0
256,144,50021,1,0
296,176,50158,1,0
336,144,50294,1,0
320,248,50567,1,2
192,248,50840,1,10
392,224,51386,6,2,B|408:272|392:336,1,100
120,224,51932,2,2,B|104:272|120:336,1,100,10|2
256,288,52478,1,0
256,240,52615,1,0
256,192,52751,1,0
256,144,52888,1,0
256,96,53024,1,8
56,120,53571,5,0
184,48,54117,1,2
328,48,54663,1,0
464,120,55209,1,2
464,192,55482,5,0
464,264,55755,2,2,B|408:304|352:272,1,90
328,232,56301,2,0,B|272:192|216:224,1,90
184,256,56847,1,2
128,304,57120,1,0
192,336,57393,1,2
56,192,57939,5,2
120,152,58212,1,0
56,112,58485,1,2
120,72,58758,1,0
192,72,59031,1,0
456,192,59850,5,0
392,152,60123,1,2
456,112,60396,1,0
392,72,60669,1,2
320,72,60943,1,0
256,104,61216,1,2
392,152,61762,5,0
456,192,62035,1,0
456,264,62308,1,0
328,336,62854,1,2
184,336,63400,1,0
48,264,63946,1,2
48,192,64219,5,0
48,120,64492,2,2,B|104:80|160:112,1,90
184,152,65038,2,0,B|240:192|296:160,1,90
256,104,65584,1,2
448,296,66403,5,0
344,256,66676,1,2
448,216,66949,1,0
344,176,67222,1,2
448,136,67495,1,0
344,96,67768,1,2
64,296,68315,5,0
168,256,68588,1,0
64,216,68861,1,2
168,176,69134,1,0
64,136,69407,1,2
168,96,69680,1,0
256,240,70226,6,0,B|256:128,1,100
256,140,70635,1,0
256,140,70772,1,4
96,312,71045,6,2,B|131:293|162:334|200:320,1,100
288,320,71591,1,0
336,304,71728,1,0
376,272,71864,2,2,B|400:248|344:208|374:165,1,100
256,192,72410,1,0
144,176,72683,1,4
80,96,72956,5,0
128,72,73093,1,0
176,88,73229,2,2,B|208:104|248:72|288:96,1,100
256,192,73775,2,2,B|288:208|328:176|368:200,1,100
336,96,74321,1,4
432,88,74594,1,4
400,328,75140,6,2,B|360:318|360:272|320:264,1,100
184,320,75823,1,0
136,312,75960,1,0
96,280,76096,1,0
128,240,76233,2,0,B|104:216|112:176,1,50
144,160,76506,1,0
280,88,76779,5,0
376,64,77052,2,2,B|368:104|416:120|424:168,1,100
352,224,77598,5,6
192,96,77871,5,6
224,288,78144,5,6
64,160,78417,5,6
192,192,78690,6,0,B|271:273|399:114|489:204,1,300
416,312,79782,6,2,B|381:293|350:334|312:320,1,100
224,320,80328,1,0
176,304,80465,1,0
136,272,80601,2,2,B|112:248|168:208|138:165,1,100
256,192,81147,1,0
368,176,81420,1,4
432,96,81693,5,0
384,72,81830,1,0
336,88,81966,2,2,B|304:104|264:72|224:96,1,100
256,192,82512,2,2,B|224:208|184:176|144:200,1,100
176,96,83059,1,4
80,88,83332,1,4
112,328,83878,6,2,B|152:318|152:272|192:264,1,100
328,320,84560,1,0
376,312,84697,1,0
416,280,84833,1,0
384,240,84970,2,0,B|408:216|400:176,1,50
368,160,85243,1,0
232,88,85516,5,0
136,64,85789,2,2,B|144:104|96:120|88:168,1,100
160,224,86335,5,6
320,96,86608,5,6
288,288,86881,5,6
448,160,87154,5,6
256,192,87427,12,4,90704
456,280,96437,6,2,B|416:320|344:296,1,100
400,232,96983,2,2,B|304:208|258:238|216:312,1,200
184,240,97803,1,0
224,176,98076,6,2,B|224:64,1,100
312,176,98622,2,2,B|312:64,1,100
400,176,99168,1,2
56,280,99714,6,2,B|96:320|168:296,1,100
112,232,100260,2,2,B|208:208|254:238|296:312,1,200
328,240,101079,1,0
392,208,101352,1,2
400,64,101898,5,2
256,64,102444,1,0
112,64,102990,1,2
112,208,103536,2,0,B|176:176|240:232|328:184,1,200,0|2
432,200,104629,1,4
256,240,105175,6,2,B|330:250|349:332|432:344,1,200
256,240,106267,2,2,B|182:250|163:332|80:344,1,200
256,240,107359,2,2,B|94:165|482:112|272:23,1,300
216,32,108451,2,2,B|169:62|83:150|374:147|395:226|253:321,1,400
168,328,109816,5,2
80,280,110089,1,0
168,232,110362,1,0
256,280,110635,1,0
344,328,110908,5,2
432,280,111181,1,0
344,232,111454,1,2
256,184,111728,1,0
200,48,112001,5,2
312,48,112274,1,0
200,120,112547,1,2
312,120,112820,1,0
256,192,113093,12,4,114185
368,304,114731,5,2
448,248,115004,1,0
368,192,115277,1,0
304,120,115550,2,2,B|250:107|198:122,1,100
144,192,116096,1,0
64,248,116369,1,0
144,304,116642,1,2
224,240,116915,6,2,B|231:174|200:136,1,100
256,64,117461,1,0
256,64,117598,1,0
306,144,117871,1,0
306,144,118007,2,2,B|281:174|288:240,1,100
112,56,118826,6,2,B|152:66|152:112|192:120,1,100
328,64,119509,1,0
376,72,119646,1,0
416,104,119782,1,0
384,144,119919,2,0,B|408:168|400:208,1,50
368,224,120192,1,0
232,296,120465,5,0
136,320,120738,2,2,B|144:280|96:264|88:216,1,100
160,160,121284,5,6
320,288,121557,5,6
288,96,121830,5,6
448,224,122103,5,6
320,192,122376,6,0,B|241:111|113:270|23:180,1,300
416,312,123468,6,2,B|381:293|350:334|312:320,1,100
224,320,124014,1,0
176,304,124151,1,0
136,272,124287,2,0,B|112:248|168:208|138:165,1,100
256,192,124833,1,0
368,176,125106,1,0
432,96,125379,5,0
384,72,125516,1,0
336,88,125652,2,2,B|304:104|264:72|224:96,1,100
256,192,126198,2,2,B|224:208|184:176|144:200,1,100
72,144,126745,1,4
72,240,127018,1,4
168,312,127291,6,2,B|256:397|350:308,1,200,2|6
360,168,128246,1,0
312,184,128383,1,8
280,144,128519,1,0
232,144,128656,1,0
200,184,128792,1,0
152,168,128929,1,0
368,64,129202,6,0,B|330:82|288:32|248:64,1,100,0|8
168,56,129748,1,0
312,168,130021,5,6
200,216,130294,5,6
312,264,130567,5,6
200,312,130840,5,6
256,192,131113,12,4,131932
256,192,132205,5,4
160,96,132478,2,2,B|120:144|192:240|144:336,1,200
256,192,133297,5,4
352,96,133571,2,2,B|392:144|320:240|368:336,1,200
216,312,134390,5,4
184,272,134526,1,0
136,288,134663,1,2
296,312,134936,5,4
328,272,135072,1,0
376,288,135209,1,2
224,208,135482,5,4
256,168,135618,1,0
288,128,135755,1,0
256,88,135891,1,0
288,48,136028,1,2
400,96,136301,6,2,B|384:128|416:176|400:224,1,100
192,320,136983,1,0
240,304,137120,2,0,B|272:304|304:320,1,50,8|0
336,320,137393,1,0
384,304,137530,2,0,B|416:304|448:288,1,50,0|0
360,224,137939,5,0
272,168,138212,5,8
184,112,138485,5,0
96,56,138758,6,2,B|96:176,1,100
184,200,139304,6,2,B|184:312,1,100
408,256,139850,6,0,B|329:175|201:334|111:244,1,300
120,104,140943,5,4
160,72,141079,1,0
208,88,141216,1,2
392,104,141489,5,4
352,72,141625,1,0
304,88,141762,1,2
160,200,142035,5,0
256,168,142308,2,2,B|250:184|266:206|256:224,1,50
352,200,142581,1,4
344,296,142854,5,0
304,328,142990,1,0
256,320,143127,1,2
168,296,143400,5,0
208,328,143536,1,0
256,320,143673,2,2,B|232:264|288:160|240:88,1,200,2|6
400,96,144492,2,2,B|384:128|416:176|400:224,1,100
112,96,145038,6,2,B|128:128|96:176|112:224,1,100
320,320,145721,1,0
272,304,145857,2,0,B|240:304|208:320,1,50,8|0
176,320,146130,1,0
128,304,146267,2,0,B|96:304|64:288,1,50,0|0
152,224,146676,5,0
240,168,146949,5,8
328,112,147222,5,0
256,192,147495,12,4,149680
