osu file format v13

[General]
AudioFilename: NERDHEAD feat Kana Nishino - Brave Heart.mp3
AudioLeadIn: 0
PreviewTime: 93975
Countdown: 0
SampleSet: Soft
StackLeniency: 0.7
Mode: 0
LetterboxInBreaks: 0
WidescreenStoryboard: 0

[Editor]
DistanceSpacing: 1
BeatDivisor: 4
GridSize: 4
TimelineZoom: 1

[Metadata]
Title:Brave Heart
TitleUnicode:Brave Heart
Artist:NERDHEAD ft. Nishino Kana
ArtistUnicode:NERDHEAD ft. 西野カナ
Creator:Kanari
Version:Normal
Source:
Tags:xXCrystalMoonAnimeXx Sun Rainbow Rakuen collaboration Beginning of The End
BeatmapID:147400
BeatmapSetID:47523

[Difficulty]
HPDrainRate:4
CircleSize:3
OverallDifficulty:3
ApproachRate:4.5
SliderMultiplier:1.1
SliderTickRate:1

[Events]
//Background and Video events
0,0,"BraveHeart.jpg",0,0
//Break Periods
2,48575,56715
2,137375,140715
2,230975,239115
2,257375,258315
//Storyboard Layer 0 (Background)
//Storyboard Layer 1 (Fail)
//Storyboard Layer 2 (Pass)
//Storyboard Layer 3 (Foreground)
//Storyboard Sound Samples
//Background Colour Transformations
3,100,163,162,255

[TimingPoints]
375,600,4,2,1,100,1,0
29175,-100,4,2,1,100,0,1
48375,-100,4,2,1,90,0,0
57975,-100,4,2,1,80,0,0
67575,-100,4,2,1,75,0,0
77175,-100,4,2,1,70,0,0
77475,-100,4,2,1,90,0,0
84375,-100,4,2,1,80,0,0
84975,-100,4,2,1,90,0,0
93975,-100,4,2,1,60,0,0
94125,-100,4,2,1,80,0,0
96375,-100,4,2,1,100,0,1
104775,-100,4,2,1,70,0,1
105375,-100,4,2,1,100,0,1
113175,-100,4,2,1,70,0,1
113775,-100,4,2,1,100,0,1
115425,-100,4,2,1,100,0,0
115575,-100,4,2,1,100,0,1
134775,-100,4,2,1,70,0,0
137175,-100,4,2,1,50,0,0
141975,-100,4,2,1,70,0,0
144975,-100,4,2,1,80,0,0
180375,-100,4,2,1,60,0,0
181575,-100,4,2,1,80,0,0
182775,-100,4,2,1,80,0,1
183375,-100,4,2,1,100,0,1
201825,-100,4,2,1,100,0,0
201975,-100,4,2,1,100,0,1
221175,-100,4,2,1,100,0,0
242775,-100,4,2,1,90,0,0
243375,-100,4,2,1,100,0,0
259575,-100,4,2,1,100,0,1
263175,-100,4,2,1,80,0,1
263775,-100,4,2,1,100,0,1
278625,-100,4,2,1,100,0,0
278775,-100,4,2,1,100,0,1
285975,-100,4,2,1,70,0,1
287175,-100,4,2,1,100,0,1
295575,-100,4,2,1,75,0,1
296175,-100,4,2,1,85,0,1
297975,-100,4,2,1,75,0,0
300375,-100,4,2,1,65,0,0
302775,-100,4,2,1,55,0,0
304875,-100,4,2,1,60,0,0
305175,-100,4,2,1,55,0,0
305625,-100,4,2,1,60,0,0
306975,-100,4,2,1,50,0,0
307275,-100,4,2,1,40,0,0

[Colours]
Combo1 : 254,241,129
Combo2 : 255,166,166
Combo3 : 240,182,147
Combo4 : 231,230,228

[HitObjects]
256,80,29175,5,4,0:0:0:0:
256,192,29775,1,8,0:0:0:0:
164,132,30375,2,0,P|112:144|72:184,2,110,2|0|2,0:0|0:0|0:0,0:0:0:0:
164,240,32175,1,8,0:0:0:0:
216,260,32475,1,0,0:0:0:0:
272,268,32775,1,2,0:0:0:0:
380,264,33375,6,0,B|440:264|480:308,2,110,8|2|8,0:0|0:0|0:0,0:0:0:0:
320,176,35175,1,0,0:0:0:0:
236,104,35775,2,0,L|196:144,1,55
156,180,36375,2,0,B|96:152|104:84,1,110,2|8,0:0|0:0,0:0:0:0:
64,56,37275,1,0,0:0:0:0:
8,44,37575,1,2,0:0:0:0:
16,152,38175,1,8,0:0:0:0:
84,240,38775,5,4,0:0:0:0:
40,340,39375,2,0,B|96:352,2,55,8|0|2,0:0|0:0|0:0,0:0:0:0:
84,240,40575,1,8,0:0:0:0:
136,144,41175,2,0,B|248:160,2,110,2|8|0,0:0|0:0|0:0,0:0:0:0:
188,48,42975,2,0,B|248:56,1,55,8|2,0:0|0:0,0:0:0:0:
292,76,43575,6,0,B|364:100|360:152|360:152|424:152|452:216,1,220,0|2,0:0|0:0,0:0:0:0:
356,268,45375,1,8,0:0:0:0:
280,188,45975,6,0,B|248:224|200:176|176:220,1,110,2|8,0:0|0:0,0:0:0:0:
148,264,46875,1,0,0:0:0:0:
176,320,47175,2,0,B|208:356|256:308|280:352,2,110,0|8|4,0:0|0:0|0:0,0:0:0:0:
184,214,57975,6,0,P|223:190|292:190,1,110,4|8,0:0|0:0,0:0:0:0:
384,236,59175,2,0,L|460:236,2,55,2|0|8,0:0|0:0|0:0,0:0:0:0:
323,327,60375,2,0,P|284:351|215:351,1,110,2|8,0:0|0:0,0:0:0:0:
129,292,61575,2,0,L|53:292,2,55,2|0|8,0:0|0:0|0:0,0:0:0:0:
176,192,62775,6,0,B|120:160|124:92,2,110
232,100,64575,2,0,B|280:72,2,55,2|0|2,0:0|0:0|0:0,0:0:0:0:
300,188,65775,1,8,0:0:0:0:
364,276,66375,2,0,P|288:296|244:280,1,110
152,268,67575,6,0,P|48:212|40:116,1,220,4|2,0:0|0:0,0:0:0:0:
148,112,69375,2,0,P|132:52|92:24,2,110,8|2|8,0:0|0:0|0:0,0:0:0:0:
200,208,71175,1,2,0:0:0:0:
308,208,71775,1,8,0:0:0:0:
364,112,72375,6,0,P|380:52|420:24,2,110,2|8|2,0:0|0:0|0:0,0:0:0:0:
352,164,73875,1,0,0:0:0:0:
336,216,74175,2,0,P|320:276|280:304,1,110,8|2,0:0|0:0,0:0:0:0:
232,204,75375,6,0,L|136:140,1,110,8|2,0:0|0:0,0:0:0:0:
228,84,76575,1,8,0:0:0:0:
132,32,77175,5,4,0:0:0:0:
80,52,77475,2,0,L|28:80,2,55
120,88,78375,2,0,P|162:122|188:172,1,110,0|0,0:0|0:0,0:0:0:0:
136,268,79575,2,0,P|94:234|69:186,1,110,2|8,0:0|0:0,0:0:0:0:
80,132,80475,1,0,0:0:0:0:
120,88,80775,2,0,P|188:64|240:64,1,110,2|8,0:0|0:0,0:0:0:0:
256,168,81975,6,0,L|280:276,1,110,2|0,0:0|0:0,0:0:0:0:
324,308,82875,1,2,0:0:0:0:
380,316,83175,2,0,B|472:352,2,82.5,0|8|2,0:0|0:0|0:0,0:0:0:0:
396,264,84375,5,4,0:0:0:0:
460,176,84975,1,8,0:0:0:0:
352,164,85575,1,0,0:0:0:0:
404,68,86175,1,8,0:0:0:0:
296,68,86775,5,4,0:0:0:0:
404,68,87375,2,0,P|432:68|460:80,1,55,8|2,0:0|0:0,0:0:0:0:
488,128,87975,2,0,B|508:196,2,55,0|2|8,0:0|0:0|0:0,0:0:0:0:
404,68,89175,5,2,0:0:0:0:
332,152,89775,1,8,0:0:0:0:
260,232,90375,2,0,B|216:280,2,55,2|0|8,0:0|0:0|0:0,0:0:0:0:
332,152,91575,6,0,P|368:192|368:260,2,110,2|8|2,0:0|0:0|0:0,0:0:0:0:
260,232,93375,1,8,0:0:0:0:
228,188,93675,1,2,0:0:0:0:
212,136,93975,6,0,P|236:72|272:48,2,110
228,188,95475,1,2,0:0:0:0:
260,232,95775,1,0,0:0:0:0:
332,316,96375,5,4,0:0:0:0:
440,316,96975,1,0,0:0:0:0:
440,260,97275,2,0,B|440:180,1,55,2|0,0:0|0:0,0:0:0:0:
440,96,98175,1,0,0:0:0:0:
384,88,98475,1,0,0:0:0:0:
332,104,98775,6,0,B|284:104|284:160|240:160,1,110,2|0,0:0|0:0,0:0:0:0:
252,212,99675,1,0,0:0:0:0:
236,264,99975,1,2,0:0:0:0:
144,204,100575,1,8,0:0:0:0:
52,264,101175,6,0,L|32:348,2,82.5,2|8|2,0:0|0:0|0:0,0:0:0:0:
68,212,102375,2,0,L|84:152,1,55
136,152,102975,2,0,P|180:116|188:52,1,110,0|2,0:0|0:0,0:0:0:0:
240,44,103875,5,0,0:0:0:0:
296,44,104175,2,0,L|372:44,1,55
404,56,104775,1,4,0:0:0:0:
484,132,105375,2,0,B|452:180,1,55,8|2,0:0|0:0,0:0:0:0:
400,180,105975,6,0,B|368:228,1,55,4|2,0:0|0:0,0:0:0:0:
320,236,106575,2,0,B|288:284,1,55,8|2,0:0|0:0,0:0:0:0:
236,292,107175,2,0,B|180:372,2,82.5,0|2|0,0:0|0:0|0:0,0:0:0:0:
288,312,108375,1,2,0:0:0:0:
396,312,108975,2,0,B|460:312,2,55,8|2|0,0:0|0:0|0:0,0:0:0:0:
256,192,110175,12,8,112575,0:0:0:0:
256,52,113175,6,0,B|256:164,1,110,4|0,0:0|0:0,0:0:0:0:
256,216,114075,1,2,0:0:0:0:
256,272,114375,2,0,P|280:316|340:352,1,110,0|8,0:0|0:0,0:0:0:0:
384,348,115275,1,2,0:0:0:0:
440,348,115575,5,4,0:0:0:0:
404,244,116175,2,0,B|404:196|376:172,1,55,8|2,0:0|0:0,0:0:0:0:
360,144,116775,2,0,B|296:160|292:224,2,110,0|8|2,0:0|0:0|0:0,0:0:0:0:
404,244,118575,2,0,B|368:304,1,55,8|2,0:0|0:0,0:0:0:0:
328,320,119175,2,0,P|272:336|212:320,1,110,0|8,0:0|0:0,0:0:0:0:
172,300,120075,1,2,0:0:0:0:
256,192,120375,12,0,122775,0:0:0:0:
100,140,123375,6,0,B|72:188,1,55,8|0,0:0|0:0,0:0:0:0:
88,240,123975,2,0,B|44:312,2,82.5,2|8|2,0:0|0:0|0:0,0:0:0:0:
136,264,125175,6,0,P|140:296|164:336,1,55,4|2,0:0|0:0,0:0:0:0:
196,344,125775,1,8,0:0:0:0:
252,352,126075,2,0,P|280:360|324:348,2,55,2|0|2,0:0|0:0|0:0,0:0:0:0:
196,344,126975,1,8,0:0:0:0:
148,244,127575,6,0,P|256:140|356:252,1,330,2|0,0:0|0:0,0:0:0:0:
456,200,129975,6,0,B|400:-8|84:-8|44:224,1,550,4|8,0:0|0:0,0:0:0:0:
152,240,133575,1,0,0:0:0:0:
256,276,134175,2,0,B|256:356,1,55,8|2,0:0|0:0,0:0:0:0:
256,192,134775,12,2,137175,0:0:0:0:
256,224,141975,6,0,B|256:312,2,82.5,4|2|0,0:0|0:0|0:0,0:0:0:0:
256,168,143175,2,0,B|256:72,2,82.5,0|2|0,0:0|0:0|0:0,0:0:0:0:
256,224,144375,1,4,0:0:0:0:
256,336,144975,5,8,0:0:0:0:
256,224,145575,1,2,0:0:0:0:
312,128,146175,1,8,0:0:0:0:
256,224,146775,1,2,0:0:0:0:
200,128,147375,1,8,0:0:0:0:
136,40,147975,2,0,P|92:128|152:224,1,220,0|2,0:0|0:0,0:0:0:0:
208,320,149775,5,8,0:0:0:0:
260,224,150375,1,0,0:0:0:0:
260,112,150975,2,0,B|260:32|396:56|340:120|436:120,1,220,8|8,0:0|0:0,0:0:0:0:
448,176,152475,1,2,0:0:0:0:
436,232,152775,2,0,B|340:232|396:296|260:320|260:240,1,220,0|4,0:0|0:0,0:0:0:0:
204,144,154575,6,0,P|180:88|132:64,1,110,8|0,0:0|0:0,0:0:0:0:
96,168,155775,1,8,0:0:0:0:
56,272,156375,2,0,P|116:276|168:252,1,110,2|8,0:0|0:0,0:0:0:0:
256,204,157575,1,0,0:0:0:0:
350,257,158175,6,0,P|396:276|456:272,1,110,8|2,0:0|0:0,0:0:0:0:
416,168,159375,1,8,0:0:0:0:
373,65,159976,2,0,P|332:88|308:144,1,110,0|8,0:0|0:0,0:0:0:0:
416,168,161175,1,2,0:0:0:0:
324,228,161775,2,0,P|268:220|224:172,1,110
256,76,162975,5,8,0:0:0:0:
256,76,163275,1,2,0:0:0:0:
256,76,163575,5,4,0:0:0:0:
148,96,164175,2,0,B|148:160|216:184,2,110,8|0|8,0:0|0:0|0:0,0:0:0:0:
256,76,165975,5,2,0:0:0:0:
364,96,166575,2,0,B|364:160|296:184,1,110,0|0,0:0|0:0,0:0:0:0:
256,76,167775,1,8,0:0:0:0:
260,184,168375,6,0,B|156:220|268:344|145:365,2,220,2|0|2,0:0|0:0|0:0,0:0:0:0:
308,156,171075,5,0,0:0:0:0:
364,156,171375,2,0,B|364:84,1,55,8|2,0:0|0:0,0:0:0:0:
392,48,171975,2,0,B|456:48,1,55,0|2,0:0|0:0,0:0:0:0:
472,96,172575,2,0,B|488:128|460:176|472:208,2,110,8|4|8,0:0|0:0|0:0,0:0:0:0:
416,92,174075,6,0,L|368:156,1,55,2|0,0:0|0:0,0:0:0:0:
328,128,174675,1,2,0:0:0:0:
276,140,174975,1,8,0:0:0:0:
224,124,175275,1,2,0:0:0:0:
168,116,175575,6,0,B|120:172,1,55,2|0,0:0|0:0,0:0:0:0:
148,212,176175,2,0,B|92:212|92:260|36:260,1,110,8|0,0:0|0:0,0:0:0:0:
20,212,177075,1,2,0:0:0:0:
8,160,177375,2,0,P|24:128|52:104,1,55,8|2,0:0|0:0,0:0:0:0:
256,192,177975,12,4,180375,0:0:0:0:
256,216,181575,6,0,B|256:288,2,55,0|2|8,0:0|0:0|0:0,0:0:0:0:
256,104,182775,5,4,0:0:0:0:
256,216,183375,1,8,0:0:0:0:
200,216,183675,1,0,0:0:0:0:
144,216,183975,2,0,B|88:232|72:296,2,110,0|8|2,0:0|0:0|0:0,0:0:0:0:
176,320,185775,1,8,0:0:0:0:
232,320,186075,1,0,0:0:0:0:
288,320,186375,1,2,0:0:0:0:
396,320,186975,6,0,B|452:304|468:240,2,110,8|2|8,0:0|0:0|0:0,0:0:0:0:
360,280,188475,1,2,0:0:0:0:
324,240,188775,2,0,B|272:168,2,82.5,0|0|2,0:0|0:0|0:0,0:0:0:0:
396,320,189975,2,0,B|452:304|468:240,1,110,2|8,0:0|0:0,0:0:0:0:
468,188,190875,2,0,B|468:132,1,55,0|2,0:0|0:0,0:0:0:0:
468,24,191775,1,8,0:0:0:0:
360,24,192375,5,4,0:0:0:0:
416,120,192975,2,0,B|416:176,2,55,8|2|0,0:0|0:0|0:0,0:0:0:0:
360,24,194175,1,8,0:0:0:0:
304,120,194775,2,0,B|240:120,2,55,2|0|8,0:0|0:0|0:0,0:0:0:0:
344,160,195675,1,0,0:0:0:0:
364,212,195975,1,2,0:0:0:0:
304,304,196575,6,0,B|248:304,1,55,8|2,0:0|0:0,0:0:0:0:
256,192,197175,12,8,201375,0:0:0:0:
244,252,201975,5,4,0:0:0:0:
148,220,202575,1,8,0:0:0:0:
96,236,202875,1,0,0:0:0:0:
108,184,203175,1,2,0:0:0:0:
212,148,203775,5,8,0:0:0:0:
244,196,204075,1,0,0:0:0:0:
244,252,204375,2,0,P|216:296|152:320,2,110
168,172,206175,1,0,0:0:0:0:
60,148,206775,6,0,B|60:216,2,55,2|0|8,0:0|0:0|0:0,0:0:0:0:
168,172,207975,2,0,P|212:200|256:252,1,110,2|8,0:0|0:0,0:0:0:0:
256,300,208875,2,0,B|256:376,1,55,2|4,0:0|0:0,0:0:0:0:
256,192,209475,12,4,211575,0:0:0:0:
173,110,212775,6,0,B|120:80|68:112,1,110,2|8,0:0|0:0,0:0:0:0:
120,208,213975,2,0,B|172:240|236:204,1,110,2|8,0:0|0:0,0:0:0:0:
336,212,215175,6,0,B|336:272,1,55,0|2,0:0|0:0,0:0:0:0:
280,272,215775,2,0,B|254:326,1,55,0|2,0:0|0:0,0:0:0:0:
200,324,216375,2,0,B|154:362,2,55,0|2|8,0:0|0:0|0:0,0:0:0:0:
228,216,217575,1,2,0:0:0:0:
256,112,218175,1,0,0:0:0:0:
340,40,218775,6,0,B|400:24|440:68,1,110,2|8,0:0|0:0,0:0:0:0:
364,144,219975,2,0,B|328:264,1,110,0|8,0:0|0:0,0:0:0:0:
256,192,221175,12,6,228375,0:0:0:0:
256,192,230775,5,4,0:0:0:0:
256,96,240375,5,4,0:0:0:0:
208,68,240675,1,2,0:0:0:0:
160,48,240975,2,0,B|100:24|40:72,1,110,8|2,0:0|0:0,0:0:0:0:
120,152,242175,2,0,B|104:212|148:276,1,110,8|2,0:0|0:0,0:0:0:0:
220,188,243375,6,0,B|280:204|344:160,1,110,8|0,0:0|0:0,0:0:0:0:
372,144,244275,1,2,0:0:0:0:
424,128,244575,2,0,B|448:173|407:201|427:234,1,110,8|2,0:0|0:0,0:0:0:0:
452,340,245775,6,0,B|372:368|288:360,1,165,0|2,0:0|0:0,0:0:0:0:
236,356,246975,1,0,0:0:0:0:
200,316,247275,1,2,0:0:0:0:
208,260,247575,6,0,B|136:260,1,55,4|2,0:0|0:0,0:0:0:0:
156,204,248175,2,0,B|84:204,1,55,8|2,0:0|0:0,0:0:0:0:
116,152,248775,2,0,B|44:152,1,55,0|2,0:0|0:0,0:0:0:0:
72,96,249375,2,0,B|0:96,2,55,8|2|4,0:0|0:0|0:0,0:0:0:0:
128,84,250275,5,2,0:0:0:0:
180,104,250575,2,0,B|212:168|164:216,1,110,8|0,0:0|0:0,0:0:0:0:
116,216,251475,1,2,0:0:0:0:
84,260,251775,1,8,0:0:0:0:
184,304,252375,6,0,B|242:280|301:327,1,110,2|8,0:0|0:0,0:0:0:0:
392,276,253575,1,2,0:0:0:0:
292,232,254175,2,0,B|268:173|315:114,2,110,8|2|8,0:0|0:0|0:0,0:0:0:0:
396,196,255975,2,0,B|400:160|424:116|424:116|392:44|328:28,1,220,0|2,0:0|0:0,0:0:0:0:
32,36,259575,6,0,B|96:32|148:84,1,110,4|8,0:0|0:0,0:0:0:0:
116,180,260775,2,0,B|180:184|228:132,1,110,2|8,0:0|0:0,0:0:0:0:
296,64,261975,2,0,B|334:101|332:168,1,110,0|8,0:0|0:0,0:0:0:0:
308,212,262875,1,0,0:0:0:0:
260,244,263175,1,2,0:0:0:0:
156,276,263775,2,0,B|100:224,1,55,8|2,0:0|0:0,0:0:0:0:
96,188,264375,6,0,P|255:61|416:188,1,440,4|2,0:0|0:0,0:0:0:0:
428,240,267075,2,0,B|476:284,1,55,2|8,0:0|0:0,0:0:0:0:
468,332,267675,2,0,B|408:332,1,55,2|2,0:0|0:0,0:0:0:0:
304,340,268575,1,8,0:0:0:0:
328,292,268875,1,2,0:0:0:0:
364,248,269175,6,0,B|412:204|484:204,2,110,4|8|2,0:0|0:0|0:0,0:0:0:0:
328,292,270675,1,2,0:0:0:0:
292,248,270975,2,0,B|244:204|172:204,1,110,8|2,0:0|0:0,0:0:0:0:
204,316,272175,2,0,B|152:352|76:336,1,110,8|0,0:0|0:0,0:0:0:0:
132,236,273375,5,8,0:0:0:0:
84,208,273675,1,2,0:0:0:0:
60,160,273975,2,0,B|176:144|256:68|256:68|324:140|465:167,1,440,4|2,0:0|0:0,0:0:0:0:
508,260,276975,1,8,0:0:0:0:
492,312,277275,1,2,0:0:0:0:
440,332,277575,2,0,P|380:348|332:340,1,110,0|8,0:0|0:0,0:0:0:0:
372,232,278775,6,0,B|300:244|336:164|336:164|380:68|304:88,1,220,4|0,0:0|0:0,0:0:0:0:
256,84,280275,2,0,B|256:8|256:8,2,55,2|8|2,0:0|0:0|0:0,0:0:0:0:
200,84,281175,2,0,B|132:65|176:161|176:161|212:241|140:229,1,220,2|2,0:0|0:0,0:0:0:0:
152,340,282975,6,0,B|80:312,1,55,8|2,0:0|0:0,0:0:0:0:
52,292,283575,2,0,B|12:240|20:180,1,110,4|8,0:0|0:0,0:0:0:0:
36,136,284475,1,2,0:0:0:0:
64,88,284775,2,0,B|116:48|176:56,1,110,0|8,0:0|0:0,0:0:0:0:
220,64,285675,1,2,0:0:0:0:
272,80,285975,2,0,B|312:120|308:188|308:188|272:232|276:288,1,220,4|2,0:0|0:0,0:0:0:0:
180,344,287775,6,0,B|144:288|184:228,1,110,8|4,0:0|0:0,0:0:0:0:
276,296,288975,2,0,B|278:229|345:203,1,110,8|0,0:0|0:0,0:0:0:0:
440,221,290175,2,0,B|438:287|384:308,1,110,8|2,0:0|0:0,0:0:0:0:
332,212,291375,2,0,B|364:163|328:107,1,110,8|0,0:0|0:0,0:0:0:0:
256,28,292575,1,0,0:0:0:0:
182,108,293175,6,0,B|148:163|180:212,1,110,4|8,0:0|0:0,0:0:0:0:
212,256,294075,1,2,0:0:0:0:
212,312,294375,2,0,B|160:344|80:332,1,110,0|8,0:0|0:0,0:0:0:0:
68,232,295575,6,0,B|40:112,1,110,6|8,0:0|0:0,0:0:0:0:
96,108,296475,1,2,0:0:0:0:
132,64,296775,2,0,B|180:28|256:36,2,110,0|8|2,0:0|0:0|0:0,0:0:0:0:
256,192,298275,12,2,302775,0:0:0:0:
160,152,304875,5,2,0:0:0:0:
204,120,305175,2,0,B|280:64|280:64,2,82.5,2|2|2,0:0|0:0|0:0,0:0:0:0:
160,152,306375,2,0,B|148:204|164:232,2,82.5,0|2|2,0:0|0:0|0:0,0:0:0:0:
