osu file format v13

[General]
AudioFilename: NERDHEAD feat Kana Nishino - Brave Heart.mp3
AudioLeadIn: 0
PreviewTime: 93975
Countdown: 0
SampleSet: Soft
StackLeniency: 0.7
Mode: 0
LetterboxInBreaks: 0
WidescreenStoryboard: 1

[Editor]
Bookmarks: 29175,93975,94275,144375,144975,172575,173175,201675,201975,228375,230775,259275,259575,278175,278775,297975,299475,307275
DistanceSpacing: 1
BeatDivisor: 4
GridSize: 4
TimelineZoom: 1

[Metadata]
Title:Brave Heart
TitleUnicode:Brave Heart
Artist:NERDHEAD ft. Nishino Kana
ArtistUnicode:NERDHEAD ft. 西野カナ
Creator:Kanari
Version:Hard Collab
Source:
Tags:xXCrystalMoonAnimeXx Sun Rainbow Rakuen collaboration Beginning of The End
BeatmapID:147398
BeatmapSetID:47523

[Difficulty]
HPDrainRate:6
CircleSize:4
OverallDifficulty:6
ApproachRate:7.5
SliderMultiplier:1.4
SliderTickRate:1

[Events]
//Background and Video events
0,0,"BraveHeart.jpg",0,0
//Break Periods
2,48575,54750
2,77375,85950
//Storyboard Layer 0 (Background)
//Storyboard Layer 1 (Fail)
//Storyboard Layer 2 (Pass)
//Storyboard Layer 3 (Foreground)
Sprite,Foreground,Centre,"SB Names\Kanari.png",320,240 F,0,28875,29475,0,1 M,0,29175,,422,434 F,0,29475,48075,1,0.9016666 F,0,48075,48675,0.9016666,0 F,0,55275,55875,0,1 F,0,55875,76875,1,0.9883333 F,0,76875,77475,0.9883333,0 F,0,86475,87075,0,1 F,0,87075,93675,1 F,0,93675,94275,1,0 F,0,144675,145275,0.16,1 F,0,145275,172275,1,0.9916 F,0,172275,172875,0.9916,0 F,0,201675,201975,0,1 F,0,201975,228075,1 F,0,228075,228525,1,0 F,0,259275,259875,0,1 F,0,259875,277875,1,0.9733334 F,0,277875,278475,0.9733334,0 F,0,299175,299775,0,1 F,0,299775,306975,1,0.965 F,0,306975,307575,0.965,0
Sprite,Foreground,Centre,"SB Names\Rainbow.png",320,240 F,0,93975,94575,0,1 M,0,94275,,415,436 F,0,94575,144075,1,0.7727545 F,0,144075,144675,0.7727545,0 F,0,172875,173475,0,1 F,0,173475,201075,1 F,0,201075,201675,1,0.02967743
Sprite,Foreground,Centre,"SB Names\Rakuen.png",320,240 F,0,230475,231075,0,1 M,0,230775,,408,432 F,0,231075,258975,1,0.9833333 F,0,258975,259575,0.9833333,0 F,0,278475,279075,0,1 F,0,279075,297675,1 F,0,297675,298275,1,0
Sprite,Foreground,Centre,"SB Names\Kanari.png",320,240 M,0,29175,,422,434 F,0,29175,29775,1,0 S,0,29175,29775,1,1.115613 F,0,55575,56175,1,0 S,0,55575,56175,0.9976878,1.113301 F,0,86775,87375,1,0 S,0,86775,87375,1.003441,1.110796 F,0,144975,145575,1,0 S,0,144975,145575,1.018525,1.109365 F,0,201975,202575,1,0 S,0,201975,202575,1.001101,1.108456 F,0,259575,260175,1,0 S,0,259575,260175,1.015649,1.106488 F,0,299475,300075,1,0 S,0,299475,300075,0.9991329,1.106488
Sprite,Foreground,Centre,"SB Names\Rainbow.png",320,240 M,0,94275,,414,434 F,0,94275,94875,1,0 S,0,94275,94875,1,1.189936 F,0,173175,173775,1,0 S,0,173175,173775,0.9898427,1.188036
Sprite,Foreground,Centre,"SB Names\Rakuen.png",320,240 M,0,230775,,407,431 F,0,230775,231375,1,0 S,0,230775,231375,1,1.231226 F,0,278775,279375,1,0 S,0,278775,279375,0.989815,1.229299
//Storyboard Sound Samples
//Background Colour Transformations
3,100,163,162,255

[TimingPoints]
375,600,4,2,1,100,1,0
29175,-100,4,2,1,100,0,1
30375,-100,4,2,1,85,0,1
30975,-100,4,2,1,100,0,1
37275,-100,4,2,1,95,0,1
38175,-100,4,2,1,100,0,1
45375,-100,4,2,1,85,0,1
45975,-100,4,2,1,100,0,1
48375,-100,4,2,1,100,0,0
57975,-100,4,2,1,90,0,0
60375,-100,4,2,1,85,0,0
60975,-100,4,2,1,90,0,0
77175,-100,4,2,1,100,0,0
86775,-100,4,2,1,90,0,0
90375,-100,4,2,1,85,0,0
90975,-100,4,2,1,90,0,0
92775,-100,4,2,1,85,0,0
93075,-100,4,2,1,90,0,0
94275,-100,4,2,1,80,0,0
96375,-100,4,2,1,100,0,1
105975,-100,4,2,1,60,0,1
106275,-100,4,2,1,100,0,1
110775,-100,4,2,1,70,0,1
111075,-100,4,2,1,100,0,1
115425,-100,4,2,1,100,0,0
115575,-100,4,2,1,100,0,1
134775,-100,4,2,1,70,0,0
135075,-100,4,2,1,60,0,0
144975,-100,4,2,1,80,0,0
151575,-100,4,2,1,85,0,0
152175,-100,4,2,1,90,0,0
158775,-100,4,2,1,85,0,0
159075,-100,4,2,1,90,0,0
159975,-100,4,2,1,85,0,0
160275,-100,4,2,1,90,0,0
180375,-100,4,2,1,70,0,0
182775,-100,4,2,1,100,0,1
192375,-100,4,2,1,80,0,1
192675,-100,4,2,1,100,0,1
201825,-100,4,2,1,100,0,0
201975,-100,4,2,1,100,0,1
221175,-100,4,2,1,100,0,0
228375,-100,4,2,1,80,0,0
259575,-100,4,2,1,100,0,1
278625,-100,4,2,1,100,0,0
278775,-100,4,2,1,100,0,1
295575,-100,4,2,1,80,0,1
297975,-100,4,2,1,80,0,0
300375,-200,4,2,1,65,0,0
300825,-200,4,2,1,80,0,0
302775,-200,4,2,1,65,0,0
304875,-200,4,2,1,80,0,0
305175,-200,4,2,1,85,0,0
305475,-200,4,2,1,90,0,0
306375,-100,4,2,1,100,0,0
307275,-100,4,2,1,40,0,0

[Colours]
Combo1 : 254,241,129
Combo2 : 255,166,166
Combo3 : 240,182,147
Combo4 : 231,230,228

[HitObjects]
256,36,29175,5,4,0:0:0:0:
256,204,29775,1,8,0:0:0:0:
256,204,30075,1,2,0:0:0:0:
348,204,30375,2,0,B|336:268|428:256|412:344,1,140,0|8,0:0|0:0,0:0:0:0:
302,334,31275,1,0,0:0:0:0:
191,318,31575,2,0,B|179:260|267:264|255:200,1,140,2|0,0:0|0:0,0:0:0:0:
344,148,32475,1,0,0:0:0:0:
432,88,32775,1,2,0:0:0:0:
256,88,33375,6,0,B|184:88,1,70,8|2,0:0|0:0,0:0:0:0:
84,88,33975,1,2,0:0:0:0:
20,208,34425,1,2,0:0:0:0:
68,208,34575,2,0,B|108:264,1,70,8|2,0:0|0:0,0:0:0:0:
208,264,35175,1,0,0:0:0:0:
304,264,35475,2,0,B|304:348,2,70,2|8|2,0:0|0:0|0:0,0:0:0:0:
404,264,36375,5,0,0:0:0:0:
456,276,36525,1,0,0:0:0:0:
508,264,36675,1,2,0:0:0:0:
480,220,36825,2,0,B|480:180|448:156,1,70
452,160,37275,2,0,B|420:180|420:220,1,70,2|0,0:0|0:0,0:0:0:0:
372,28,38175,1,8,0:0:0:0:
276,28,38475,1,2,0:0:0:0:
176,28,38775,6,0,B|128:28|128:92|56:92,1,140,4|8,0:0|0:0,0:0:0:0:
100,180,39675,1,2,0:0:0:0:
8,192,39975,2,0,B|8:236|52:264|52:264,1,70,0|2,0:0|0:0,0:0:0:0:
80,276,40425,1,0,0:0:0:0:
128,276,40575,1,8,0:0:0:0:
232,252,40875,6,0,B|232:284|272:284|272:324,2,70,2|0|2,0:0|0:0|0:0,0:0:0:0:
220,196,41625,1,0,0:0:0:0:
260,156,41775,1,8,0:0:0:0:
348,188,42075,1,2,0:0:0:0:
440,156,42375,2,0,B|428:112|492:100|476:44,1,105,0|0,0:0|0:0,0:0:0:0:
440,32,42975,2,0,B|356:40,1,70,8|2,0:0|0:0,0:0:0:0:
256,192,43575,12,8,45375,0:0:0:0:
256,192,45975,12,2,48375,0:0:0:0:
55,48,55575,6,0,P|47:81|66:132,1,70,2|0,0:0|0:0,0:0:0:0:
85,153,56025,2,0,L|153:206,1,70,2|2,0:0|0:0,0:0:0:0:
276,140,56775,1,2,0:0:0:0:
288,237,57075,2,0,L|324:281,5,35,0|2|0|2|0|0,0:0|0:0|0:0|0:0|0:0|0:0,0:0:0:0:
348,296,57975,6,0,B|396:296|412:272|412:272|428:296|484:296,2,140,4|8|0,0:0|0:0|0:0,0:0:0:0:
256,344,59475,1,2,0:0:0:0:
164,296,59775,2,0,B|116:296|100:272|100:272|84:296|28:296,2,140,8|0|8,0:0|0:0|0:0,0:0:0:0:
256,344,61275,1,2,0:0:0:0:
256,344,61575,1,0,0:0:0:0:
256,240,61875,1,2,0:0:0:0:
256,240,62025,1,0,0:0:0:0:
256,240,62175,1,8,0:0:0:0:
256,136,62475,1,2,0:0:0:0:
320,52,62775,6,0,P|256:24|192:52,1,140,4|8,0:0|0:0,0:0:0:0:
256,136,63675,1,2,0:0:0:0:
317,222,63975,2,0,P|254:247|192:220,1,140,0|8,0:0|0:0,0:0:0:0:
256,136,64875,5,2,0:0:0:0:
280,88,65025,1,0,0:0:0:0:
312,44,65175,2,0,B|380:-16|464:52,1,140,2|8,0:0|0:0,0:0:0:0:
380,124,66075,1,2,0:0:0:0:
464,188,66375,2,0,B|524:256|456:340,1,140,0|8,0:0|0:0,0:0:0:0:
368,296,67275,5,2,0:0:0:0:
300,248,67575,2,0,P|284:312|336:372,1,140,4|8,0:0|0:0,0:0:0:0:
368,296,68475,1,2,0:0:0:0:
410,224,68775,2,0,P|452:280|436:344,1,140,0|8,0:0|0:0,0:0:0:0:
368,296,69675,1,2,0:0:0:0:
284,296,69975,6,0,B|284:340,2,35,0|0|2,0:0|0:0|0:0,0:0:0:0:
284,212,70575,1,8,0:0:0:0:
256,180,70725,1,0,0:0:0:0:
228,148,70875,1,2,0:0:0:0:
164,92,71175,1,2,0:0:0:0:
104,152,71476,2,0,B|68:156,2,35,0|0|8,0:0|0:0|0:0,0:0:0:0:
168,208,72075,1,0,0:0:0:0:
88,236,72375,6,0,L|60:272,1,35,2|0,0:0|0:0,0:0:0:0:
56,304,72675,1,0,0:0:0:0:
64,344,72825,1,0,0:0:0:0:
100,368,72975,1,8,0:0:0:0:
184,360,73275,2,0,B|248:340,1,35,2|0,0:0|0:0,0:0:0:0:
256,336,73575,1,2,0:0:0:0:
296,348,73725,2,0,B|356:368,1,35,0|2,0:0|0:0,0:0:0:0:
412,360,74175,2,0,B|416:304|368:280|368:280|372:280,1,70,8|2,0:0|0:0,0:0:0:0:
312,260,74775,6,0,B|338:211|386:211|386:211|386:211,1,70,0|2,0:0|0:0,0:0:0:0:
391,296,75375,1,8,0:0:0:0:
391,296,75525,1,0,0:0:0:0:
391,296,75675,1,2,0:0:0:0:
474,295,75975,2,0,B|516:295,2,35,0|0|2,0:0|0:0|0:0,0:0:0:0:
432,220,76575,1,8,0:0:0:0:
432,176,76725,1,0,0:0:0:0:
432,136,76875,1,2,0:0:0:0:
352,88,77175,5,4,0:0:0:0:
476,32,86775,6,0,B|448:76|396:76|396:76|352:112,1,140,4|8,0:0|0:0,0:0:0:0:
360,208,87675,1,2,0:0:0:0:
256,208,87975,2,0,B|256:272,2,35,0|0|2,0:0|0:0|0:0,0:0:0:0:
256,104,88575,2,0,B|256:44,2,35,8|0|2,0:0|0:0|0:0,0:0:0:0:
256,208,89175,6,0,P|184:232|120:208,1,140,4|8,0:0|0:0,0:0:0:0:
192,124,90075,1,2,0:0:0:0:
255,40,90375,2,0,P|191:15|128:40,1,140,0|8,0:0|0:0,0:0:0:0:
192,124,91275,1,2,0:0:0:0:
88,124,91575,6,0,L|16:124,2,70,0|2|8,0:0|0:0|0:0,0:0:0:0:
192,124,92475,1,2,0:0:0:0:
296,124,92775,2,0,L|368:124,2,70,0|2|8,0:0|0:0|0:0,0:0:0:0:
192,124,93675,1,2,0:0:0:0:
112,56,93975,1,4,0:0:0:0:
80,156,94275,6,0,B|68:188|88:228,1,70,2|0,0:0|0:0,0:0:0:0:
184,264,94875,2,0,B|196:232|176:192,1,70,2|0,0:0|0:0,0:0:0:0:
108,304,95475,2,0,B|124:340|164:344,2,70,2|0|2,0:0|0:0|0:0,0:0:0:0:
84,256,96225,1,0,0:0:0:0:
36,232,96375,6,0,B|-12:288|24:368,2,140,4|8|0,0:0|0:0|0:0,0:0:0:0:
92,136,97875,1,2,0:0:0:0:
140,120,98025,1,0,0:0:0:0:
192,116,98175,1,8,0:0:0:0:
228,200,98475,1,2,0:0:0:0:
288,128,98775,6,0,B|360:120|424:152,2,140,0|8|0,0:0|0:0|0:0,0:0:0:0:
228,200,100275,1,2,0:0:0:0:
152,252,100575,1,8,0:0:0:0:
64,280,100875,1,2,0:0:0:0:
36,192,101175,6,0,B|-4:136|28:56,2,140,2|8|0,0:0|0:0|0:0,0:0:0:0:
144,236,102675,1,2,0:0:0:0:
144,236,102825,1,0,0:0:0:0:
144,236,102975,2,0,B|176:220|216:236,1,70,8|2,0:0|0:0,0:0:0:0:
276,300,103575,6,0,B|316:260|296:208,1,70,0|0,0:0|0:0,0:0:0:0:
288,196,104025,2,0,B|248:96,1,105,2|2,0:0|0:0,0:0:0:0:
168,68,104775,2,0,B|88:60|32:100,1,140,0|8,0:0|0:0,0:0:0:0:
64,184,105675,1,0,0:0:0:0:
152,200,105975,1,4,0:0:0:0:
228,148,106275,5,2,0:0:0:0:
256,180,106425,1,0,0:0:0:0:
284,208,106575,2,0,B|324:224|364:208,1,70,8|2,0:0|0:0,0:0:0:0:
324,116,107175,2,0,B|356:100|396:116,1,70,0|2,0:0|0:0,0:0:0:0:
428,148,107625,1,0,0:0:0:0:
472,160,107775,2,0,B|504:136|496:88,1,70,8|2,0:0|0:0,0:0:0:0:
424,44,108375,2,0,P|344:24|280:48,2,140,0|8|0,0:0|0:0|0:0,0:0:0:0:
364,244,110175,6,0,B|386:310,1,70
308,344,110775,1,4,0:0:0:0:
224,348,111075,2,0,P|189:346|156:334,1,70,2|8,0:0|0:0,0:0:0:0:
184,256,111675,1,2,0:0:0:0:
120,200,111975,2,0,B|40:208,2,70,0|2|8,0:0|0:0|0:0,0:0:0:0:
92,120,112875,1,2,0:0:0:0:
84,36,113176,6,0,B|154:36,1,70,4|2,0:0|0:0,0:0:0:0:
235,63,113775,1,8,0:0:0:0:
305,114,114075,1,2,0:0:0:0:
281,199,114375,1,0,0:0:0:0:
192,200,114675,1,2,0:0:0:0:
164,114,114975,2,0,B|164:74,1,35,8|0,0:0|0:0,0:0:0:0:
204,68,115275,2,0,B|204:28,1,35,2|0,0:0|0:0,0:0:0:0:
248,32,115575,6,0,B|316:0|408:40,1,140,4|8,0:0|0:0,0:0:0:0:
372,128,116475,1,2,0:0:0:0:
364,168,116625,1,0,0:0:0:0:
352,208,116775,6,8,B|288:248|208:208|200:176,1,140,0|8,0:0|0:0,0:0:0:0:
164,120,117675,1,2,0:0:0:0:
136,152,117825,1,0,0:0:0:0:
128,192,117975,6,0,B|128:272|192:320,1,140,2|8,0:0|0:0,0:0:0:0:
260,252,118875,1,2,0:0:0:0:
292,224,119025,1,0,0:0:0:0:
328,200,119175,6,4,B|400:176|480:200,1,140,0|8,0:0|0:0,0:0:0:0:
460,292,120075,1,2,0:0:0:0:
432,324,120225,1,0,0:0:0:0:
396,344,120375,6,0,B|356:360|324:344,2,70,0|2|8,0:0|0:0|0:0,0:0:0:0:
360,252,121275,2,0,B|320:236|280:252,2,70,2|0|2,0:0|0:0|0:0,0:0:0:0:
456,268,122175,2,0,B|456:196,1,70,8|2,0:0|0:0,0:0:0:0:
360,184,122775,2,0,B|360:328,1,140,0|8,0:0|0:0,0:0:0:0:
256,308,123675,5,2,0:0:0:0:
256,272,123825,1,0,0:0:0:0:
256,236,123975,2,0,B|256:156,1,70,0|2,0:0|0:0,0:0:0:0:
224,88,124575,2,0,P|184:96|152:112,1,70,8|0,0:0|0:0,0:0:0:0:
160,192,125175,6,0,P|112:232|112:312,1,140,4|8,0:0|0:0,0:0:0:0:
196,276,126075,1,2,0:0:0:0:
236,276,126225,1,0,0:0:0:0:
276,276,126375,2,0,B|348:276,1,70
368,192,126975,2,0,L|292:192,1,70,8|0,0:0|0:0,0:0:0:0:
448,252,127575,6,0,P|464:192|436:120,1,140,2|8,0:0|0:0,0:0:0:0:
352,80,128475,1,0,0:0:0:0:
276,136,128775,2,0,B|200:156|208:124|116:136,1,140,0|8,0:0|0:0,0:0:0:0:
84,136,129525,1,0,0:0:0:0:
40,152,129675,1,2,0:0:0:0:
68,248,129975,6,0,B|140:272|220:248,2,140,0|8|0,0:0|0:0|0:0,0:0:0:0:
40,152,131475,1,2,0:0:0:0:
56,120,131625,1,0,0:0:0:0:
72,88,131775,2,0,B|140:76|140:76|168:52|216:52,2,140,8|2|8,0:0|0:0|0:0,0:0:0:0:
160,208,133275,5,2,0:0:0:0:
196,132,133575,1,0,0:0:0:0:
280,132,133875,1,2,0:0:0:0:
312,208,134175,1,8,0:0:0:0:
280,284,134475,1,2,0:0:0:0:
196,284,134775,5,4,0:0:0:0:
160,208,135075,2,0,B|120:192|80:208,2,70,2|0|2,0:0|0:0|0:0,0:0:0:0:
196,284,135975,5,0,0:0:0:0:
160,208,136275,2,0,B|232:208,2,70,2|0|2,0:0|0:0|0:0,0:0:0:0:
196,128,137175,2,0,B|196:32,2,70,0|2|0,0:0|0:0|0:0,0:0:0:0:
276,160,138075,5,2,0:0:0:0:
276,120,138225,1,0,0:0:0:0:
276,80,138375,1,0,0:0:0:0:
424,64,138975,2,0,B|448:96|424:132,1,70,0|2,0:0|0:0,0:0:0:0:
336,96,139575,6,0,B|232:96,2,105,4|0|2,0:0|0:0|0:0,0:0:0:0:
425,134,140775,2,0,B|425:54,2,70,0|2|0,0:0|0:0|0:0,0:0:0:0:
424,220,141675,1,2,0:0:0:0:
420,304,141975,6,0,B|364:348,1,70,4|2,0:0|0:0,0:0:0:0:
328,332,142425,2,0,B|260:352,1,70,0|2,0:0|0:0,0:0:0:0:
224,332,142875,1,0,0:0:0:0:
244,224,143175,2,0,P|276:188|304:176,1,70,0|2,0:0|0:0,0:0:0:0:
340,176,143625,2,0,P|380:192|416:240,1,105,0|2,0:0|0:0,0:0:0:0:
328,268,144375,1,4,0:0:0:0:
256,116,144975,5,8,0:0:0:0:
176,184,145275,2,0,B|176:256|224:256,1,70,2|0,0:0|0:0,0:0:0:0:
256,336,145875,1,2,0:0:0:0:
360,320,146175,2,0,B|432:320|432:272,1,70,8|2,0:0|0:0,0:0:0:0:
480,208,146775,2,0,B|492:152|456:108,1,105,0|2,0:0|0:0,0:0:0:0:
408,116,147375,5,8,0:0:0:0:
456,32,147675,1,2,0:0:0:0:
352,32,147975,2,8,B|280:32|280:88|224:88,1,140,0|8,0:0|0:0,0:0:0:0:
128,124,148875,1,2,0:0:0:0:
128,124,149175,1,4,0:0:0:0:
256,292,149775,5,8,0:0:0:0:
256,292,150075,1,2,0:0:0:0:
256,292,150225,1,0,0:0:0:0:
256,292,150375,2,0,B|328:316|392:276,1,140,0|8,0:0|0:0,0:0:0:0:
464,212,151275,1,2,0:0:0:0:
428,180,151425,1,0,0:0:0:0:
380,168,151575,6,0,B|312:140|244:184,1,140,0|8,0:0|0:0,0:0:0:0:
204,280,152475,1,2,0:0:0:0:
104,240,152775,2,0,B|104:296|24:296|24:352,2,140,0|8|4,0:0|0:0|0:0,0:0:0:0:
152,80,154575,6,0,B|220:104|256:169|256:169|292:104|360:80,2,280,8|8|8,0:0|0:0|0:0,0:0:0:0:
128,160,157275,1,2,0:0:0:0:
128,204,157425,2,0,B|128:268|128:268,1,35
236,247,157875,6,0,B|240:328|323:342,1,140,2|2,0:0|0:0,0:0:0:0:
328,252,158775,1,0,0:0:0:0:
332,160,159075,2,0,B|415:174|419:262,1,140,2|2,0:0|0:0,0:0:0:0:
328,252,159975,1,0,0:0:0:0:
332,344,160275,2,0,B|265:377|197:341,1,140,2|2,0:0|0:0,0:0:0:0:
184,256,161175,6,0,B|112:256,1,70,4|2,0:0|0:0,0:0:0:0:
28,256,161775,2,0,B|28:184,1,70,8|2,0:0|0:0,0:0:0:0:
28,100,162375,2,0,B|84:58,1,70,0|2,0:0|0:0,0:0:0:0:
164,36,162975,2,0,B|164:107,1,70,8|2,0:0|0:0,0:0:0:0:
200,128,163425,1,0,0:0:0:0:
236,148,163575,6,0,P|304:120|324:60,1,140,4|8,0:0|0:0,0:0:0:0:
240,60,164475,1,2,0:0:0:0:
156,60,164775,2,0,B|80:60|80:60,2,70,0|2|8,0:0|0:0|0:0,0:0:0:0:
240,60,165675,1,2,0:0:0:0:
324,60,165975,6,0,B|324:108|276:144,2,70,0|2|8,0:0|0:0|0:0,0:0:0:0:
408,60,166875,1,2,0:0:0:0:
388,140,167175,1,0,0:0:0:0:
328,208,167475,1,0,0:0:0:0:
192,208,167775,1,8,0:0:0:0:
260,288,168075,1,2,0:0:0:0:
328,208,168375,5,4,0:0:0:0:
192,208,168675,1,2,0:0:0:0:
260,288,168975,1,8,0:0:0:0:
260,166,169275,2,0,L|260:96,1,70,0|2,0:0|0:0,0:0:0:0:
256,192,169875,12,8,172575,0:0:0:0:
176,104,173175,6,0,B|136:100|104:144,1,70,4|2,0:0|0:0,0:0:0:0:
176,192,173775,2,0,B|184:232|216:256|256:256,1,105,8|2,0:0|0:0,0:0:0:0:
249,255,174375,1,0,0:0:0:0:
316,204,174675,1,2,0:0:0:0:
376,144,174975,2,0,B|416:136|464:136|504:152,1,105,8|2,0:0|0:0,0:0:0:0:
480,144,175575,5,0,0:0:0:0:
448,220,175875,1,2,0:0:0:0:
364,220,176175,1,8,0:0:0:0:
332,144,176475,1,2,0:0:0:0:
364,68,176775,1,0,0:0:0:0:
448,68,177075,1,2,0:0:0:0:
480,144,177375,6,0,B|504:176|488:208,1,35,8|0,0:0|0:0,0:0:0:0:
492,216,177675,2,0,B|484:256|452:272|452:272|452:272|452:272,1,70,2|2,0:0|0:0,0:0:0:0:
408,200,178275,1,0,0:0:0:0:
368,200,178425,1,0,0:0:0:0:
332,176,178575,1,8,0:0:0:0:
256,136,178875,2,0,B|256:96,2,35,2|0|0,0:0|0:0|0:0,0:0:0:0:
256,180,179325,2,0,B|256:240,1,35,0|2,0:0|0:0,0:0:0:0:
176,236,179775,1,8,0:0:0:0:
112,180,180075,1,2,0:0:0:0:
184,128,180375,6,0,B|256:120|336:128,1,140
100,276,181575,1,0,0:0:0:0:
112,180,181875,1,2,0:0:0:0:
176,236,182175,1,8,0:0:0:0:
100,276,182475,1,2,0:0:0:0:
160,336,182775,5,4,0:0:0:0:
184,120,183375,2,0,B|256:112|328:120,2,140,8|0|8,0:0|0:0|0:0,0:0:0:0:
228,208,184875,1,2,0:0:0:0:
184,296,185175,2,0,B|112:312|32:296,2,140,0|8|0,0:0|0:0|0:0,0:0:0:0:
228,208,186675,1,2,0:0:0:0:
276,292,186975,1,8,0:0:0:0:
372,268,187275,1,2,0:0:0:0:
368,172,187575,6,0,B|400:144|392:100|392:100|360:112|360:112,1,105,4|0,0:0|0:0,0:0:0:0:
368,108,188175,1,8,0:0:0:0:
284,56,188475,1,2,0:0:0:0:
200,108,188775,2,0,B|207:110|175:98|175:98|167:142|199:170,1,105,0|0,0:0|0:0,0:0:0:0:
195,167,189375,1,8,0:0:0:0:
140,248,189675,1,2,0:0:0:0:
236,260,189975,6,0,B|236:300|212:332|180:352|140:344,1,140,0|8,0:0|0:0,0:0:0:0:
140,248,190875,1,2,0:0:0:0:
130,151,191175,2,0,B|96:144|64:164|40:196|40:236,1,140
140,248,192075,1,0,0:0:0:0:
212,184,192375,6,0,P|260:180|284:192,1,70,4|0,0:0|0:0,0:0:0:0:
328,272,192975,1,8,0:0:0:0:
232,284,193275,1,2,0:0:0:0:
140,248,193575,1,0,0:0:0:0:
144,344,193875,1,2,0:0:0:0:
48,360,194175,2,0,B|32:320|48:292,1,70,8|2,0:0|0:0,0:0:0:0:
56,196,194775,6,0,B|96:180|124:200,1,70,0|2,0:0|0:0,0:0:0:0:
220,196,195375,2,0,B|236:228|220:268,2,70,8|2|0,0:0|0:0|0:0,0:0:0:0:
396,48,196575,2,0,B|428:24|476:48|476:48|476:48|476:48,1,70,8|2,0:0|0:0,0:0:0:0:
256,192,197175,12,4,199575,0:0:0:0:
192,156,200175,5,8,0:0:0:0:
192,156,200775,1,0,0:0:0:0:
316,156,201075,1,2,0:0:0:0:
256,264,201375,1,8,0:0:0:0:
192,156,201675,1,0,0:0:0:0:
159,82,201975,6,0,P|109:128|120:196,1,140,4|8,0:0|0:0,0:0:0:0:
192,156,202875,1,2,0:0:0:0:
263,119,203175,2,0,P|273:185|224:232,1,140,4|8,0:0|0:0,0:0:0:0:
192,156,204075,1,2,0:0:0:0:
192,156,204375,2,0,L|324:208,1,140,4|8,0:0|0:0,0:0:0:0:
400,236,205275,1,2,0:0:0:0:
368,316,205575,2,0,L|232:264,1,140,0|8,0:0|0:0,0:0:0:0:
160,232,206475,1,0,0:0:0:0:
76,220,206775,6,0,P|88:292|144:316,1,140,4|8,0:0|0:0,0:0:0:0:
160,232,207675,1,2,0:0:0:0:
176,148,207975,2,0,P|238:172|247:239,1,140
160,232,208875,1,0,0:0:0:0:
100,176,209175,1,0,0:0:0:0:
84,260,209475,2,0,B|136:368|220:264|264:344,2,210,2|0|2,0:0|0:0|0:0,0:0:0:0:
36,192,211575,1,4,0:0:0:0:
136,156,212475,5,2,0:0:0:0:
136,196,212625,1,0,0:0:0:0:
136,236,212775,1,0,0:0:0:0:
256,300,213075,2,0,L|256:340,2,35,0|0|8,0:0|0:0|0:0,0:0:0:0:
388,236,213675,1,2,0:0:0:0:
388,196,213825,1,0,0:0:0:0:
388,156,213975,1,0,0:0:0:0:
256,116,214275,2,0,L|256:76,2,35,0|0|8,0:0|0:0|0:0,0:0:0:0:
256,208,214875,5,2,0:0:0:0:
256,300,215175,2,0,B|256:370,2,70,0|2|8,0:0|0:0|0:0,0:0:0:0:
424,232,216375,1,4,0:0:0:0:
392,56,216975,6,0,B|392:96,2,35,8|0|0,0:0|0:0|0:0,0:0:0:0:
304,40,217575,1,2,0:0:0:0:
212,40,217875,1,2,0:0:0:0:
124,56,218175,2,0,B|124:96,2,35,8|0|2,0:0|0:0|0:0,0:0:0:0:
212,40,218775,6,0,L|212:132,1,70,4|2,0:0|0:0,0:0:0:0:
304,111,219375,2,0,L|304:19,1,70,8|2,0:0|0:0,0:0:0:0:
388,72,219975,2,0,P|396:128|336:196,1,140,0|8,0:0|0:0,0:0:0:0:
256,208,220875,1,2,0:0:0:0:
256,192,221175,12,4,228375,0:0:0:0:
176,256,230175,5,2,0:0:0:0:
176,256,230325,1,0,0:0:0:0:
176,256,230475,1,2,0:0:0:0:
176,256,230625,1,2,0:0:0:0:
176,256,230775,6,0,P|121:228|84:152,2,140,2|8|2,0:0|0:0|0:0,0:0:0:0:
248,192,232275,1,0,0:0:0:0:
300,276,232575,1,8,0:0:0:0:
376,212,232875,1,0,0:0:0:0:
320,132,233175,5,2,0:0:0:0:
224,108,233475,1,0,0:0:0:0:
184,132,233625,1,0,0:0:0:0:
136,144,233775,2,0,P|76:132|28:68,1,140,8|2,0:0|0:0,0:0:0:0:
224,108,234675,1,0,0:0:0:0:
224,108,234825,1,0,0:0:0:0:
224,108,234975,2,0,P|257:158|246:238,1,140,8|2,0:0|0:0,0:0:0:0:
304,316,235875,5,0,0:0:0:0:
352,328,236025,1,0,0:0:0:0:
401,327,236175,2,0,B|445:307|453:259|453:259|481:255|509:231,1,140,8|2,0:0|0:0,0:0:0:0:
437,163,237075,1,0,0:0:0:0:
362,96,237375,2,0,P|421:62|488:78,1,140,8|2,0:0|0:0,0:0:0:0:
437,163,238275,5,0,0:0:0:0:
437,163,238425,1,0,0:0:0:0:
437,163,238575,1,8,0:0:0:0:
387,247,238875,1,0,0:0:0:0:
293,271,239175,2,0,P|229:267|177:203,1,140,2|8,0:0|0:0,0:0:0:0:
180,213,240075,1,2,0:0:0:0:
133,127,240375,6,0,P|195:114|262:162,1,140,2|8,0:0|0:0,0:0:0:0:
180,213,241275,1,0,0:0:0:0:
256,153,241575,1,2,0:0:0:0:
352,176,241875,2,0,P|361:153|384:128,2,35,0|0|8,0:0|0:0|0:0,0:0:0:0:
283,246,242475,1,0,0:0:0:0:
256,152,242775,6,0,P|282:82|346:40,1,140,2|8,0:0|0:0,0:0:0:0:
412,100,243675,1,0,0:0:0:0:
412,100,243825,1,0,0:0:0:0:
412,100,243975,2,0,P|385:169|321:211,1,140,2|8,0:0|0:0,0:0:0:0:
256,152,244875,1,0,0:0:0:0:
178,206,245175,6,0,P|123:164|100:100,1,140,2|8,0:0|0:0,0:0:0:0:
194,72,246075,1,0,0:0:0:0:
256,152,246375,1,2,0:0:0:0:
318,72,246675,1,0,0:0:0:0:
412,48,246975,1,2,0:0:0:0:
408,96,247125,1,0,0:0:0:0:
384,140,247275,1,0,0:0:0:0:
340,164,247425,1,2,0:0:0:0:
292,168,247575,6,0,B|240:196|216:184|216:184|196:160|156:152,2,140,2|8|2,0:0|0:0|0:0,0:0:0:0:
256,76,249075,1,0,0:0:0:0:
352,88,249375,1,10,0:0:0:0:
380,128,249525,1,0,0:0:0:0:
388,176,249675,1,2,0:0:0:0:
380,224,249825,1,0,0:0:0:0:
352,264,249975,6,0,P|284:288|220:264,1,140,2|8,0:0|0:0,0:0:0:0:
100,208,251025,1,0,0:0:0:0:
100,208,251175,2,0,P|165:176|193:114,1,140,2|8,0:0|0:0,0:0:0:0:
340,120,252225,5,0,0:0:0:0:
340,120,252375,2,0,P|371:185|433:213,1,140,2|8,0:0|0:0,0:0:0:0:
484,132,253275,1,2,0:0:0:0:
416,60,253575,1,0,0:0:0:0:
324,32,253875,1,2,0:0:0:0:
252,100,254175,1,10,0:0:0:0:
252,100,254325,1,0,0:0:0:0:
252,100,254475,1,2,0:0:0:0:
252,100,254625,1,0,0:0:0:0:
252,100,254775,6,0,B|232:120|204:120|204:120|184:104|172:96|172:96|120:100,2,140,2|8|2,0:0|0:0|0:0,0:0:0:0:
348,80,256275,1,0,0:0:0:0:
348,80,256425,1,0,0:0:0:0:
348,80,256575,2,0,P|336:140|276:198,1,140,10|2,0:0|0:0,0:0:0:0:
216,124,257475,5,2,0:0:0:0:
148,196,257775,2,0,P|188:220|212:264,1,70,0|2,0:0|0:0,0:0:0:0:
308,236,258375,2,0,B|336:196|336:196|372:176|372:176|400:132,1,140,2|2,0:0|0:0,0:0:0:0:
500,164,259275,1,0,0:0:0:0:
308,236,259575,5,4,0:0:0:0:
180,236,259875,1,2,0:0:0:0:
180,356,260175,1,8,0:0:0:0:
308,356,260475,1,2,0:0:0:0:
308,236,260775,5,0,0:0:0:0:
292,196,260925,1,0,0:0:0:0:
276,156,261075,1,2,0:0:0:0:
244,76,261375,1,8,0:0:0:0:
148,72,261675,1,2,0:0:0:0:
128,164,261975,6,0,B|56:164|56:236|8:236,1,140,2|8,0:0|0:0,0:0:0:0:
16,288,262725,1,0,0:0:0:0:
16,340,262875,2,0,B|16:380,2,35,2|0|0,0:0|0:0|0:0,0:0:0:0:
108,288,263475,1,0,0:0:0:0:
188,352,263775,1,8,0:0:0:0:
240,260,264075,1,2,0:0:0:0:
292,168,264375,6,0,B|316:120|392:116|420:176,2,140,4|8|0,0:0|0:0|0:0,0:0:0:0:
360,248,265875,1,2,0:0:0:0:
424,332,266175,2,0,B|400:380|324:388|296:324,1,140,8|2,0:0|0:0,0:0:0:0:
268,256,267075,1,2,0:0:0:0:
252,224,267225,1,0,0:0:0:0:
236,192,267375,1,8,0:0:0:0:
196,104,267675,2,0,B|132:80,1,70,2|0,0:0|0:0,0:0:0:0:
24,304,268575,6,0,B|46:351|120:378|168:351,1,140,8|4,0:0|0:0,0:0:0:0:
124,244,269475,2,0,L|160:184,1,70,2|8,0:0|0:0,0:0:0:0:
256,244,270075,1,2,0:0:0:0:
352,184,270375,2,0,L|388:244,1,70,0|2,0:0|0:0,0:0:0:0:
369,360,270975,2,0,B|391:378|465:351|488:304,1,140,8|2,0:0|0:0,0:0:0:0:
437,194,271875,2,0,B|388:244,1,70,2|8,0:0|0:0,0:0:0:0:
375,134,272475,2,0,B|424:84,1,70,2|0,0:0|0:0,0:0:0:0:
256,254,273375,6,0,L|256:324,1,70,8|2,0:0|0:0,0:0:0:0:
256,192,273975,12,8,275775,0:0:0:0:
256,192,276375,12,8,278175,0:0:0:0:
388,100,278775,6,0,P|360:148|296:164,1,105,2|2,0:0|0:0,0:0:0:0:
276,132,279375,2,0,P|244:120|192:124,1,70,8|0,0:0|0:0,0:0:0:0:
108,152,279975,5,2,0:0:0:0:
76,252,280275,1,0,0:0:0:0:
104,296,280425,1,2,0:0:0:0:
148,324,280575,2,0,B|177:295|212:300|212:300|218:263|260:248,1,140,0|2,0:0|0:0,0:0:0:0:
316,336,281475,1,0,0:0:0:0:
352,300,281625,1,2,0:0:0:0:
380,256,281775,2,0,B|380:220|344:204|344:204|312:180|312:116,1,140,0|2,0:0|0:0,0:0:0:0:
256,52,282675,1,0,0:0:0:0:
196,140,282975,6,0,B|196:176|160:192|160:192|128:216|128:280,1,140,8|2,0:0|0:0,0:0:0:0:
164,356,283875,1,2,0:0:0:0:
212,336,284025,1,0,0:0:0:0:
236,292,284175,1,8,0:0:0:0:
332,252,284475,2,0,P|312:232|304:176,1,70
344,96,285075,1,2,0:0:0:0:
296,80,285225,1,0,0:0:0:0:
256,46,285375,1,8,0:0:0:0:
256,46,285675,1,2,0:0:0:0:
216,80,285825,1,0,0:0:0:0:
168,96,285975,6,0,B|124:116|96:80|96:80|52:76,2,105,2|2|0,0:0|0:0|0:0,0:0:0:0:
256,46,287175,2,0,P|292:110|272:182,1,140,2|8,0:0|0:0,0:0:0:0:
178,204,288075,1,2,0:0:0:0:
178,204,288225,1,0,0:0:0:0:
178,204,288375,6,0,P|217:260|283:276,1,140,2|8,0:0|0:0,0:0:0:0:
108,124,289275,1,0,0:0:0:0:
4,100,289575,2,0,P|24:56|68:28,1,70,2|0,0:0|0:0,0:0:0:0:
88,40,290025,2,0,L|112:15,1,35,2|8,0:0|0:0,0:0:0:0:
174,56,290325,2,0,L|208:56,1,35,2|0,0:0|0:0,0:0:0:0:
244,120,290625,1,2,0:0:0:0:
292,128,290775,6,0,P|345:101|382:29,2,140,2|8|2,0:0|0:0|0:0,0:0:0:0:
192,168,292275,1,2,0:0:0:0:
192,168,292425,1,0,0:0:0:0:
192,168,292575,1,8,0:0:0:0:
104,112,292875,1,0,0:0:0:0:
76,212,293175,6,0,P|104:268|164:292,1,105,2|2,0:0|0:0,0:0:0:0:
180,256,293775,2,0,P|216:260|252:288,1,70,8|0,0:0|0:0,0:0:0:0:
332,336,294375,2,0,P|351:276|326:217,1,105,2|2,0:0|0:0,3:0:0:0:
289,231,294975,2,0,P|266:202|260:157,1,70,8|0,0:0|0:0,3:0:0:0:
364,156,295575,5,2,0:0:0:0:
292,88,295875,2,0,L|266:63,2,35,2|0|10,0:0|0:0|0:0,0:0:0:0:
168,68,296475,1,2,0:0:0:0:
156,164,296775,2,0,P|201:152|240:163,1,70,2|2,0:0|0:0,0:0:0:0:
249,166,297225,2,0,P|265:177|282:194,1,35,0|10,0:0|0:0,0:0:0:0:
297,169,297525,2,0,P|301:189|300:213,1,35,0|2,0:0|0:0,0:0:0:0:
322,223,297825,2,0,P|310:239|293:256,1,35,0|2,0:0|0:0,0:0:0:0:
268,80,299475,5,2,0:0:0:0:
396,80,299775,1,2,0:0:0:0:
332,28,300075,1,0,0:0:0:0:
332,132,300375,2,0,B|332:196,1,52.5,2|0,0:0|0:0,0:0:0:0:
332,184,300975,1,0,0:0:0:0:
332,236,301275,1,2,0:0:0:0:
332,288,301575,2,0,B|260:328,1,70,0|0,0:0|0:0,0:0:0:0:
220,324,302475,1,2,0:0:0:0:
168,324,302775,2,0,B|209:268|39:238|80:157,1,210
172,164,304875,5,2,0:0:0:0:
256,71,305175,1,4,0:0:0:0:
339,164,305475,1,2,0:0:0:0:
256,71,305775,1,0,0:0:0:0:
256,192,306075,1,2,0:0:0:0:
320,264,306375,2,0,P|368:264|412:232,2,105,0|0|2,0:0|0:0|0:0,0:0:0:0:
