osu file format v14

[General]
AudioFilename: audio.mp3
AudioLeadIn: 0
PreviewTime: 430
Countdown: 0
SampleSet: Soft
StackLeniency: 0.7
Mode: 2
LetterboxInBreaks: 0
WidescreenStoryboard: 0

[Editor]
Bookmarks: 33065,59011
DistanceSpacing: 1.2
BeatDivisor: 4
GridSize: 4
TimelineZoom: 1

[Metadata]
Title:Synchromanica
TitleUnicode:シンクロマニカ
Artist:NEGOTO
ArtistUnicode:ねごと
Creator:Sinnoh
Version:Rain
Source:ガリレイドンナ
Tags:Mentee Contest idke Kin sdafsf Zer0- Monarch Galilei Donna the story of three sisters in the search of a subjective mystery Synchro Manica
BeatmapID:1517953
BeatmapSetID:673290

[Difficulty]
HPDrainRate:5
CircleSize:3.5
OverallDifficulty:8.6
ApproachRate:8.6
SliderMultiplier:2
SliderTickRate:2

[Events]
//Background and Video events
0,0,"synchromanica.jpg",0,0
//Break Periods
//Storyboard Layer 0 (Background)
//Storyboard Layer 1 (Fail)
//Storyboard Layer 2 (Pass)
//Storyboard Layer 3 (Foreground)
//Storyboard Sound Samples

[TimingPoints]
633,405.405405405405,4,2,2,50,1,0
3065,-100,4,2,0,70,0,0
7119,-100,4,2,0,50,0,0
20092,-100,4,2,0,60,0,0
33065,-100,4,2,0,70,0,0
68741,-100,4,2,0,60,0,0

[Colours]
Combo1 : 224,211,169
Combo2 : 216,122,105
Combo3 : 175,168,219

[HitObjects]
396,168,633,6,8,L|212:164,2,150
84,168,2254,6,8,L|268:164,2,150
404,209,3065,2,0,L|408:154,1,50,0|0,1:0|1:0,1:0:0:0:
117,212,3369,2,0,L|113:157,1,50,0|0,1:0|1:0,1:0:0:0:
264,147,3673,2,8,L|330:144,1,50,8|8,0:3|0:3,0:3:0:0:
122,232,3876,6,0,L|113:103,1,100,4|0,0:0|0:0,0:0:0:0:
311,183,4180,2,0,L|323:53,1,100,4|0,0:0|0:0,0:0:0:0:
157,58,4484,1,4,0:0:0:0:
44,75,4687,1,0,0:3:0:0:
203,166,4889,2,0,L|226:112,2,50,0|0|0,1:0|1:0|1:0,1:0:0:0:
57,196,5295,2,8,L|48:122,1,50,8|8,0:3|0:3,0:3:0:0:
229,122,5497,6,0,L|348:121,1,100,2|0,0:3|0:0,0:0:0:0:
247,72,5801,2,0,L|119:70,1,100,2|0,0:3|0:0,0:0:0:0:
211,198,6105,2,0,L|290:198,1,50,2|0,0:3|0:0,0:0:0:0:
356,209,6308,2,0,P|426:189|442:100,2,150,2|8|4,0:3|0:3|0:3,0:0:0:0:
64,209,7119,5,4,0:0:0:0:
285,223,7524,1,2,3:2:0:0:
168,200,7727,2,0,P|124:175|188:61,1,200
306,150,8335,2,0,L|78:144,1,200,2|0,3:2|0:0,0:0:0:0:
211,217,8943,5,0,0:0:0:0:
317,214,9146,1,2,3:2:0:0:
208,168,9349,2,0,L|200:51,1,100,2|0,0:2|0:0,0:0:0:0:
312,149,9754,2,0,L|304:32,1,100,2|0,0:2|3:0,0:0:0:0:
196,36,10160,1,0,0:0:0:0:
411,123,10362,6,0,P|475:83|491:39,2,100,2|0|0,0:2|0:0|3:0,0:0:0:0:
286,289,10970,2,0,L|71:251,1,200,2|0,0:2|0:0,0:0:0:0:
214,212,11578,1,0,3:0:0:0:
85,241,11781,6,0,P|39:213|98:104,1,200,2|0,0:2|0:0,0:0:0:0:
209,133,12389,1,0,3:0:0:0:
366,308,12693,2,0,L|356:257,1,50,0|0,3:0|0:0,0:0:0:0:
200,224,12997,2,0,L|56:240,2,100,0|0|0,0:0|3:0|0:0,0:0:0:0:
470,197,13605,6,0,B|469:100|469:100|326:97,1,200,2|0,0:2|3:0,0:0:0:0:
223,279,14214,2,0,P|175:240|236:122,1,200,2|0,0:2|0:0,0:0:0:0:
345,146,14822,2,0,L|467:140,1,100,2|0,3:2|0:0,0:0:0:0:
288,253,15227,6,0,L|84:301,1,200,2|0,0:2|3:0,0:0:0:0:
240,317,15835,2,0,P|297:271|220:181,1,200,2|0,0:2|0:0,0:0:0:0:
109,135,16443,2,0,L|220:119,1,100,2|0,3:2|0:0,0:0:0:0:
338,225,16849,6,0,L|346:92,1,100
206,80,17254,2,0,L|87:60,1,100,0|0,3:0|0:0,0:0:0:0:
266,261,17659,2,0,L|274:128,1,100
134,116,18065,2,0,L|15:96,1,100,0|0,3:0|0:0,0:0:0:0:
190,284,18470,2,0,L|198:151,1,100
465,211,18876,6,0,L|456:103,1,100,2|0,3:0|3:0,0:0:0:0:
382,114,19180,1,0,3:0:0:0:
192,120,19281,2,0,L|76:100,1,100,0|0,1:3|1:3,1:0:0:0:
365,149,19687,2,0,L|481:129,1,100,0|0,1:0|1:0,1:0:0:0:
417,125,19991,1,0,1:0:0:0:
209,271,20092,6,0,P|148:237|230:160,1,200,6|2,0:0|1:2,0:0:0:0:
338,136,20700,2,0,L|379:78,2,50,0|0|0,0:0|1:0|3:0,0:0:0:0:
213,149,21105,1,0,3:0:0:0:
355,161,21308,2,0,L|472:158,1,100,2|0,1:2|0:0,0:0:0:0:
163,244,21714,6,0,L|384:243,1,200,0|2,3:0|1:2,0:0:0:0:
252,167,22322,1,2,0:2:0:0:
196,167,22423,1,0,1:0:0:0:
135,168,22524,2,0,L|234:168,1,100,0|0,3:2|3:0,0:0:0:0:
125,83,22930,2,0,L|17:86,1,100,2|0,1:2|0:0,0:0:0:0:
316,323,23335,6,0,P|374:289|303:211,1,200,2|0,3:2|1:0,0:0:0:0:
189,199,23943,2,0,L|184:141,1,50,2|0,0:2|1:0,0:0:0:0:
253,122,24146,2,0,L|369:91,1,100,0|0,3:0|3:0,3:0:0:0:
244,44,24551,1,2,1:2:0:0:
351,40,24754,1,0,0:0:0:0:
51,272,24957,6,0,L|46:149,1,100,0|0,3:0|0:0,0:0:0:0:
189,157,25362,2,0,L|300:151,1,100,0|0,1:0|0:0,0:0:0:0:
227,150,25666,1,0,1:0:0:0:
160,174,25768,2,0,L|155:70,1,100,0|0,3:0|3:0,3:0:0:0:
295,69,26173,2,0,L|423:55,1,100,0|0,1:0|0:0,0:0:0:0:
117,199,26578,6,0,P|61:170|143:82,1,200,2|0,3:2|1:0,0:0:0:0:
233,101,27187,1,2,0:2:0:0:
294,100,27288,1,0,1:0:0:0:
350,97,27389,2,0,L|455:43,1,100,0|0,3:0|3:0,3:0:0:0:
246,192,27795,2,0,L|132:185,1,100,2|0,1:2|0:0,0:0:0:0:
431,211,28200,6,0,P|487:182|405:94,1,200,2|0,3:2|1:0,0:0:0:0:
296,198,28808,2,0,L|228:201,1,50,2|0,0:2|1:0,0:0:0:0:
194,173,29011,2,0,L|300:167,1,100,0|0,3:0|3:0,3:0:0:0:
438,147,29416,2,0,L|318:154,1,100,2|0,1:2|0:0,0:0:0:0:
58,141,29822,6,0,L|292:133,1,200,6|0,3:2|1:0,0:0:0:0:
174,255,30430,2,0,L|104:250,1,50,2|0,0:2|3:0,0:0:0:0:
192,239,30632,2,0,L|297:218,2,100,2|0|0,3:2|3:0|1:0,3:0:0:0:
54,206,31241,6,0,L|125:211,1,50,0|0,3:0|3:0,3:0:0:0:
268,144,31443,2,0,L|342:145,1,50,0|0,1:0|1:0,1:0:0:0:
212,199,31747,2,0,L|205:140,1,50,0|0,1:0|1:0,1:0:0:0:
383,214,31950,1,0,1:0:0:0:
433,214,32051,2,0,P|436:143|347:98,1,150,0|0,1:0|3:0,0:0:0:0:
172,105,32457,2,0,L|61:103,1,100,0|0,1:0|1:0,1:0:0:0:
214,203,32862,2,0,L|144:207,1,50,0|0,1:0|1:0,1:0:0:0:
401,268,33065,6,0,P|446:245|364:145,1,200,6|0,3:2|1:0,0:0:0:0:
293,150,33673,1,0,0:0:0:0:
171,149,33876,2,0,L|298:146,1,100,2|0,3:2|3:0,3:0:0:0:
102,252,34180,2,0,P|61:194|105:139,1,150,2|2,0:0|0:0,0:0:0:0:
371,159,34686,5,0,3:0:0:0:
481,107,34889,2,0,L|369:109,2,100,2|0|0,0:2|1:0|0:0,0:0:0:0:
348,191,35497,2,0,L|237:190,1,100,2|0,3:2|3:0,3:0:0:0:
412,257,35801,2,0,P|445:203|363:146,1,150,2|2,0:2|0:0,0:0:0:0:
130,147,36308,6,0,L|29:145,1,100,2|0,3:2|0:0,0:0:0:0:
174,87,36714,2,0,L|294:86,1,100,2|0,1:2|0:0,0:0:0:0:
322,88,37018,1,0,1:0:0:0:
128,260,37119,2,0,L|119:160,1,100,0|0,3:2|3:0,0:0:0:0:
273,157,37524,2,0,L|390:160,1,100,2|0,1:2|0:0,0:0:0:0:
76,146,37930,5,0,3:0:0:0:
378,234,38132,2,0,L|486:228,2,100,2|0|0,0:2|1:0|0:0,0:0:0:0:
322,238,38639,1,0,1:0:0:0:
258,239,38741,2,0,L|141:237,1,100,2|0,3:2|3:0,3:0:0:0:
428,250,39146,1,0,1:0:0:0:
468,225,39247,1,0,1:0:0:0:
463,178,39348,1,0,1:0:0:0:
418,162,39450,1,0,1:0:0:0:
230,166,39551,6,0,L|24:164,1,200,6|0,3:2|1:0,0:0:0:0:
137,241,40160,1,2,0:0:0:0:
277,288,40362,2,2,L|286:209,1,50,2|2,3:2|0:2,0:2:0:0:
138,174,40666,2,0,P|115:121|196:60,1,150,2|2,0:2|0:0,0:0:0:0:
451,143,41173,5,0,3:0:0:0:
314,148,41376,2,0,L|205:151,2,100,2|0|0,0:0|1:0|0:0,0:0:0:0:
371,140,41882,1,0,1:0:0:0:
431,108,41984,2,0,L|310:104,1,100,2|0,3:2|3:0,0:0:0:0:
197,95,42389,2,0,L|87:97,1,100,0|0,1:0|0:0,0:0:0:0:
428,268,42795,6,0,P|477:242|389:158,1,200,6|2,3:2|1:2,0:0:0:0:
288,153,43403,1,0,0:0:0:0:
221,145,43504,1,0,1:0:0:0:
163,99,43605,2,0,L|290:95,1,100,2|0,3:2|3:0,3:0:0:0:
411,80,44011,2,0,L|289:79,1,100,2|0,1:2|0:0,0:0:0:0:
188,240,44416,6,0,L|184:136,1,100,0|0,3:0|0:0,0:0:0:0:
480,116,44822,2,0,L|352:112,1,100,0|0,1:0|0:0,0:0:0:0:
112,83,45227,2,0,L|228:79,2,100,0|0|0,1:0|1:0|1:0,1:0:0:0:
230,138,45835,2,0,L|282:138,1,50,0|0,1:0|1:0,1:0:0:0:
86,207,46038,6,0,P|51:172|139:86,1,200,6|0,3:2|1:0,0:0:0:0:
255,89,46646,1,0,0:0:0:0:
127,218,46849,2,0,L|125:111,1,100,2|0,3:2|3:0,3:0:0:0:
247,115,47254,1,2,1:2:0:0:
125,66,47457,2,0,L|15:68,1,100,2|0,0:2|3:0,0:0:0:0:
340,242,47862,6,0,L|441:245,1,100,2|0,0:2|1:0,0:0:0:0:
305,184,48268,2,0,L|239:185,1,50,0|0,0:0|1:0,0:0:0:0:
199,165,48470,2,0,L|200:48,1,100,2|0,3:2|3:0,3:0:0:0:
358,175,48876,2,0,L|359:42,1,100,2|0,1:2|0:0,0:0:0:0:
60,94,49281,6,0,L|291:89,1,200,4|0,3:2|1:0,0:0:0:0:
78,207,50092,2,0,L|206:209,2,100,0|0|0,3:0|3:0|1:0,3:0:0:0:
345,191,50903,6,0,L|341:92,1,100,2|0,3:2|3:0,3:0:0:0:
223,174,51308,1,2,1:2:0:0:
321,109,51511,1,0,0:0:0:0:
271,107,51612,1,0,1:0:0:0:
224,54,51714,2,0,L|342:50,1,100,0|0,3:0|3:0,0:0:0:0:
195,277,52119,1,0,1:0:0:0:
157,246,52220,1,0,1:0:0:0:
156,197,52321,1,0,3:0:0:0:
197,164,52423,1,0,3:0:0:0:
382,176,52524,6,0,P|442:144|348:89,1,200,6|0,3:2|1:0,0:0:0:0:
259,74,53132,1,0,0:0:0:0:
141,241,53335,2,0,L|133:119,1,100,2|0,3:2|3:0,3:0:0:0:
268,131,53741,2,0,L|403:131,1,100,2|2,1:2|0:2,0:0:0:0:
61,146,54146,5,0,3:0:0:0:
364,245,54349,2,0,L|470:241,1,100,2|0,0:2|1:0,0:0:0:0:
356,170,54754,2,0,L|297:167,1,50,0|0,0:0|1:0,0:0:0:0:
363,122,54957,2,0,L|471:123,1,100,2|0,3:2|3:0,3:0:0:0:
154,262,55362,2,0,L|153:145,1,100,6|0,1:2|0:0,0:0:0:0:
433,222,55768,6,0,P|486:177|405:106,1,200,4|0,3:2|1:0,0:0:0:0:
298,100,56376,1,0,0:0:0:0:
27,104,56578,2,0,L|139:96,1,100,4|0,3:2|3:2,3:2:0:0:
397,107,56984,2,0,L|285:99,1,100,4|0,1:2|3:0,0:0:0:0:
150,260,57389,6,0,P|125:208|177:118,1,150,2|0,1:2|1:0,0:0:0:0:
331,135,57795,2,4,L|381:116,2,50,4|4|4,0:3|0:3|0:3,0:3:0:0:
197,218,58200,1,8,0:3:0:0:
202,169,58301,1,8,0:3:0:0:
237,134,58402,1,8,0:3:0:0:
286,130,58504,1,8,0:3:0:0:
344,124,58605,1,4,0:3:0:0:
284,121,58706,1,4,0:3:0:0:
223,120,58807,1,4,0:3:0:0:
163,119,58909,1,4,0:3:0:0:
397,200,59011,6,0,L|526:193,1,100,4|0,3:2|0:0,0:0:0:0:
384,147,59416,2,0,L|259:142,1,100,2|0,0:0|0:0,0:0:0:0:
16,107,59822,2,0,L|127:101,3,100,4|0|2|0,1:2|0:0|0:0|0:0,0:0:0:0:
389,244,60632,6,0,L|389:122,1,100,4|0,0:0|1:0,0:0:0:0:
248,141,61038,2,0,L|140:135,1,100,0|0,3:0|3:0,3:0:0:0:
446,250,61443,2,0,L|452:131,1,100,4|0,1:2|3:0,0:0:0:0:
402,140,61747,1,0,1:0:0:0:
239,203,61849,2,0,L|233:84,1,100,0|0,1:0|0:0,0:0:0:0:
299,94,62153,1,0,1:0:0:0:
115,135,62254,6,0,L|7:130,1,100,4|0,1:2|0:0,0:0:0:0:
138,58,62659,2,0,L|38:58,1,100,2|0,0:0|0:0,0:0:0:0:
351,83,63065,2,0,L|468:81,3,100,4|0|0|0,1:2|0:0|0:0|0:0,0:0:0:0:
177,278,63876,6,0,L|167:167,1,100,4|0,3:2|1:0,0:0:0:0:
312,242,64281,2,0,L|318:129,1,100,0|0,3:0|3:0,3:0:0:0:
44,135,64687,1,4,1:0:0:0:
165,53,64889,1,4,0:3:0:0:
115,52,64990,1,4,0:3:0:0:
65,51,65091,1,4,0:3:0:0:
184,129,65295,2,4,L|253:132,1,50,4|4,0:3|0:3,0:3:0:0:
477,112,65497,6,0,L|356:114,1,100,4|0,1:2|0:0,0:0:0:0:
72,183,65903,2,0,L|205:177,1,100,4|0,0:0|0:0,0:0:0:0:
441,237,66308,2,0,L|445:134,1,100,0|0,3:0|1:0,0:0:0:0:
139,256,66714,2,0,L|136:157,1,100,0|0,1:0|1:0,0:0:0:0:
207,132,67018,1,0,0:1:0:0:
369,98,67119,6,0,L|490:93,1,100,8|8,0:3|0:3,0:0:0:0:
410,75,67423,1,8,0:3:0:0:
341,74,67524,2,0,L|212:72,1,100,8|0,0:3|0:0,0:0:0:0:
294,168,67828,1,8,0:3:0:0:
343,157,67930,6,8,L|388:106,2,50,8|8|8,0:3|0:3|0:3,0:3:0:0:
38,218,68335,1,4,0:3:0:0:
23,171,68436,1,4,0:3:0:0:
46,128,68537,1,4,0:3:0:0:
93,115,68639,1,4,0:3:0:0:
290,125,68741,6,0,L|451:122,2,150,4|0|0,0:2|0:0|3:0,0:0:0:0:
97,219,69551,2,0,L|94:114,1,100,0|0,1:0|3:0,0:0:0:0:
420,193,70362,5,0,3:0:0:0:
270,197,70666,1,0,3:0:0:0:
120,201,70970,1,0,3:0:0:0:
302,271,71173,2,0,P|353:226|278:126,1,200,0|0,1:0|0:0,0:0:0:0:
113,103,71984,6,0,L|272:82,2,150,0|0|0,3:0|0:0|3:0,0:0:0:0:
277,221,72795,2,0,L|282:105,1,100,0|0,1:0|3:0,0:0:0:0:
31,210,73605,5,0,3:0:0:0:
188,156,73910,1,0,3:0:0:0:
31,210,74214,1,0,3:0:0:0:
191,215,74416,2,0,L|417:215,1,200,0|0,1:0|0:0,0:0:0:0:
187,232,75227,6,0,P|120:209|94:119,2,150,0|0|0,3:0|0:0|3:0,0:0:0:0:
361,208,76038,2,0,L|473:198,1,100,0|0,1:0|3:0,0:0:0:0:
168,181,76849,5,0,3:0:0:0:
318,185,77153,1,0,3:0:0:0:
468,189,77457,1,0,3:0:0:0:
279,177,77660,2,0,L|77:174,1,200,0|0,1:0|0:0,0:0:0:0:
302,232,78470,6,0,P|369:209|395:119,2,150,0|0|0,3:0|0:0|3:0,0:0:0:0:
119,229,79281,2,0,L|124:129,1,100,0|0,1:0|3:0,0:0:0:0:
371,90,80092,5,0,3:0:0:0:
205,83,80396,1,0,3:0:0:0:
371,90,80700,1,0,3:0:0:0:
205,151,80903,2,0,P|92:130|42:63,1,200,0|0,1:0|3:0,0:0:0:0:
158,215,81511,2,0,L|247:214,1,50,0|0,1:0|1:0,1:0:0:0:
381,210,81714,6,0,P|461:188|481:95,2,150,0|0|0,3:0|0:0|3:0,0:0:0:0:
202,198,82524,2,0,L|87:190,1,100,0|0,1:0|3:0,0:0:0:0:
468,189,83335,5,0,3:0:0:0:
282,185,83639,1,0,3:0:0:0:
103,179,83943,1,0,3:0:0:0:
276,233,84146,2,0,P|321:211|242:112,1,200,0|0,1:0|0:0,0:0:0:0:
60,105,84957,6,0,L|234:50,2,150,0|0|0,3:0|0:0|3:0,0:0:0:0:
232,253,85768,2,0,L|359:251,1,100,0|0,1:0|3:0,0:0:0:0:
80,167,86578,5,0,3:0:0:0:
245,172,86882,1,0,3:0:0:0:
80,167,87186,1,0,3:0:0:0:
384,191,87389,2,0,L|386:86,1,100,2|0,0:3|0:0,0:0:0:0:
70,149,87795,2,0,L|69:43,1,100,2|0,0:3|1:0,0:0:0:0:
