osu file format v14

[General]
AudioFilename: audio.mp3
AudioLeadIn: 0
PreviewTime: 430
Countdown: 0
SampleSet: Soft
StackLeniency: 0.7
Mode: 0
LetterboxInBreaks: 0
WidescreenStoryboard: 0

[Editor]
DistanceSpacing: 1.6
BeatDivisor: 4
GridSize: 32
TimelineZoom: 2.699999

[Metadata]
Title:Synchromanica
TitleUnicode:シンクロマニカ
Artist:NEGOTO
ArtistUnicode:ねごと
Creator:Sinnoh
Version:Monarch’s Insane
Source:ガリレイドンナ
Tags:Mentee Contest idke Kin sdafsf Zer0- Monarch Galilei Donna the story of three sisters in the search of a subjective mystery Synchro Manica
BeatmapID:1513093
BeatmapSetID:673290

[Difficulty]
HPDrainRate:5
CircleSize:4
OverallDifficulty:8
ApproachRate:9.3
SliderMultiplier:2
SliderTickRate:1

[Events]
//Background and Video events
0,0,"synchromanica.jpg",0,0
//Break Periods
//Storyboard Layer 0 (Background)
//Storyboard Layer 1 (Fail)
//Storyboard Layer 2 (Pass)
//Storyboard Layer 3 (Foreground)
//Storyboard Sound Samples

[TimingPoints]
633,405.405405405405,4,2,1,50,1,0
734,-100,4,2,1,30,0,0
937,-100,4,2,1,50,0,0
1038,-100,4,2,1,30,0,0
1241,-100,4,2,1,50,0,0
1342,-100,4,2,1,30,0,0
1443,-100,4,2,1,50,0,0
2355,-100,4,2,1,30,0,0
2558,-100,4,2,1,50,0,0
2660,-100,4,2,1,30,0,0
2862,-100,4,2,1,50,0,0
2964,-100,4,2,1,30,0,0
3065,-100,4,2,1,60,0,0
6105,-133.333333333333,4,2,1,60,0,0
6714,-200,4,2,1,60,0,0
7119,-133.333333333333,4,2,1,60,0,0
20092,-100,4,2,1,70,0,0
59011,-100,4,2,1,80,0,0
65497,-100,4,2,1,90,0,0
67119,-100,4,2,1,80,0,0
68741,-133.333333333333,4,2,1,60,0,0
81714,-100,4,2,1,60,0,0
87795,-200,4,2,1,60,0,0
88605,-200,4,2,1,5,0,0

[Colours]
Combo1 : 224,211,169
Combo2 : 216,122,105
Combo3 : 175,168,219

[HitObjects]
244,364,633,6,0,P|217:373|177:368,1,50,8|0,0:0|0:0,0:0:0:0:
264,189,937,2,0,P|285:208|301:245,1,50,8|0,0:0|0:0,0:0:0:0:
103,259,1241,2,0,P|109:231|133:199,1,50,8|0,0:0|0:0,0:0:0:0:
184,171,1443,2,0,P|112:176|65:112,2,150
313,41,2254,6,0,L|310:111,1,50,8|0,0:0|0:0,0:0:0:0:
424,248,2558,2,0,L|363:210,1,50,8|0,0:0|0:0,0:0:0:0:
190,241,2862,2,0,L|252:207,1,50
332,121,3065,5,0,1:1:0:0:
320,110,3166,2,0,P|304:58|306:36,1,50,0|0,1:0|0:0,0:0:0:0:
98,54,3369,1,0,1:0:0:0:
103,37,3470,2,0,P|140:-2|160:-12,1,50,0|0,1:0|0:0,0:0:0:0:
129,191,3673,2,8,P|75:178|57:166,1,50,8|8,0:3|0:3,0:3:0:0:
304,63,3876,6,0,B|317:111|317:111|304:160,1,100,4|0,0:0|0:3,0:3:0:0:
245,298,4180,2,0,B|280:262|280:262|329:249,1,100,4|0,0:0|0:3,0:3:0:0:
469,225,4484,1,4,0:0:0:0:
201,220,4687,2,8,L|139:217,1,50,8|8,0:3|0:3,0:3:0:0:
7,212,4889,2,8,L|68:214,1,50,8|8,0:3|0:3,0:3:0:0:
98,285,5092,1,0,1:0:0:0:
168,99,5295,2,0,P|169:48|166:33,1,50,0|0,1:0|1:0,1:0:0:0:
223,172,5497,6,0,P|283:191|345:165,1,100,2|0,1:3|0:0,0:0:0:0:
479,94,5801,2,0,P|432:136|424:203,1,100,2|0,1:3|0:0,0:0:0:0:
423,360,6105,6,0,P|422:332|414:308,1,37.5000014305115,2|0,1:3|0:0,0:0:0:0:
370,264,6308,2,0,P|319:257|258:298,1,112.500004291535,2|8,1:3|0:3,0:0:0:0:
260,293,6714,6,0,P|235:307|192:309,1,50,0|4,0:0|0:3,0:0:0:0:
88,170,7119,6,0,L|93:6,1,150.000005722046,4|2,0:0|0:0,0:0:0:0:
209,72,7727,2,0,L|205:158,1,75.0000028610231,2|0,0:2|0:2,0:2:0:0:
202,274,8132,1,0,3:3:0:0:
406,222,8335,6,0,P|464:217|501:230,2,75.0000028610231,0|0|0,3:2|0:2|0:2,3:2:0:0:
324,320,8943,1,0,0:2:0:0:
321,78,9146,1,0,3:2:0:0:
229,167,9349,2,0,L|232:257,1,75.0000028610231,2|0,0:2|0:2,0:2:0:0:
138,328,9754,1,2,0:2:0:0:
132,94,9957,1,0,3:2:0:0:
241,158,10160,2,0,L|286:156,1,37.5000014305115,0|0,0:2|0:2,0:2:0:0:
351,158,10362,5,2,0:2:0:0:
232,83,10565,1,0,0:2:0:0:
246,326,10768,1,0,3:2:0:0:
356,231,10970,2,0,P|359:184|345:148,1,75.0000028610231,2|0,0:2|0:2,0:2:0:0:
232,83,11376,1,0,0:2:0:0:
246,326,11578,1,2,3:2:0:0:
156,253,11781,6,0,P|105:249|77:261,2,75.0000028610231,2|0|0,0:2|0:2|0:2,0:2:0:0:
432,269,12389,2,0,P|377:274|342:256,1,75.0000028610231,0|0,3:2|0:2,0:2:0:0:
305,208,12693,2,0,L|306:160,1,37.5000014305115,0|0,3:2|3:2,3:2:0:0:
218,40,12997,1,0,0:2:0:0:
210,312,13200,1,0,3:2:0:0:
146,214,13403,2,0,L|147:166,1,37.5000014305115,0|0,0:2|0:2,0:2:0:0:
104,120,13605,6,0,P|144:132|195:121,1,75.0000028610231,2|0,0:2|0:2,0:2:0:0:
384,28,14011,1,0,3:2:0:0:
327,142,14214,2,0,L|330:229,1,75.0000028610231,2|0,0:2|0:2,0:2:0:0:
336,344,14619,1,0,0:2:0:0:
130,267,14822,2,0,L|34:270,1,75.0000028610231,2|0,3:2|0:2,0:2:0:0:
199,335,15227,5,2,0:2:0:0:
196,207,15430,1,0,0:2:0:0:
425,273,15633,1,0,3:2:0:0:
331,314,15836,2,0,P|322:281|328:239,1,75.0000028610231,2|0,0:2|0:2,0:2:0:0:
399,135,16241,1,0,0:2:0:0:
415,384,16444,1,2,3:2:0:0:
249,305,16647,2,0,L|203:303,1,37.5000014305115,0|0,0:2|0:2,0:2:0:0:
139,302,16849,5,0,0:2:0:0:
303,244,17052,1,0,0:2:0:0:
39,240,17255,1,0,3:2:0:0:
118,140,17457,2,0,P|123:90|113:56,1,75.0000028610231,0|0,0:2|0:2,0:2:0:0:
42,230,17863,1,0,0:2:0:0:
288,219,18065,2,0,L|367:216,1,75.0000028610231,0|0,3:2|0:2,0:2:0:0:
483,213,18470,5,0,0:2:0:0:
351,308,18673,1,0,0:2:0:0:
231,94,18876,2,0,L|233:10,1,75.0000028610231,2|0,3:3|3:2,0:2:0:0:
233,19,19180,1,0,3:2:0:0:
233,19,19281,1,0,1:2:0:0:
452,160,19484,1,0,1:2:0:0:
102,145,19687,1,0,1:2:0:0:
340,38,19889,1,0,1:2:0:0:
340,38,19991,1,0,1:2:0:0:
340,38,20092,6,0,L|334:206,1,150,6|0,0:2|0:2,0:2:0:0:
368,260,20497,2,0,P|424:276|465:261,1,100,2|0,1:2|0:2,0:2:0:0:
508,197,20801,2,0,L|510:140,1,50,0|0,3:2|3:2,3:2:0:0:
227,149,21105,1,0,3:2:0:0:
462,263,21308,2,0,L|465:150,1,100,2|0,1:2|0:2,0:2:0:0:
222,0,21714,6,0,L|228:186,1,150,0|0,3:2|0:2,0:2:0:0:
231,229,22119,2,0,L|234:337,1,100,2|0,1:2|0:2,0:2:0:0:
174,382,22423,2,0,P|144:385|121:380,1,50,0|0,1:2|3:2,0:2:0:0:
7,281,22727,1,2,3:2:0:0:
282,280,22930,2,0,L|285:385,1,100,2|0,1:2|0:2,0:2:0:0:
383,199,23335,6,0,P|399:125|376:41,1,150,2|0,3:2|0:2,0:2:0:0:
314,11,23741,2,0,L|204:14,1,100,0|0,1:2|0:2,0:2:0:0:
241,90,24045,2,0,L|290:88,1,50,0|0,1:2|3:2,0:2:0:0:
481,86,24349,1,0,3:2:0:0:
245,227,24551,2,0,P|186:238|128:220,1,100,2|0,1:2|0:2,0:2:0:0:
310,25,24957,6,0,L|304:181,1,150,2|0,3:2|0:2,0:2:0:0:
354,237,25362,2,0,P|397:261|452:259,1,100,2|0,1:2|0:2,0:2:0:0:
503,203,25666,2,0,L|505:145,1,50,0|0,1:2|3:2,0:2:0:0:
509,18,25970,1,0,3:2:0:0:
307,87,26173,2,0,L|208:84,1,100,0|0,1:2|0:2,0:2:0:0:
64,12,26578,6,0,P|83:93|60:165,1,150,2|0,3:2|0:2,0:2:0:0:
133,198,26984,2,0,P|119:254|135:308,1,100,0|0,1:2|0:2,0:2:0:0:
186,349,27288,1,0,1:2:0:0:
186,349,27389,2,0,L|285:345,1,100,0|0,3:2|3:2,0:2:0:0:
453,212,27795,2,0,L|353:215,1,100,2|0,1:2|0:2,0:2:0:0:
124,78,28200,6,0,L|294:72,1,150,2|0,3:2|0:2,0:2:0:0:
340,28,28605,2,0,P|316:91|339:154,1,100,0|0,1:2|0:2,0:2:0:0:
365,189,28910,1,0,1:2:0:0:
365,189,29011,2,0,P|367:238|345:282,1,100,0|0,3:2|3:2,0:2:0:0:
189,242,29416,2,0,P|187:193|209:149,1,100,2|0,1:2|0:2,0:2:0:0:
433,169,29822,6,0,P|437:253|402:327,1,150,6|0,3:2|0:2,0:2:0:0:
341,349,30227,2,0,L|238:345,1,100,0|0,1:2|0:2,0:2:0:0:
166,344,30531,1,0,0:2:0:0:
166,344,30632,2,0,P|152:281|172:239,1,100,2|0,3:2|3:2,3:2:0:0:
338,50,31038,1,0,1:2:0:0:
324,209,31241,1,0,3:2:0:0:
158,103,31443,5,0,1:2:0:0:
158,118,31545,2,0,L|160:188,1,50,0|0,1:2|0:2,0:2:0:0:
33,171,31747,1,0,1:2:0:0:
32,155,31849,2,0,L|29:84,1,50,0|0,1:2|1:2,1:2:0:0:
168,121,32051,2,0,L|172:238,1,100,0|0,1:2|0:2,0:2:0:0:
175,301,32355,1,0,3:2:0:0:
175,301,32457,1,0,1:2:0:0:
142,32,32660,1,0,1:2:0:0:
387,219,32862,1,0,1:2:0:0:
387,219,32964,1,0,1:2:0:0:
387,219,33065,6,0,P|416:146|381:63,1,150,6|0,0:2|0:2,0:2:0:0:
336,27,33470,1,0,1:2:0:0:
208,154,33673,2,0,L|210:215,1,50,0|0,0:2|0:2,0:2:0:0:
169,271,33876,2,0,L|164:110,1,150,2|2,3:2|0:2,0:2:0:0:
163,41,34281,1,0,1:2:0:0:
327,176,34484,1,2,0:2:0:0:
169,271,34687,5,0,3:2:0:0:
246,117,34889,1,0,0:2:0:0:
371,255,35092,2,0,P|418:270|474:251,1,100,2|0,1:2|3:2,0:2:0:0:
300,49,35497,2,0,L|294:212,1,150,2|2,3:2|0:2,0:2:0:0:
293,279,35903,1,0,1:2:0:0:
407,110,36105,1,2,0:2:0:0:
194,108,36308,6,0,L|24:101,1,150,2|0,3:2|0:2,0:2:0:0:
3,32,36714,2,0,P|29:102|15:150,1,100,2|0,1:2|0:2,0:2:0:0:
80,183,37018,1,0,1:2:0:0:
80,183,37119,2,0,P|53:263|89:333,1,150,2|0,3:2|0:2,0:2:0:0:
139,370,37524,2,0,L|250:366,1,100,0|0,1:2|0:2,0:2:0:0:
443,361,37930,5,0,3:2:0:0:
246,194,38132,1,2,0:2:0:0:
512,209,38335,1,2,1:2:0:0:
331,360,38538,1,2,3:2:0:0:
331,360,38639,1,0,1:2:0:0:
331,360,38741,2,0,P|316:305|341:243,1,100,0|0,3:2|0:2,0:2:0:0:
364,193,39045,2,0,L|304:188,1,50,0|0,3:2|1:2,1:2:0:0:
245,149,39247,1,0,1:2:0:0:
245,149,39349,2,0,L|242:210,1,50,0|0,1:2|1:2,1:2:0:0:
232,349,39551,6,0,P|169:371|89:333,1,150,6|0,3:2|0:2,0:2:0:0:
53,271,39957,1,2,1:2:0:0:
59,59,40160,1,0,0:2:0:0:
232,166,40362,1,2,3:2:0:0:
232,166,40464,2,0,L|288:164,1,50,2|0,0:2|3:2,0:2:0:0:
361,162,40666,1,2,0:2:0:0:
361,162,40768,1,0,1:2:0:0:
167,236,40970,2,0,L|109:238,1,50,0|0,0:2|0:2,0:2:0:0:
36,241,41173,5,2,3:2:0:0:
232,166,41376,1,2,0:2:0:0:
19,336,41578,1,2,1:2:0:0:
108,141,41781,1,0,0:2:0:0:
108,141,41882,1,0,1:2:0:0:
108,141,41984,2,0,P|123:206|102:267,1,100,2|0,3:2|3:2,0:2:0:0:
43,271,42288,1,0,0:2:0:0:
43,271,42389,2,0,P|123:264|161:290,1,100,0|0,1:2|0:2,0:2:0:0:
327,364,42795,6,0,P|402:375|450:347,1,100,6|0,3:2|0:2,0:2:0:0:
430,150,43200,2,0,P|355:139|307:167,1,100,2|0,1:2|0:2,0:2:0:0:
273,199,43504,1,0,1:2:0:0:
273,199,43605,2,0,P|204:208|156:183,1,100,2|0,3:2|3:2,0:2:0:0:
83,0,44011,2,0,L|87:129,1,100,2|0,1:2|0:2,0:2:0:0:
95,306,44416,5,2,3:2:0:0:
0,180,44619,1,0,0:2:0:0:
282,170,44822,2,0,L|438:164,1,150,0|0,1:2|3:2,0:2:0:0:
510,161,45227,1,0,1:2:0:0:
198,128,45430,1,0,1:2:0:0:
421,327,45632,1,0,1:2:0:0:
374,70,45835,2,0,L|376:2,1,50,0|0,1:2|1:2,1:2:0:0:
360,198,46038,6,0,P|298:231|202:198,1,150,6|0,0:2|0:2,0:2:0:0:
162,162,46443,2,0,P|92:147|56:162,1,100,0|0,1:2|0:2,0:2:0:0:
109,358,46849,2,0,L|112:250,1,100,0|0,3:2|3:2,0:2:0:0:
124,9,47254,1,0,1:2:0:0:
26,168,47457,1,0,0:2:0:0:
295,63,47660,5,0,3:2:0:0:
6,75,47862,1,0,0:2:0:0:
112,258,48065,1,0,1:2:0:0:
132,17,48268,1,0,0:2:0:0:
132,17,48369,1,0,1:2:0:0:
132,17,48470,2,0,P|216:10|249:23,1,100,0|0,3:2|0:2,0:2:0:0:
360,107,48876,2,0,L|355:227,1,100,0|0,1:2|0:2,0:2:0:0:
217,357,49281,6,0,B|294:333|294:390|366:364,1,150,4|0,0:2|0:2,0:2:0:0:
423,320,49687,2,0,L|426:206,1,100,0|0,1:2|0:2,0:2:0:0:
436,28,50092,1,0,3:2:0:0:
332,154,50295,1,0,3:2:0:0:
96,25,50497,2,0,L|201:29,1,100,0|0,1:2|0:2,0:2:0:0:
141,307,50903,5,0,3:2:0:0:
148,147,51105,1,0,3:2:0:0:
243,380,51308,5,0,1:2:0:0:
29,223,51510,1,0,3:2:0:0:
29,223,51612,1,0,1:2:0:0:
29,223,51714,1,0,3:2:0:0:
153,52,51916,1,0,3:2:0:0:
151,272,52119,2,0,P|214:297|309:270,1,150,0|0,1:2|0:2,0:2:0:0:
415,99,52524,6,0,L|408:270,1,150,4|0,3:2|0:2,0:2:0:0:
409,329,52930,1,0,1:2:0:0:
493,136,53132,1,0,0:2:0:0:
298,235,53335,2,0,P|223:250|142:194,1,150,0|0,3:2|0:2,0:2:0:0:
114,151,53741,1,0,1:2:0:0:
355,169,53943,1,0,0:2:0:0:
196,328,54146,5,0,3:2:0:0:
218,84,54349,1,0,3:2:0:0:
274,372,54551,1,0,1:2:0:0:
123,197,54754,1,0,3:2:0:0:
123,197,54855,1,0,1:2:0:0:
123,197,54957,1,0,3:2:0:0:
383,233,55160,1,0,3:2:0:0:
55,274,55362,2,0,P|17:201|51:114,1,150,4|0,1:2|0:2,0:2:0:0:
212,11,55768,6,0,L|206:188,1,150,4|0,0:2|0:2,0:2:0:0:
205,240,56173,2,0,L|200:354,1,100,0|0,1:2|0:2,0:2:0:0:
463,141,56578,2,0,P|406:101|311:141,1,150,4|0,0:2|0:2,0:2:0:0:
299,191,56984,2,0,L|294:305,1,100,0|0,1:2|0:2,0:2:0:0:
229,61,57389,6,0,P|167:27|106:33,1,100,0|0,1:2|0:2,0:2:0:0:
66,59,57693,1,0,1:2:0:0:
66,59,57795,2,0,P|9:62|-18:56,1,50,0|0,3:2|1:2,0:2:0:0:
89,181,57997,2,0,P|38:155|17:136,1,50,4|0,0:3|0:2,0:2:0:0:
28,354,58200,2,0,P|10:281|8:241,1,100,8|8,0:3|0:3,0:2:0:0:
204,180,58605,2,0,P|198:229|184:277,1,100,4|4,0:3|0:3,0:2:0:0:
146,10,59011,5,4,0:2:0:0:
335,53,59214,1,0,0:2:0:0:
101,113,59416,5,2,0:2:0:0:
329,169,59619,1,0,0:2:0:0:
41,307,59822,5,4,1:2:0:0:
332,284,60024,1,0,0:2:0:0:
332,284,60126,1,0,1:2:0:0:
332,284,60227,1,0,0:2:0:0:
154,179,60430,1,0,3:2:0:0:
334,23,60632,6,0,P|332:119|319:155,1,100,4|0,0:2|1:2,0:2:0:0:
72,109,61038,2,0,P|74:13|87:-23,1,100,0|0,3:2|3:2,3:2:0:0:
228,181,61443,2,0,L|225:238,1,50,4|0,0:2|0:2,0:2:0:0:
219,370,61646,2,0,L|221:312,1,50,0|0,3:2|1:2,0:2:0:0:
368,284,61849,1,0,3:2:0:0:
74,269,62051,2,0,L|17:267,1,50,0|0,3:2|1:2,0:2:0:0:
153,197,62254,5,4,0:2:0:0:
212,375,62457,1,0,0:2:0:0:
275,142,62660,5,2,0:2:0:0:
295,340,62862,1,0,0:2:0:0:
410,76,63065,5,4,1:2:0:0:
384,268,63268,1,0,0:2:0:0:
384,268,63369,1,0,1:2:0:0:
384,268,63470,1,0,0:2:0:0:
262,118,63673,1,0,0:2:0:0:
58,322,63876,5,4,0:2:0:0:
276,226,64078,1,0,1:2:0:0:
71,103,64281,2,0,P|58:34|72:0,1,100,0|0,3:2|3:2,3:2:0:0:
375,67,64687,2,0,L|262:63,1,100,4|0,1:2|3:2,0:2:0:0:
245,82,64991,1,0,3:2:0:0:
211,103,65092,2,0,P|203:152|210:184,1,50,8|0,0:3|0:2,0:2:0:0:
315,288,65295,2,0,P|276:256|245:246,1,50,8|4,0:3|0:3,0:2:0:0:
106,271,65497,5,4,0:2:0:0:
406,208,65700,1,0,0:2:0:0:
111,246,65903,5,2,0:2:0:0:
411,183,66106,1,0,0:2:0:0:
185,97,66308,5,4,1:2:0:0:
235,328,66511,1,0,1:2:0:0:
206,99,66714,5,2,1:2:0:0:
256,330,66916,2,0,P|284:344|319:347,1,50,0|0,1:2|1:2,1:2:0:0:
379,315,67119,5,8,0:3:0:0:
183,230,67322,2,0,L|124:232,1,50,0|0,1:0|0:2,0:2:0:0:
53,236,67524,1,8,1:3:0:0:
304,265,67727,1,0,3:2:0:0:
140,104,67930,1,8,0:3:0:0:
182,341,68132,1,8,0:3:0:0:
336,161,68335,1,4,0:3:0:0:
376,159,68437,1,4,0:3:0:0:
415,157,68538,1,4,0:3:0:0:
454,156,68639,1,4,0:3:0:0:
512,200,68741,5,4,0:2:0:0:
431,74,68943,2,0,P|423:33|432:-11,1,75.0000028610231,0|0,0:2|0:2,0:2:0:0:
440,93,69349,1,0,3:2:0:0:
343,65,69551,2,0,L|216:69,2,112.500004291535,0|0|0,1:2|0:2|0:2,0:2:0:0:
509,57,70362,5,0,3:2:0:0:
454,164,70565,1,0,0:2:0:0:
454,164,70666,1,0,3:2:0:0:
454,164,70768,2,0,P|450:222|467:261,1,75.0000028610231,0|0,0:2|3:2,0:2:0:0:
370,352,71173,2,0,P|387:290|358:233,2,112.500004291535,0|0|0,1:2|0:2|0:2,0:2:0:0:
245,384,71984,5,0,3:2:0:0:
198,288,72187,1,0,0:2:0:0:
198,288,72288,1,0,0:2:0:0:
198,288,72389,2,0,P|136:286|110:293,1,75.0000028610231,0|0,0:2|3:2,0:2:0:0:
32,185,72795,2,0,P|86:197|143:185,2,112.500004291535,0|0|0,1:2|0:2|0:2,0:2:0:0:
212,129,73605,6,0,L|216:9,2,112.500004291535,0|0|0,3:2|3:2|3:2,3:2:0:0:
151,292,74416,2,0,P|232:266|305:308,1,150.000005722046,0|0,1:2|0:2,0:2:0:0:
288,290,75227,5,0,3:2:0:0:
371,189,75430,2,0,P|381:148|375:103,1,75.0000028610231,0|0,0:2|0:2,0:2:0:0:
360,199,75835,1,0,3:2:0:0:
205,194,76038,2,0,L|92:190,2,112.500004291535,0|0|0,1:2|0:2|0:2,0:2:0:0:
286,285,76849,5,0,3:2:0:0:
274,127,77051,1,0,0:2:0:0:
274,127,77153,1,0,3:2:0:0:
274,127,77254,2,0,P|310:105|370:114,1,75.0000028610231,0|0,0:2|3:2,0:2:0:0:
431,263,77660,2,0,L|435:382,2,112.500004291535,0|0|0,1:2|0:2|0:2,0:2:0:0:
470,93,78470,5,0,3:2:0:0:
369,158,78673,1,0,0:2:0:0:
369,158,78774,1,0,0:2:0:0:
369,158,78876,2,0,L|261:154,1,75.0000028610231,0|0,0:2|3:2,0:2:0:0:
135,149,79281,2,0,P|104:105|96:35,2,112.500004291535,0|0|0,1:2|0:2|0:2,0:2:0:0:
294,155,80092,6,0,L|415:150,1,112.500004291535,0|0,3:2|3:2,3:2:0:0:
222,241,80700,1,0,3:2:0:0:
149,144,80903,2,0,P|134:87|151:27,1,112.500004291535,0|0,1:2|0:2,0:2:0:0:
146,35,81308,2,0,P|82:41|52:37,1,75.0000028610231,0|0,0:2|1:2,0:2:0:0:
51,35,81612,1,0,1:2:0:0:
35,26,81714,5,0,3:2:0:0:
77,213,81916,1,0,0:2:0:0:
77,213,82018,1,0,0:2:0:0:
77,213,82119,1,0,0:2:0:0:
181,105,82322,1,0,3:2:0:0:
214,330,82524,2,0,P|285:357|367:324,2,150,0|0|0,1:2|0:2|0:2,0:2:0:0:
411,268,83335,5,0,3:2:0:0:
166,260,83538,1,0,0:2:0:0:
166,260,83639,1,0,3:2:0:0:
166,260,83741,1,0,0:2:0:0:
371,159,83943,1,0,3:2:0:0:
259,384,84146,2,0,L|253:222,2,150,0|0|0,1:2|0:2|0:2,0:2:0:0:
371,159,84957,5,0,3:2:0:0:
78,244,85160,1,0,0:2:0:0:
78,244,85261,1,0,0:2:0:0:
78,244,85362,1,0,0:2:0:0:
336,255,85565,1,0,3:2:0:0:
29,157,85768,2,0,L|34:315,2,150,0|0|0,1:2|0:2|0:2,0:2:0:0:
121,381,86578,5,0,3:2:0:0:
30,61,86781,1,0,0:2:0:0:
30,61,86882,1,0,3:2:0:0:
30,61,86984,1,0,0:2:0:0:
262,217,87187,1,0,3:2:0:0:
36,365,87389,2,0,L|42:179,1,150,2|0,0:3|0:2,0:2:0:0:
42,205,87795,6,0,B|45:249|13:273|13:273|57:298|57:298|33:331|36:369,1,200,2|0,0:3|0:2,0:2:0:0:
