osu file format v6

[General]
AudioFilename: Aggressive zone (TV Size).mp3
AudioLeadIn: 2716
PreviewTime: 600
Countdown: 0
SampleSet: Normal
StackLeniency: 0.4
Mode: 0
LetterboxInBreaks: 1

[Editor]
Bookmarks: 590,10695,20800,30905,41011,51116,58695,68800,78905,88853
DistanceSpacing: 0.699999988079071
BeatDivisor: 4
GridSize: 32

[Metadata]
Title:Aggressive zone (TV Size)
Artist:NEEDLESS GIRLS+
Creator:DJPop
Version:Easy
Source:NEEDLESS
Tags:kitamura eri endou aya gotou saori makino yui katou emiri eve neuschwanstein cruz schild setsuna mio disc

[Difficulty]
HPDrainRate:2
CircleSize:3
OverallDifficulty:2
SliderMultiplier:0.96
SliderTickRate:2

[Events]
//Background and Video events
0,0,"Aggressive zone (TV Size).png"
Video,-200,"Aggressive zone (TV Size).avi"
//Break Periods
//Storyboard Layer 0 (Background)
//Storyboard Layer 1 (Fail)
//Storyboard Layer 2 (Pass)
//Storyboard Layer 3 (Foreground)
//Storyboard Sound Samples
//Background Colour Transformations
3,100,0,0,32

[TimingPoints]
590,315.789473684211,4,1,1,80,1,0
9037,-100,4,1,2,80,0,0
9195,-100,4,1,1,80,0,0
58695,-100,4,1,1,80,0,1
77168,-100,4,1,2,80,0,1
78747,-100,4,1,1,80,0,0
87353,-100,4,1,2,80,0,0
87511,-100,4,1,1,80,0,0

[Colours]
Combo1 : 0,255,0
Combo2 : 0,0,255
Combo3 : 255,0,255
Combo4 : 255,255,0

[HitObjects]
256,192,590,5,12
256,64,1221,1,8
128,64,1853,1,8
128,192,2484,1,8
64,224,2800,1,10
32,288,3116,5,8
160,320,3747,1,8
288,352,4379,1,8
416,320,5011,1,8
448,256,5326,1,10
416,192,5642,5,12
384,64,6274,1,8
256,32,6905,1,8
128,64,7537,1,8
64,96,7853,1,10
32,160,8168,5,12
160,192,8800,2,0,B|160:232|208:256|256:232|256:192,1,144,8|4
480,192,10695,5,12
448,64,11326,1,8
320,32,11958,1,8
192,32,12590,1,8
128,64,12905,1,8
64,96,13221,5,8
32,224,13853,1,8
64,352,14484,1,8
192,352,15116,1,8
256,320,15432,1,8
320,352,15747,5,12
448,320,16379,1,8
480,192,17011,1,8
352,160,17642,1,8
288,160,17958,1,8
224,160,18274,6,0,B|192:192|160:196|128:192|96:160,2,144,14|14|14
480,32,20800,5,4
256,32,21747,1,2
256,352,23011,5,0
256,288,23326,1,0
32,32,24747,5,2
96,64,25063,1,2
160,96,25379,1,2
224,128,25695,1,2
480,352,26958,5,0
288,352,27747,5,2
224,352,28063,1,2
480,32,29642,5,2
416,64,29958,1,2
352,96,30274,1,2
288,128,30590,1,2
256,64,30905,1,6
256,288,31853,5,2
256,288,32011,1,2
32,352,33116,5,0
32,288,33432,1,0
224,32,34853,5,2
160,64,35168,1,2
96,96,35484,1,2
32,128,35800,1,2
256,288,37063,5,0
416,352,37853,5,2
416,352,38011,1,2
416,352,38168,1,2
480,32,39590,5,4
64,160,41011,6,0,C|64:352,1,192,4|0
192,352,42274,2,0,C|192:160,1,192
320,160,43537,6,0,C|320:352,1,192
448,352,44800,2,0,C|448:160,1,192
416,32,46063,6,0,B|328:80|256:86|184:80|94:31,2,336,4|0|0
448,96,48590,5,6
480,192,49063,1,6
448,288,49537,1,6
64,192,51116,6,0,C|447:192,2,384,4|0|4
448,192,54905,5,4
64,192,56168,5,6
192,192,56800,1,6
384,192,57747,5,2
448,192,58063,1,2
448,320,58695,6,0,C|256:320,1,192,4|8
128,320,59958,2,0,B|47:272|32:160,1,192,8|8
32,32,61221,6,0,C|224:32,1,192,8|8
352,32,62484,2,0,B|460:55|480:160,1,192,8|8
480,288,63747,6,0,B|448:328|401:363|352:328|320:288,1,192,12|8
320,160,65011,2,0,B|201:160|224:290,1,192,8|8
96,320,66274,6,0,C|96:128,3,192,8|8|8|8
32,96,68484,1,8
96,64,68800,6,0,C|288:64,1,192,12|8
416,32,70063,2,0,B|456:88|482:192|456:296|416:352,1,336,8|4
96,352,72432,5,4
96,32,73853,6,0,C|288:32,1,192,4|8
416,96,75116,2,0,C|224:96,1,192,8|8
256,224,76379,5,4
256,320,76853,1,4
256,208,77484,12,0,78590
256,160,78905,5,12
384,160,79536,1,8
480,256,80168,1,8
384,352,80799,1,8
320,320,81115,1,10
256,352,81431,5,8
121,352,82062,1,8
32,256,82694,1,8
128,160,83326,1,8
192,192,83641,1,10
256,224,83957,5,12
384,224,84589,1,8
480,128,85220,1,8
384,32,85852,1,8
320,64,86168,1,10
256,32,86483,5,12
128,32,87115,2,0,B|120:80|80:90|40:80|32:32,1,144,8|4
256,184,88853,5,6
