osu file format v8

[General]
AudioFilename: NDS vs Tom E - 2gether 4ever (Clubraiders Remix).mp3
AudioLeadIn: 0
PreviewTime: 32600
Countdown: 0
SampleSet: Normal
StackLeniency: 0.4
Mode: 0
LetterboxInBreaks: 1

[Editor]
DistanceSpacing: 0.9
BeatDivisor: 4
GridSize: 8

[Metadata]
Title:2gether 4ever (Clubraiders Remix)
Artist:NDS vs Tom E
Creator:jericho2442
Version:Soft Rave
Source:
Tags:Ileia ultimate Rukarioman

[Difficulty]
HPDrainRate:2
CircleSize:3
OverallDifficulty:2
ApproachRate:2
SliderMultiplier:0.999999999999999
SliderTickRate:1

[Events]
//Background and Video events
0,0,"2gether 4ever.jpg"
Video,0,"2gether 4ever video.FLV"
//Break Periods
2,61110,62617
2,115089,116701
2,131991,133602
//Storyboard Layer 0 (Background)
//Storyboard Layer 1 (Fail)
//Storyboard Layer 2 (Pass)
//Storyboard Layer 3 (Foreground)
//Storyboard Sound Samples
//Background Colour Transformations
3,100,163,162,255

[TimingPoints]
5129,422.535211267606,4,2,0,100,1,0
33022,-100,4,1,1,80,0,0
47389,-100,4,1,1,80,0,1
60910,-100,4,1,1,80,0,0
64177,422.535211267606,4,1,1,80,1,0
93340,-100,4,2,0,80,0,0
109382,-100,4,2,1,60,0,0
109805,-100,4,1,1,40,0,0
110227,-100,4,1,1,20,0,0
110650,-100,4,1,1,0,0,0
111509,-100,4,1,1,60,0,0
113199,-100,4,1,1,30,0,0
113622,-100,4,1,1,45,0,0
114044,-100,4,1,1,60,0,0
114467,-100,4,1,1,80,0,0
118270,-100,4,1,1,80,0,1
131791,-100,4,1,1,80,0,0
150277,-100,4,1,1,70,0,0
151967,-100,4,1,1,60,0,0
153658,-100,4,1,1,50,0,0
155348,-100,4,1,1,40,0,0

[Colours]
Combo1 : 72,164,255
Combo2 : 255,255,130
Combo3 : 133,252,225
Combo4 : 255,151,255

[HitObjects]
40,192,5762,2,0,B|176:200|144:56|144:56,1,200,0|2
324,61,7452,2,0,B|312:200|453:192|453:192,1,200,0|2
440,280,8720,1,0
352,280,9143,6,0,B|216:336|272:240|152:280|152:280,1,200,0|2
56,192,10621,1,0
56,104,11044,2,0,B|152:112|144:208|144:208,1,150,0|2
96,280,12100,1,0
256,56,13368,6,0,B|232:192|360:192|360:192,1,200,0|2
360,368,15058,2,0,B|152:368|152:368,1,200,0|2
72,368,16326,1,0
112,288,16748,5,0
208,192,17382,1,0
296,192,17805,2,0,B|288:96|192:101|192:101,1,150,0|2
123,154,18861,1,0
432,192,20340,5,0
344,192,20762,1,2
256,192,21185,1,0
168,192,21607,1,2
216,272,22030,5,0
272,344,22452,1,2
328,272,22875,1,0
384,344,23298,1,2
472,344,23720,6,0,B|424:192|504:304|472:144|472:144,1,200
472,56,24988,1,2
400,104,25410,6,0,B|248:56|360:136|200:104|200:104,1,200
112,104,26678,1,2
24,104,27100,6,0,B|32:184|112:192|112:192|178:259|178:259|199:370|303:337|303:337,1,400
264,256,29213,1,2
352,256,29636,1,0
304,176,30058,1,2
256,192,30481,12,4,32171
96,192,33861,6,0,B|96:136|48:104|48:104|160:88|216:192|216:192,1,300,0|8
304,192,35551,2,0,B|359:88|471:104|471:104|423:136|432:192,1,300,0|8
432,280,37241,6,0,B|344:280|304:352|304:352|240:280|158:280|158:280,1,300,0|8
160,368,38931,2,0,B|88:344|95:281|95:281,1,99.9999999999999
120,216,39776,1,0
32,240,40199,1,8
56,152,40621,6,0,B|16:64|152:16|160:128|160:128,1,200
249,125,41889,1,8
338,128,42312,6,0,B|338:129|345:18|481:66|441:154,1,200
441,244,43579,1,8
440,336,44002,6,0,B|376:336|354:273|354:273|264:272|264:272,1,200
176,272,45269,1,8
224,192,45692,1,4
256,40,47382,5,0
344,40,47805,1,0
416,96,48227,1,0
488,40,48650,1,8
488,128,49072,6,0,B|488:216|488:216|448:264|488:320|488:320,1,200
408,352,50340,1,8
328,320,50762,6,0,B|328:319|368:263|328:215|328:215|328:127,1,200
256,80,52030,1,8
176,128,52452,1,0
256,288,53298,1,8
104,192,54143,5,0
104,192,54565,1,0
104,104,54988,1,0
104,104,55410,1,8
184,144,55833,5,0
184,144,56255,1,0
272,144,56678,1,0
272,144,57100,1,8
352,192,57523,5,0
352,192,57945,1,0
352,104,58368,1,0
352,104,58790,1,8
256,192,59213,12,4,60903
152,40,64177,6,0,B|33:2|-25:132|59:245|150:185|150:185,1,300,0|8
116,114,65867,2,0,B|242:104|253:277|154:304|74:262|74:262,1,300,0|8
86,348,67557,6,0,B|199:367|271:319|306:225|282:162|282:162,1,300,0|8
368,192,69247,2,0,B|360:104|277:102|277:102|432:16|496:160|496:160,1,400
496,248,71360,5,8
496,336,71782,1,0
424,288,72205,1,0
344,248,72627,5,0
344,336,73050,1,8
272,288,73472,1,0
200,336,73895,1,0
200,248,74317,5,0
112,248,74740,1,8
160,168,75162,1,0
248,168,75585,1,0
200,88,76007,1,4
472,192,77698,6,0,B|408:192|392:136|392:136,2,99.9999999999999,0|8|0
472,280,78965,1,0
384,256,79388,6,0,B|320:224|312:168|312:168,2,99.9999999999999,0|8|0
384,344,80655,1,0
296,344,81078,6,0,B|192:344|192:344,1,99.9999999999999,0|8
104,344,81923,2,0,B|104:280|160:264|160:264,1,99.9999999999999
256,192,82768,12,4,84458
256,192,85303,5,8
256,16,86148,1,0
96,104,86993,1,8
96,280,87838,5,0
256,360,88684,1,8
416,280,89529,1,0
416,104,90374,1,8
256,192,91219,1,4
40,192,93754,6,0,B|40:128|96:104|96:104,1,99.9999999999999,0|2
128,104,94388,2,0,B|192:96|192:32|192:32,1,99.9999999999999,0|2
280,40,95233,5,0
280,88,95444,2,0,B|280:152|344:160|344:160,1,99.9999999999999,0|2
384,160,96078,2,0,B|448:168|448:232|448:232,1,99.9999999999999,0|2
448,320,96923,5,0
400,320,97134,2,0,B|344:352|304:320|304:320,1,99.9999999999999,0|2
264,320,97768,2,0,B|208:352|168:320|168:320,1,99.9999999999999,0|2
80,320,98613,5,0
32,320,98824,2,0,B|32:216|32:216,1,99.9999999999999,0|2
80,216,99458,2,0,B|80:144|144:144|144:144,1,99.9999999999999,0|2
136,56,100303,5,0
184,56,100515,2,0,B|296:56|296:56,1,99.9999999999999,0|2
288,104,101148,2,0,B|184:104|184:104,1,99.9999999999999,0|2
192,192,101993,5,0
240,192,102205,2,0,B|352:192|352:192,1,99.9999999999999,0|2
344,240,102838,2,0,B|240:240|240:240,1,99.9999999999999,0|2
256,328,103684,5,0
208,328,103895,2,0,B|136:328|136:256|136:256,1,99.9999999999999,0|2
96,272,104529,1,0
256,192,105374,5,0
304,192,105585,2,0,B|368:184|352:112|352:112,1,99.9999999999999,0|2
384,88,106219,2,0,B|448:80|432:8|432:8,1,99.9999999999999,0|2
344,16,107064,5,0
296,16,107275,2,0,B|232:24|248:96|248:96,1,99.9999999999999,0|2
216,120,107909,2,0,B|152:128|168:200|168:200,1,99.9999999999999,0|2
256,192,108543,12,0,111500
256,192,112346,5,8
80,192,113191,5,0
80,280,113613,1,0
152,328,114036,1,8
240,328,114458,1,0
200,248,114881,1,4
480,40,118261,6,0,B|400:24|392:96|392:96,1,99.9999999999999
472,128,119106,2,8,B|442:189|371:167|371:167,1,99.9999999999999,0|8
298,170,119951,6,0,B|218:186|210:114|210:114,1,99.9999999999999
290,82,120796,2,0,B|260:21|189:43|189:43,1,99.9999999999999,0|8
120,40,121641,5,0
120,216,122486,1,8
256,336,123331,5,0
256,248,123754,1,0
336,280,124176,1,0
336,368,124599,1,8
416,320,125022,6,0,B|496:320|480:240|480:240,1,99.9999999999999
400,232,125867,2,0,B|416:160|488:176|488:176,1,99.9999999999999,0|8
472,88,126712,6,0,B|368:88|368:88,1,99.9999999999999
280,88,127557,2,0,B|168:88|168:88,1,99.9999999999999,0|8
88,88,128402,6,0,B|93:164|168:179|168:179|208:224|208:224|179:294|96:248|96:248,1,300,0|8
120,344,130092,2,0,B|260:359|292:225|292:225|368:224|368:224,1,300,0|8
448,224,131782,1,4
256,40,135162,6,0,B|192:40|184:104|184:104,1,99.9999999999999
95,102,136007,2,0,B|95:206|95:206,1,99.9999999999999,0|8
96,296,136853,5,0
96,296,137275,1,0
184,296,137698,1,0
184,296,138120,1,8
272,296,138543,6,0,B|408:240|312:368|480:288|480:288,1,200
408,224,139810,1,8
464,152,140233,6,0,B|463:152|320:80|392:216|273:151,1,200
186,154,141500,1,8
96,152,141923,6,0,B|96:216|160:240|160:240,1,99.9999999999999
144,320,142768,1,0
232,320,143191,1,8
320,320,143613,5,0
408,320,144036,1,0
360,240,144458,1,0
448,240,144881,1,8
480,152,145303,6,0,B|336:168|336:40|336:40,1,200
248,48,146571,1,8
160,48,146993,6,0,B|160:112|222:132|222:132|176:208|176:208,1,200
176,296,148261,1,8
264,296,148684,5,0
440,296,149529,1,8
440,296,149951,1,0
440,296,150374,5,0
440,120,151219,1,8
440,120,151641,1,0
440,120,152064,5,0
264,120,152909,1,8
264,120,153331,1,0
264,120,153754,5,0
88,120,154599,1,8
88,120,155022,1,0
88,120,155444,6,0,B|40:256|176:272|176:272,1,200,0|8
256,272,156712,1,0
344,272,157134,6,0,B|344:216|290:187|290:187|352:112|352:112,1,200,0|8
440,112,158402,1,0
256,192,158824,12,4,162205
