osu file format v8

[General]
AudioFilename: NDS vs Tom E - 2gether 4ever (Clubraiders Remix).mp3
AudioLeadIn: 0
PreviewTime: 32600
Countdown: 0
SampleSet: Soft
StackLeniency: 0.4
Mode: 0
LetterboxInBreaks: 1

[Editor]
DistanceSpacing: 0.7
BeatDivisor: 4
GridSize: 8

[Metadata]
Title:2gether 4ever (Clubraiders Remix)
Artist:NDS vs Tom E
Creator:jericho2442
Version:Hardcore Rave!!!
Source:
Tags:Ileia ultimate Rukarioman

[Difficulty]
HPDrainRate:7
CircleSize:4
OverallDifficulty:8
ApproachRate:8
SliderMultiplier:2.1
SliderTickRate:1

[Events]
//Background and Video events
0,0,"2gether 4ever.jpg"
Video,0,"2gether 4ever video.FLV"
//Break Periods
2,32371,33105
2,45892,46626
2,61103,63421
2,91427,92787
2,115089,117505
2,131991,134406
//Storyboard Layer 0 (Background)
//Storyboard Layer 1 (Fail)
//Storyboard Layer 2 (Pass)
//Storyboard Layer 3 (Foreground)
//Storyboard Sound Samples
//Background Colour Transformations
3,100,163,162,255

[TimingPoints]
5129,422.535211267606,4,2,0,100,1,0
33022,-100,4,1,1,80,0,0
47389,-100,4,1,1,80,0,1
60910,-100,4,1,1,80,0,0
64177,422.535211267606,4,1,1,80,1,0
93340,-100,4,2,0,80,0,0
107706,-100,4,1,1,20,0,0
109713,-100,4,1,1,40,0,0
111509,-100,4,1,1,60,0,0
113199,-100,4,1,1,30,0,0
113622,-100,4,1,1,45,0,0
114044,-100,4,1,1,60,0,0
114467,-100,4,1,1,80,0,0
118270,-100,4,1,1,80,0,1
131791,-100,4,1,1,80,0,0
150277,-100,4,1,1,70,0,0
151967,-100,4,1,1,60,0,0
153658,-100,4,1,1,50,0,0
155348,-100,4,1,1,40,0,0

[Colours]
Combo1 : 72,164,255
Combo2 : 255,255,130
Combo3 : 133,252,225
Combo4 : 255,151,255

[HitObjects]
480,32,5762,2,0,B|408:24|400:96|400:96,1,105
480,112,6185,1,2
480,192,6396,1,0
480,272,6607,2,0,B|424:272|400:208|400:208|192:208|192:208,1,315,2|0
112,208,7452,5,0
152,136,7664,1,0
72,136,7875,2,0,B|72:64|144:56|144:56,1,105,2|0
216,56,8298,2,0,B|344:24|312:128|432:56|432:56,1,210,2|0
256,352,9143,5,0
176,352,9354,2,0,B|176:280|248:272|248:272,1,105,0|2
384,352,9988,2,0,B|512:328|448:160|448:160,1,210,2|0
368,184,10621,1,0
408,112,10833,5,0
328,112,11044,2,0,B|253:27|188:116|188:116,1,157.5
144,224,11678,1,2
144,304,11889,1,0
144,304,11995,1,0
144,304,12100,1,2
400,240,12523,5,0
344,176,12734,1,0
344,88,12945,1,2
264,88,13157,2,0,B|264:16|336:8|336:8,1,105,0|2
176,88,13790,1,0
32,176,14213,6,0,B|144:176|144:176,1,105
224,176,14636,2,0,B|224:256|136:264|136:264,1,105,2|0
168,336,15058,2,0,B|392:336|392:336,1,210,2|0
480,192,15903,5,0
480,104,16114,1,0
408,144,16326,2,0,B|376:208|424:256|424:256,1,105,2|0
352,296,16748,2,0,B|304:208|304:152|336:112|368:64|368:64,1,210,2|0
328,56,17276,1,0
288,56,17382,1,0
208,56,17593,1,0
120,56,17805,6,0,B|120:128|192:144|192:144,1,105,0|2
256,136,18227,2,0,B|256:264|256:264,1,105,0|2
256,72,18861,1,2
256,72,19072,1,0
344,72,19283,5,0
424,96,19495,1,0
480,160,19706,1,2
488,240,19917,1,0
488,328,20128,2,0,B|424:328|408:256|408:256|304:256|304:256,1,210,2|0
232,256,20762,1,0
280,184,20974,5,0
232,112,21185,1,0
184,184,21396,1,2
144,112,21607,1,0
96,184,21819,2,0,B|48:152|40:72|72:16|160:32|160:32,1,210,2|0
224,32,22452,1,0
304,32,22664,5,0
384,32,22875,1,0
456,72,23086,1,2
480,152,23298,1,0
480,232,23509,2,0,B|416:232|400:160|400:160|336:168|336:96|336:96,1,210,2|0
296,104,24037,1,0
256,104,24143,1,2
176,104,24354,6,0,B|176:216|176:216,1,105
176,296,24776,1,2
248,336,24988,1,0
248,256,25199,2,0,B|384:208|344:344|472:248|472:248,1,210,2|0
448,176,25833,5,0
448,96,26044,1,0
376,136,26255,1,0
296,136,26467,1,2
224,176,26678,1,0
224,96,26889,1,2
152,136,27100,6,0,B|112:184|112:184,3,52.5
112,216,27523,2,0,B|112:280|112:280,3,52.5,8|0|0|0
120,312,27945,2,0,B|160:360|160:360,3,52.5
192,352,28368,2,0,B|248:352|248:352,3,52.5,8|0|0|0
288,352,28790,6,0,B|352:352|352:352,3,52.5
344,312,29213,2,0,B|280:312|280:312,3,52.5,8|0|0|0
248,312,29636,2,0,B|184:312|184:312,3,52.5
192,272,30058,2,0,B|256:272|256:272,3,52.5,8|0|0|0
288,272,30481,5,0
328,264,30586,1,0
360,240,30692,1,0
384,208,30798,1,0
384,168,30903,1,8
376,128,31009,1,0
352,96,31114,1,0
312,80,31220,1,0
272,80,31326,5,0
240,104,31431,1,0
224,144,31537,1,0
232,184,31643,1,0
256,216,31748,1,8
296,216,31854,1,0
328,192,31959,1,0
328,152,32065,1,0
288,136,32171,1,4
256,352,33861,5,0
176,320,34072,2,0,B|144:368|144:368,2,52.5,0|0|8
120,256,34495,1,0
40,256,34706,2,0,B|40:184|96:176|96:176,1,105
176,176,35129,2,0,B|288:176|288:176,1,105,8|0
368,176,35551,5,0
440,136,35762,2,0,B|488:176|488:176,2,52.5,0|0|8
464,56,36185,1,0
376,56,36396,2,0,B|256:56|256:56,1,105,0|0
184,56,36819,2,0,B|184:128|256:144|256:144,1,105,8|0
240,224,37241,5,0
240,304,37452,2,0,B|184:304|184:304,2,52.5,0|0|8
320,304,37875,1,0
320,224,38086,2,0,B|392:224|400:304|400:304,1,105
480,288,38509,2,0,B|480:176|480:176,1,105,8|0
424,120,38931,5,0
352,72,39143,1,0
352,72,39248,1,0
352,72,39354,1,8
280,120,39565,1,0
208,72,39776,1,0
208,72,39882,1,0
208,72,39988,1,0
136,120,40199,1,8
48,120,40410,1,0
96,192,40621,6,0,B|96:312|96:312,1,105
176,296,41044,2,0,B|176:240|232:200|232:200,1,105,8|0
416,192,41467,2,0,B|416:312|416:312,1,105
336,296,41889,2,0,B|336:240|280:200|280:200,1,105,8|0
200,32,42312,6,0,B|152:88|216:144|216:144,1,105
312,32,42734,2,0,B|360:88|296:144|296:144,1,105,8|0
200,352,43157,2,0,B|152:296|216:240|216:240,1,105
312,352,43579,2,0,B|360:296|296:240|296:240,1,105,8|0
256,128,44002,6,0,B|256:56|320:56|320:56,1,105
320,192,44424,2,0,B|392:192|392:256|392:256,1,105,8|0
256,256,44847,2,0,B|256:328|192:328|192:328,1,105
192,192,45269,2,0,B|120:192|120:128|120:128,1,105,8|0
256,192,45692,1,4
256,192,47382,5,0
256,192,47488,1,0
256,192,47593,1,0
256,192,47699,1,0
256,192,47805,1,8
256,288,48016,1,0
160,192,48227,1,0
256,96,48438,1,0
160,192,48650,5,8
256,288,48861,1,0
256,192,49072,5,0
256,192,49178,1,0
256,192,49283,1,0
256,192,49389,1,0
256,192,49495,1,8
256,288,49706,1,0
352,192,49917,1,0
256,96,50129,1,0
352,192,50340,5,8
256,288,50551,1,0
192,344,50762,5,0
152,344,50868,1,0
112,336,50974,1,0
80,312,51079,1,0
72,272,51185,1,8
64,184,51396,1,0
144,216,51607,5,0
240,104,51819,1,0
336,216,52030,1,8
440,112,52241,1,0
448,256,52452,5,0
448,296,52558,1,0
440,328,52664,1,0
416,352,52769,1,0
384,368,52875,1,8
275,375,53086,1,0
176,376,53298,5,0
72,272,53509,1,0
168,160,53720,1,8
80,40,53931,1,0
168,160,54143,5,0
168,160,54248,1,0
168,160,54354,1,0
168,160,54459,1,0
168,160,54565,1,8
248,160,54776,2,0,B|312:160|336:224|336:224,1,105
216,304,55199,5,0
72,304,55410,1,8
216,304,55621,1,0
360,304,55833,5,0
360,304,55938,1,0
360,304,56044,1,0
360,304,56150,1,0
360,304,56255,1,8
360,224,56467,1,0
360,144,56678,6,0,B|360:72|296:64|296:64,1,105
168,128,57100,2,0,B|112:96|128:32|128:32,1,105,8|0
32,152,57523,6,0,B|32:272|32:272,1,105
128,152,57945,2,0,B|128:272|128:272,1,105,8|0
232,152,58368,6,0,B|232:88|296:64|296:64,1,105
296,216,58790,2,0,B|360:200|368:112|368:112,1,105,8|0
256,192,59213,12,4,60903
480,32,64177,6,0,B|344:32|352:184|352:184,1,210,0|8
208,168,64810,1,0
64,168,65022,2,0,B|64:248|128:264|128:264,1,105,0|0
256,256,65444,2,0,B|384:256|384:256,1,105,8|0
256,360,65867,6,0,B|120:352|152:184|152:184,1,210,0|8
152,64,66500,1,0
192,64,66606,1,0
176,104,66712,1,0
320,64,66923,1,0
464,64,67134,1,8
400,200,67346,1,0
400,344,67557,6,0,B|272:386|302:273|176:355|176:355,1,210,0|8
48,344,68191,1,0
120,216,68402,2,0,B|120:136|200:136|200:136,1,105
296,56,68824,2,0,B|296:136|216:136|216:136,1,105,8|0
360,56,69247,6,0,B|440:168|344:256|344:256,1,210,0|8
200,248,69881,2,0,B|128:248|128:248,2,52.5
344,248,70303,1,0
272,120,70515,1,8
416,120,70726,1,0
288,192,70937,6,0,B|240:288|168:176|104:312|104:312,1,210,0|8
112,144,71571,2,0,B|112:32|112:32,1,105
248,96,71993,2,0,B|192:96|192:96|192:152|192:152,1,105,0|8
328,96,72416,1,0
288,240,72627,6,0,B|232:304|176:248|176:248|72:248|72:248,1,210,0|8
96,104,73261,1,0
96,144,73367,1,0
120,176,73472,1,0
264,176,73684,1,0
400,248,73895,1,8
272,328,74106,1,0
152,248,74317,5,0
376,56,74740,1,8
232,56,74951,1,0
104,128,75162,1,0
16,248,75374,1,0
104,360,75585,1,8
200,248,75796,1,0
256,192,76007,12,8,77486
256,192,77698,5,0
112,192,77909,1,0
240,120,78120,1,8
112,192,78331,1,0
192,72,78543,2,0,B|256:24|304:88|304:88,1,105
416,144,78965,2,0,B|464:208|400:256|400:256,1,105,8|0
264,240,79388,6,0,B|264:352|264:352,1,105
136,280,79810,2,0,B|136:160|136:160,1,105,8|0
136,32,80233,2,0,B|256:32|256:32,1,105
352,136,80655,2,0,B|224:136|224:136,1,105,8|0
248,280,81078,6,0,B|376:344|328:224|496:304|496:304,1,210,0|8
352,184,81712,1,0
256,72,81923,1,0
288,216,82134,1,0
192,104,82346,1,8
224,248,82557,1,0
128,136,82768,1,0
480,352,83191,5,8
480,352,83402,1,0
440,352,83507,1,0
400,352,83613,1,0
256,352,83824,2,0,B|256:280|184:280|184:280,1,105,0|8
192,136,84247,1,0
296,32,84458,5,0
440,32,84669,2,0,B|440:96|440:96,2,52.5,0|0|8
296,32,85092,1,0
152,32,85303,2,0,B|144:96|192:128|192:128,1,105
188,125,85726,2,0,B|240:160|208:232|208:232,1,105,8|0
296,344,86148,5,0
440,344,86360,2,0,B|440:280|440:280,2,52.5,0|0|8
296,344,86782,1,0
152,344,86993,2,0,B|160:264|80:272|80:272,1,105
94,272,87416,2,0,B|96:160|96:160,1,105,8|0
200,272,87838,6,0,B|352:280|304:112|304:112,1,210,0|8
456,136,88472,1,0
392,264,88684,1,0
456,136,88895,1,0
496,280,89106,1,8
456,136,89317,1,0
320,192,89529,1,0
256,192,89634,12,4,91219
480,192,93543,5,2
448,112,93754,1,0
376,72,93965,1,2
304,112,94176,1,0
272,192,94388,2,0,B|136:208|192:360|192:360|192:352,1,210,2|0
32,192,95233,5,2
48,112,95444,1,0
128,80,95655,1,2
120,160,95867,1,0
104,240,96078,2,0,B|184:240|192:176|192:176|296:176|296:176,1,210,2|0
480,352,96923,5,2
400,320,97134,1,0
344,256,97346,1,2
288,320,97557,1,0
208,352,97768,2,0,B|88:352|88:352|40:336|40:264|40:264,1,210,2|0
256,32,98613,6,0,B|208:72|232:136|232:136,1,105,2|0
304,96,99036,2,0,B|336:168|256:208|256:208,1,105,2|0
200,192,99458,2,0,B|200:264|264:288|336:296|360:216|360:216,1,210,2|0
104,352,100303,6,0,B|104:232|104:232,1,105,2|0
176,200,100726,1,2
264,200,100937,1,0
336,248,101148,2,0,B|344:384|488:352|488:352,1,210,2|0
480,104,101993,6,0,B|480:24|384:24|384:24,1,105,2|0
392,112,102416,1,2
328,168,102627,1,0
248,136,102838,2,0,B|232:208|272:272|352:272|400:216|400:216,1,210,2|0
48,192,103684,5,2
120,120,103895,1,0
192,192,104106,1,2
120,264,104317,1,0
48,192,104529,1,2
256,192,104951,5,2
256,192,105162,1,0
344,192,105374,5,2
424,192,105585,2,0,B|432:264|352:280|352:280,1,105,0|2
224,352,106219,2,0,B|88:360|96:208|96:208,1,210,2|0
256,32,107064,5,2
256,32,107275,1,0
256,32,107486,1,2
104,192,108120,6,0,B|48:192|48:192,3,52.5
248,192,108543,2,0,B|304:192|304:192,3,52.5,8|0|0|0
125,141,108965,2,0,B|85:101|85:101,3,52.5
226,242,109388,2,0,B|266:282|266:282,3,52.5,8|0|0|0
176,119,109810,6,0,B|176:63|176:63,3,52.5
176,263,110233,2,0,B|175:319|175:319,3,52.5,8|0|0|0
226,141,110655,2,0,B|266:101|266:101,3,52.5
125,242,111078,2,0,B|85:282|85:282,3,52.5,8|0|0|0
248,192,111500,6,0,B|304:191|304:191,3,52.5
104,192,111923,2,0,B|47:191|47:191,3,52.5,8|0|0|0
176,264,112346,2,0,B|176:320|176:320,3,52.5
176,120,112768,2,0,B|176:63|176:63,3,52.5,8|0|0|0
176,192,113191,5,0
216,184,113296,1,0
240,152,113402,1,0
240,112,113507,1,0
280,112,113613,1,8
320,112,113719,1,0
336,152,113824,1,0
368,184,113930,1,0
408,192,114036,5,0
408,232,114141,1,0
408,272,114247,1,0
368,280,114353,1,0
344,312,114458,1,8
344,352,114564,1,0
304,352,114669,1,0
264,352,114775,1,0
248,312,114881,1,0
288,128,118261,6,0,B|224:128|216:48|216:48,1,105
176,64,118578,1,0
136,64,118684,2,0,B|22:64|22:64,1,105,8|0
32,104,119000,1,0
32,144,119106,2,0,B|31:219|87:243|87:243,1,105
120,240,119423,1,0
160,240,119529,2,0,B|161:353|161:353,1,105,8|0
248,344,119951,6,0,B|320:344|312:272|312:272,1,105
312,232,120268,1,0
320,192,120374,2,0,B|320:115|392:123|392:123,1,105,8|0
424,120,120691,1,0
464,120,120796,2,0,B|464:1|464:1,1,105
424,16,121113,1,0
384,16,121219,2,0,B|272:80|272:80,1,105,8|0
208,72,121641,6,0,B|88:72|88:72,1,105
104,112,121958,1,0
104,152,122064,2,0,B|105:216|33:224|33:224,1,105,8|0
40,264,122381,1,0
40,304,122486,2,0,B|113:305|121:369|121:369,1,105
160,360,122803,1,0
200,360,122909,2,0,B|312:360|312:360,1,105,8|0
392,360,123331,6,0,B|392:240|392:240,1,105
392,216,123648,1,0
400,176,123754,2,0,B|400:113|480:113|480:113,1,105,8|0
472,72,124071,1,0
472,32,124176,2,0,B|360:32|360:32,1,105
344,72,124493,1,0
320,112,124599,2,0,B|201:111|201:111,1,105,8|0
32,184,125022,6,0,B|32:296|32:296,1,105
72,288,125338,1,0
112,288,125444,2,0,B|112:176|112:176,1,105,8|0
152,184,125761,1,0
192,184,125867,2,0,B|192:304|192:304,1,105
232,288,126184,1,0
272,288,126289,2,0,B|272:176|272:176,1,105,8|0
480,40,126712,6,0,B|480:152|480:152,1,105
440,144,127029,1,0
400,144,127134,2,0,B|400:32|400:32,1,105,8|0
360,40,127451,1,0
320,40,127557,2,0,B|320:160|320:160,1,105
280,144,127874,1,0
240,144,127979,2,0,B|240:32|240:32,1,105,8|0
256,192,128402,12,4,130092
256,192,130198,12,4,131782
480,192,135162,6,0,B|360:248|392:128|264:200|264:200,1,210,0|8
280,344,135796,1,0
136,312,136007,1,0
80,176,136219,1,0
136,40,136430,1,8
280,24,136641,1,0
424,40,136853,6,0,B|504:112|424:176|424:176|424:248|424:248,1,210,0|8
352,352,137486,1,0
320,320,137592,1,0
296,288,137698,2,0,B|160:288|160:288,1,105
80,192,138120,2,0,B|208:192|208:192,1,105,8|0
336,192,138543,6,0,B|488:192|464:48|464:48,1,210,0|8
320,64,139176,1,0
176,64,139388,1,0
248,192,139599,1,0
104,192,139810,1,8
176,320,140022,1,0
320,320,140233,1,0
32,192,140655,5,8
32,192,140867,1,0
32,152,140972,1,0
56,120,141078,1,0
176,208,141289,2,0,B|280:272|280:272,1,105,0|8
266,262,141712,1,0
408,208,141923,6,0,B|416:64|512:144|496:16|496:16,1,210,0|8
352,32,142557,1,0
208,32,142768,2,0,B|208:104|264:128|264:128,1,105
256,272,143191,2,0,B|256:200|192:192|192:192,1,105,8|0
56,192,143613,6,0,B|40:336|192:352|192:352,1,210,0|8
312,344,144247,1,0
344,328,144353,1,0
352,296,144458,1,0
248,192,144669,1,0
152,80,144881,1,8
56,192,145092,1,0
152,304,145303,6,0,B|224:296|232:376|232:376,2,105,0|0|8
8,304,145937,1,0
8,160,146148,2,0,B|8:40|8:40,1,105
112,160,146571,2,0,B|112:272|112:272,1,105,8|0
216,160,146993,6,0,B|344:160|256:32|400:48|400:48,1,210,0|8
376,192,147627,1,0
376,232,147733,1,0
376,272,147838,1,0
248,336,148050,1,0
248,192,148261,1,8
176,320,148472,1,0
104,192,148684,6,0,B|-40:160|40:24|40:24,1,210,0|8
176,72,149317,1,0
176,72,149529,1,0
232,208,149740,1,0
272,64,149951,1,8
320,208,150162,1,0
464,208,150374,6,0,B|480:368|320:352|320:352,1,210,0|8
200,352,151007,1,0
200,352,151219,1,0
56,352,151430,1,0
184,280,151641,1,8
40,280,151853,1,0
104,152,152064,6,0,B|192:32|288:160|288:160,1,210,0|8
424,152,152698,1,0
424,152,152909,1,0
360,280,153120,2,0,B|368:360|288:360|288:360,1,105,0|8
160,352,153543,1,0
16,352,153754,6,0,B|80:224|-40:264|24:136|24:136,1,210,0|8
168,152,154388,1,0
312,152,154599,2,0,B|384:152|384:88|384:88,1,105
248,152,155022,2,0,B|256:232|344:216|344:216|344:216,1,105,8|0
248,88,155444,6,0,B|32:88|32:88,1,210,0|8
168,152,156078,1,0
40,216,156289,2,0,B|256:216|256:216,1,210,0|8
120,280,156923,1,0
256,344,157134,5,0
448,120,157557,1,8
152,128,157979,1,0
448,120,158402,1,8
256,192,158824,12,8,160092
256,192,160515,12,4,162205
