osu file format v9

[General]
AudioFilename: ND Lee - Seoleim Part 2.mp3
AudioLeadIn: 1004
PreviewTime: 51096
Countdown: 0
SampleSet: Normal
StackLeniency: 0.7
Mode: 0
LetterboxInBreaks: 0

[Editor]
DistanceSpacing: 0.7
BeatDivisor: 6
GridSize: 8

[Metadata]
Title:Seoleim Part 2
Artist:ND Lee
Creator:James
Version:Normal
Source:DJMAX Technika 3
Tags:yuca y_u_c_a Miya

[Difficulty]
HPDrainRate:4
CircleSize:4
OverallDifficulty:2
ApproachRate:5
SliderMultiplier:1.4
SliderTickRate:1

[Events]
//Background and Video events
0,0,"image.jpg"
//Break Periods
2,75784,86691
//Storyboard Layer 0 (Background)
//Storyboard Layer 1 (Fail)
//Storyboard Layer 2 (Pass)
//Storyboard Layer 3 (Foreground)
//Storyboard Sound Samples
//Background Colour Transformations
3,100,0,0,0

[TimingPoints]
1738,384.615384615385,4,1,1,50,1,0
124686,-200,4,1,1,50,0,0
126609,-100,4,1,1,50,0,0

[Colours]
Combo1 : 255,161,28
Combo2 : 154,252,196
Combo3 : 160,170,192
Combo4 : 233,12,150

[HitObjects]
272,96,1738,2,0,B|200:64|112:104,1,140,4|2
48,120,2379,2,0,B|48:176,1,46.6666666666667
48,304,2891,1,2
192,304,3276,2,0,B|160:224|200:144,1,140,0|2
280,168,3917,2,0,B|368:168,1,46.6666666666667
464,168,4430,1,2
464,304,4814,6,0,B|312:304,1,140,0|2
216,304,5455,2,0,B|216:232,1,46.6666666666667
216,120,5968,1,2
72,120,6353,2,0,B|32:192|80:288,1,140,0|2
104,344,6994,2,0,B|168:312,1,46.6666666666667
256,256,7507,2,0,B|256:104,2,140,2|0|8
408,336,9045,5,8
456,144,9814,1,8
264,96,10584,1,8
216,288,11353,1,8
312,312,11738,1,0
288,216,12122,1,8
192,200,12507,1,0
120,264,12891,1,8
144,360,13276,1,0
144,360,13532,2,8,B|216:360,1,46.6666666666667,8|8
328,360,14045,6,0,B|360:288|320:216,1,140,4|2
232,224,14686,2,0,B|168:224,1,46.6666666666667
48,224,15199,1,2
48,80,15584,2,0,B|120:48|216:88,1,140,0|2
272,104,16225,2,0,B|272:184,1,46.6666666666667
272,288,16738,1,2
136,288,17122,6,0,B|112:208|136:136,1,140,0|2
224,152,17763,2,0,B|296:152,1,46.6666666666667
408,152,18276,1,2
408,296,18661,2,0,B|336:328|256:288,1,140,0|2
184,272,19302,2,0,B|184:200,1,46.6666666666667
184,88,19814,2,0,B|256:56|336:96,2,140,2|0|8
80,256,21353,5,8
256,344,22122,1,8
432,256,22891,1,8
328,88,23661,1,8
232,96,24045,1,0
192,184,24430,1,8
288,200,24814,1,0
312,296,25199,1,8
216,328,25584,1,0
216,328,25840,2,8,B|144:352,1,46.6666666666667
72,328,26353,5,4
48,200,26738,2,0,B|24:128|48:48,1,140,2|0
184,56,27507,1,2
280,56,27763,2,0,B|344:56,1,46.6666666666667,0|0
464,56,28276,1,2
472,192,28661,2,0,B|496:264|472:344,1,140,0|2
384,328,29302,2,0,B|328:328,1,46.6666666666667,0|0
200,328,29814,5,2
64,328,30199,2,0,B|32:256|72:168,1,140,0|2
160,192,30840,2,0,B|224:192,1,46.6666666666667,0|0
344,192,31353,1,2
320,56,31738,1,0
184,32,32122,1,2
96,136,32507,1,0
200,232,32891,1,8
368,336,33661,5,8
472,168,34430,1,8
288,88,35199,1,8
312,184,35584,2,0,B|352:264|296:344,1,140,0|8
232,320,36225,2,0,B|176:320,1,46.6666666666667
120,248,36738,1,8
200,192,37122,1,0
280,136,37507,1,8
232,48,37891,1,0
232,48,38148,2,0,B|176:48,1,46.6666666666667,8|8
56,48,38661,5,4
56,176,39045,2,0,B|56:320,1,140,2|0
200,320,39814,1,2
296,320,40071,2,0,B|368:320,1,46.6666666666667,0|0
480,320,40584,1,2
480,176,40968,2,0,B|504:96|464:8,1,140,0|2
384,40,41609,2,0,B|328:40,1,46.6666666666667,0|0
200,40,42122,1,2
56,40,42507,6,0,B|32:120|64:208,1,140,0|2
160,176,43148,2,0,B|216:176,1,46.6666666666667
344,176,43661,1,2
448,264,44045,1,0
344,352,44430,2,0,B|192:352,2,140,2|0|8
424,176,45968,5,8
240,120,46737,1,8
160,296,47507,1,8
256,296,47891,2,0,B|424:296,1,140,0|8
400,216,48532,2,0,B|312:216,1,46.6666666666667
256,216,49045,1,8
176,168,49430,1,0
176,72,49814,1,8
272,56,50199,1,0
272,56,50455,2,0,B|352:56,1,46.6666666666667,8|8
456,56,50968,6,0,B|456:200,1,140,4|2
456,288,51609,2,0,B|400:288,1,46.6666666666667
272,288,52122,1,2
128,288,52507,2,0,B|96:216|128:144,1,140,0|2
152,64,53148,2,0,B|216:64,1,46.6666666666667
336,64,53661,1,2
472,64,54045,6,0,B|504:136|472:216,1,140,0|2
384,200,54686,2,0,B|320:200,1,46.6666666666667
200,200,55199,1,2
56,200,55584,2,0,B|24:272|56:344,1,140,0|2
144,336,56225,2,0,B|216:336,1,46.6666666666667
328,336,56737,2,0,B|488:336,2,140,2|0|8
352,144,58276,5,8
160,120,59045,1,8
128,312,59814,1,8
328,336,60584,1,8
256,272,60968,1,0
304,192,61353,1,8
232,128,61737,1,0
288,48,62122,1,8
384,48,62507,1,0
384,48,62763,2,8,B|464:48,1,46.6666666666667
432,192,63276,6,0,B|432:336,1,140,4|2
336,336,63917,2,0,B|264:336,1,46.6666666666667
288,200,64430,1,2
288,56,64814,2,0,B|216:32|112:64,1,140,0|2
56,72,65455,2,0,B|56:144,1,46.6666666666667
56,256,65968,1,2
192,256,66353,6,0,B|168:176|200:112,1,140,0|2
288,120,66994,2,0,B|360:120,1,46.6666666666667
472,120,67507,1,2
472,264,67891,2,0,B|320:264,1,140,0|2
240,264,68532,2,0,B|240:192,1,46.6666666666667
240,80,69045,2,0,B|168:56|88:88,2,140,2|0|8
424,152,70584,5,8
336,328,71353,1,8
160,248,72122,1,8
200,160,72507,1,0
128,96,72891,1,8
48,152,73276,1,0
64,248,73661,1,8
256,192,74045,12,4,75584
48,184,87891,6,0,B|48:40,1,140
184,64,89045,5,0
320,48,89814,1,0
456,56,90584,1,0
456,192,91353,5,0
320,208,92122,1,0
192,160,92891,1,0
56,208,93661,1,0
56,344,94430,5,0
192,360,95199,1,0
328,336,95968,1,0
464,352,96737,1,0
464,216,97507,5,0
328,184,98276,1,0
192,200,99045,1,0
96,176,99430,1,0
64,256,99686,2,8,B|56:336,1,46.6666666666667
144,288,100071,2,0,B|160:368,1,46.6666666666667,12|4
288,288,100584,6,0,B|448:288,1,140,2|0
376,160,101353,1,2
280,160,101609,2,0,B|216:160,1,46.6666666666667
224,288,102122,2,0,B|64:288,1,140,2|0
136,160,102891,1,2
232,160,103148,2,0,B|296:160,1,46.6666666666667
416,160,103661,1,2
424,24,104045,6,0,B|264:24,1,140,0|2
192,24,104686,2,0,B|192:80,1,46.6666666666667
192,208,105199,1,2
296,296,105584,1,0
384,208,105968,2,0,B|384:56,2,140,2|0|8
224,320,107507,5,8
112,160,108276,1,8
272,48,109045,1,8
384,208,109814,1,8
312,272,110199,1,0
240,208,110584,1,8
312,136,110968,2,0,B|312:88,5,46.6666666666667
240,208,111994,2,0,B|240:272,4,46.6666666666667,0|0|0|0|4
104,96,114045,5,4
104,288,115584,1,4
408,288,117122,1,4
256,120,118148,6,0,B|256:312,1,186.666666666667,4|4
256,306,119045,1,4
376,336,120199,5,4
144,336,120840,1,4
256,88,121737,5,4
256,88,123276,5,4
256,304,124814,6,0,B|256:336,12,23.3333333333333,0|0|0|0|0|0|0|0|0|0|0|0|4
112,304,126737,6,0,B|80:232|120:152,1,140,2|0
208,168,127379,2,0,B|272:168,1,46.6666666666667,0|2
392,168,127891,2,0,B|424:96|384:16,1,140,0|2
296,32,128532,2,0,B|232:32,1,46.6666666666667
112,32,129045,1,2
120,168,129430,6,0,B|280:168,1,140,0|2
352,168,130071,2,0,B|352:232,1,46.6666666666667
352,352,130584,1,2
216,352,130968,2,0,B|72:352,1,140,0|2
64,216,131737,1,0
200,176,132122,1,2
336,200,132507,1,0
464,168,132891,5,8
304,56,133661,1,8
176,200,134430,1,8
312,344,135199,1,8
392,288,135584,2,0,B|360:224|352:144,3,140,0|8|0|8
448,128,137122,5,0
448,128,137507,1,8
392,40,137891,1,0
392,40,138148,2,0,B|304:40,1,46.6666666666667,8|8
208,40,138661,6,0,B|64:40,1,140,4|2
64,136,139302,2,0,B|64:192,1,46.6666666666667
64,320,139814,1,2
208,320,140199,2,0,B|176:248|208:168,1,140,0|2
232,96,140840,2,0,B|304:96,1,46.6666666666667
416,96,141353,1,2
416,232,141737,6,0,B|264:232,1,140,0|2
184,232,142379,2,0,B|184:160,1,46.6666666666667
184,48,142891,1,2
40,48,143276,2,0,B|16:120|40:216,1,140,0|2
64,272,143917,2,0,B|136:272,1,46.6666666666667
248,272,144430,2,0,B|248:112,2,140,2|0|8
440,312,145968,5,8
504,128,146737,1,8
312,88,147507,1,8
248,272,148276,1,8
224,368,148661,1,0
152,296,149045,1,8
176,200,149430,1,0
272,176,149814,1,8
344,248,150199,1,0
344,248,150455,2,0,B|344:304,4,46.6666666666667,8|8|8|8|0
456,336,151353,5,2
368,352,151609,2,0,B|296:328,1,46.6666666666667
232,312,151994,2,0,B|184:376,1,46.6666666666667,0|2
112,320,152379,2,0,B|32:328,1,46.6666666666667
40,184,152891,5,2
128,216,153148,2,0,B|200:240,1,46.6666666666667
264,232,153532,2,0,B|288:160,1,46.6666666666667,0|2
368,216,153917,2,0,B|440:192,1,46.6666666666667
464,72,154430,5,2
376,56,154686,2,0,B|296:32,1,46.6666666666667
240,40,155071,2,0,B|192:96,1,46.6666666666667,0|2
120,40,155455,2,0,B|48:64,1,46.6666666666667
56,192,155968,5,2
144,208,156225,2,0,B|216:232,1,46.6666666666667
264,176,156609,2,0,B|336:152,1,46.6666666666667,0|2
400,184,156994,2,0,B|464:232,1,46.6666666666667
472,344,157507,1,2
472,344,157891,6,0,B|408:328,6,46.6666666666667,0|0|0|0|0|0|4
256,192,160071,12,4,161737
