osu file format v9

[General]
AudioFilename: ND Lee - Seoleim Part 2.mp3
AudioLeadIn: 1004
PreviewTime: 51096
Countdown: 0
SampleSet: Normal
StackLeniency: 0.7
Mode: 0
LetterboxInBreaks: 0

[Editor]
DistanceSpacing: 1.7
BeatDivisor: 3
GridSize: 8

[Metadata]
Title:Seoleim Part 2
Artist:ND Lee
Creator:James
Version:Hard
Source:DJMAX Technika 3
Tags:yuca y_u_c_a Miya

[Difficulty]
HPDrainRate:5
CircleSize:5
OverallDifficulty:7
ApproachRate:7
SliderMultiplier:1.4
SliderTickRate:1

[Events]
//Background and Video events
0,0,"image.jpg"
//Break Periods
2,75783,86991
//Storyboard Layer 0 (Background)
//Storyboard Layer 1 (Fail)
//Storyboard Layer 2 (Pass)
//Storyboard Layer 3 (Foreground)
//Storyboard Sound Samples
//Background Colour Transformations
3,100,0,0,0

[TimingPoints]
1738,384.615384615385,4,1,1,50,1,0
110840,-100,4,1,1,30,0,0
111673,-100,4,1,1,50,0,0
111930,-100,4,1,1,30,0,0
112443,-100,4,1,1,50,0,0
124686,-200,4,1,1,50,0,0
126609,-100,4,1,1,50,0,0

[Colours]
Combo1 : 255,161,28
Combo2 : 154,252,196
Combo3 : 160,170,192
Combo4 : 233,12,150

[HitObjects]
256,304,1738,1,4
256,304,2122,2,0,B|304:320|352:312,1,93.3333333333333,2|0
376,304,2507,2,0,B|376:224|448:168,1,140,0|2
336,80,3276,1,0
216,152,3661,1,2
88,104,4045,1,0
32,184,4302,2,0,B|24:208|32:240,1,46.6666666666667,0|2
256,304,4814,5,0
256,304,5199,2,0,B|208:320|160:312,1,93.3333333333333,2|0
136,304,5584,2,0,B|136:224|64:168,1,140,0|2
176,80,6353,1,0
296,152,6737,1,2
424,104,7122,1,0
480,184,7379,2,0,B|488:208|480:240,1,46.6666666666667,2|2
376,328,7891,5,0
256,256,8276,1,8
120,296,8661,2,0,B|8:224,1,93.3333333333333
41,245,9045,1,8
120,200,9302,1,0
120,200,9430,2,0,B|192:224|272:192,1,140,0|8
352,176,10071,2,0,B|368:232,1,46.6666666666667
440,168,10455,2,0,B|424:120,1,46.6666666666667,0|8
392,32,10840,5,0
392,32,10968,2,0,B|328:72|248:32,1,140,0|8
120,32,11609,1,0
120,32,11738,2,0,B|184:72|264:32,1,140,0|8
392,144,12507,1,0
256,264,12891,1,8
120,144,13276,1,0
256,40,13532,1,8
256,40,13661,2,0,B|256:192,1,140,8|4
120,144,14430,6,0,B|104:240,1,93.3333333333333,2|0
100,263,14814,2,0,B|152:312|248:304,1,140,0|2
368,296,15584,1,0
272,192,15968,1,2
360,80,16353,1,0
448,48,16609,2,0,B|496:32,1,46.6666666666667,0|2
392,144,17122,5,0
392,144,17507,2,0,B|408:240,1,93.3333333333333,2|0
412,263,17891,2,0,B|360:312|264:304,1,140,0|2
144,296,18661,1,0
240,192,19045,1,2
152,80,19430,1,0
64,48,19686,2,0,B|16:32,1,46.6666666666667,2|2
32,176,20199,5,0
96,304,20584,1,8
224,256,20968,1,0
184,176,21225,1,0
184,176,21353,2,0,B|296:136,1,93.3333333333333,8|0
296,136,21738,2,0,B|312:216|400:264,1,140,0|8
448,304,22379,1,0
448,304,22507,1,0
480,216,22763,2,0,B|480:192|464:168,1,46.6666666666667,0|8
424,88,23148,5,0
424,88,23276,2,0,B|344:72|288:128,1,140,0|8
88,88,23917,1,0
88,88,24045,2,0,B|168:72|232:136,1,140,0|8
344,240,24814,1,0
160,240,25199,1,8
256,104,25584,1,0
256,104,25840,1,8
256,104,25968,2,0,B|256:256,1,140,8|4
368,328,26738,5,2
424,256,26994,1,0
432,224,27122,2,0,B|448:152|416:88,1,140,0|2
256,56,27891,1,0
96,88,28276,1,2
80,176,28532,1,0
80,208,28661,2,0,B|88:288|160:344,1,140,0|2
256,352,29302,1,0
256,352,29430,5,0
256,216,29814,1,2
256,120,30071,1,0
256,120,30199,2,0,B|368:144,1,93.3333333333333
376,152,30584,2,0,B|368:216|424:256,1,93.3333333333333,2|0
424,264,30968,1,0
336,312,31225,1,0
336,360,31353,1,2
256,248,31738,1,0
168,200,31994,2,0,B|168:144,1,46.6666666666667,0|2
256,48,32507,5,0
392,40,32891,1,8
472,152,33276,2,0,B|432:248,1,93.3333333333333
416,264,33661,2,0,B|360:240|304:296,1,93.3333333333333,8|0
304,296,34045,1,0
224,336,34302,1,0
184,320,34430,1,8
104,272,34686,2,0,B|160:112,1,140
160,112,35199,1,8
248,88,35455,5,0
240,120,35584,2,0,B|192:272,1,140,0|8
288,288,36225,2,0,B|266:349,1,46.6666666666667
368,328,36609,2,0,B|386:272,1,46.6666666666667,0|8
416,200,36994,1,0
424,168,37122,2,0,B|448:120|432:56|368:24,1,140,0|8
304,24,37763,1,0
304,24,37891,1,0
224,64,38148,1,8
208,88,38276,2,0,B|184:136|200:200|264:232,1,140,8|4
424,336,39045,6,0,B|272:336,1,140,2|0
312,200,39814,1,2
176,224,40199,1,0
88,336,40584,2,0,B|240:336,1,140,2|0
200,200,41353,1,2
336,224,41609,1,0
381,234,41737,5,0
448,112,42122,1,2
328,40,42507,2,0,B|168:40,1,140,0|2
144,120,43148,1,0
176,120,43276,2,0,B|280:120,1,93.3333333333333,0|0
272,152,43661,2,0,B|280:232|376:248,1,140,2|0
456,264,44302,1,0
456,312,44430,1,2
320,352,44814,5,0
192,296,45199,1,8
56,320,45584,2,0,B|80:152,1,140,0|8
160,216,46225,1,0
168,184,46353,2,0,B|192:24,1,140,0|8
272,88,46994,1,0
264,136,47122,1,0
357,130,47379,2,0,B|344:202,1,46.6666666666667,0|8
326,266,47763,5,0
339,295,47891,2,0,B|403:343|475:295,1,140,0|8
186,266,48532,1,0
173,295,48661,2,0,B|109:343|37:295,1,140,0|8
256,88,49430,2,0,B|256:232,1,140,0|8
256,320,50071,1,0
256,320,50199,1,0
344,360,50455,5,8
376,368,50584,1,8
408,368,50712,1,8
440,352,50840,1,8
464,328,50968,1,4
464,328,51353,6,0,B|472:232,1,93.3333333333333,2|0
472,200,51737,2,0,B|408:160|320:168,1,140,0|2
248,168,52379,1,0
248,168,52507,2,0,B|248:320,1,140,0|2
160,272,53148,1,0
160,272,53276,1,0
160,176,53532,2,0,B|120:136,1,46.6666666666667,0|2
48,328,54045,5,0
48,328,54430,2,0,B|40:232,1,93.3333333333333,2|0
40,200,54814,2,0,B|104:160|192:168,1,140,0|2
264,168,55455,1,0
264,168,55584,2,0,B|264:320,1,140,0|2
344,256,56225,1,0
344,256,56353,1,0
344,160,56609,2,0,B|384:120,1,46.6666666666667,2|2
488,208,57122,5,0
440,344,57507,1,8
304,312,57891,2,0,B|256:288|184:304,1,93.3333333333333
212,299,58276,1,8
120,304,58532,1,0
120,304,58661,2,0,B|120:224|80:264|80:144,1,140,0|8
80,80,59302,1,0
112,48,59430,1,0
200,80,59686,2,0,B|232:48,1,46.6666666666667,0|8
464,48,60071,5,0
464,48,60199,2,0,B|376:88|424:200,1,140,0|8
432,256,60840,1,0
392,280,60968,1,0
312,320,61225,1,0
288,280,61353,1,8
320,144,61737,2,0,B|256:112|176:136,1,140,0|8
96,160,62379,2,0,B|104:208,1,46.6666666666667
128,296,62763,1,8
128,296,62891,2,0,B|184:336|264:312,1,140,8|4
248,72,63661,6,0,B|344:80,1,93.3333333333333,2|0
368,80,64045,2,0,B|368:176|408:120|400:240,1,140,0|2
400,304,64686,1,0
352,312,64814,1,0
216,328,65199,1,2
216,232,65455,2,0,B|152:216,1,46.6666666666667
224,144,65840,1,0
272,152,65968,1,2
400,96,66353,5,0
264,72,66737,2,0,B|168:80,1,93.3333333333333,2|0
144,80,67122,2,0,B|144:176|104:120|112:240,1,140,0|2
112,304,67763,1,0
160,312,67891,1,0
296,328,68276,1,2
296,232,68532,2,0,B|360:216,1,46.6666666666667
280,144,68917,1,2
235,133,69045,1,2
96,104,69430,5,0
48,240,69814,1,8
160,320,70199,1,0
248,304,70455,1,0
280,296,70584,2,0,B|336:280|384:296,1,93.3333333333333,8|0
408,296,70968,2,0,B|400:224|448:240|432:144,1,140,0|8
432,64,71609,1,0
392,48,71737,1,0
328,112,71994,1,0
288,128,72122,1,8
200,112,72379,5,0
200,112,72507,2,0,B|136:88|48:104,1,140,0|8
96,192,73148,1,0
88,240,73276,1,0
176,224,73532,1,0
184,272,73661,1,8
272,240,73917,1,0
272,240,74045,6,0,B|344:272|424:240,1,140,0|8
360,168,74686,1,0
384,128,74814,1,0
296,96,75071,1,8
296,96,75199,2,0,B|224:64|144:96,1,140,8|4
48,184,87891,6,0,B|48:40,1,140
184,64,89045,1,0
320,48,89814,1,0
456,56,90584,1,0
456,192,91353,5,0
320,208,92122,1,0
192,160,92891,1,0
56,208,93661,1,0
56,344,94430,5,0
192,360,95199,1,0
328,336,95968,1,0
464,352,96737,1,0
464,32,97507,5,0
48,32,98276,1,0
160,72,98661,1,0
64,144,99045,1,8
176,192,99430,1,0
91,231,99686,2,8,B|43:255,1,46.6666666666667
118,314,100071,2,8,B|182:282,1,46.6666666666667,8|4
256,352,100584,5,2
344,320,100840,1,0
360,288,100968,2,0,B|392:216|344:144,1,140,0|2
256,48,101737,1,0
256,48,102122,1,2
168,80,102379,1,0
152,112,102507,2,0,B|120:184|168:256,1,140,0|2
200,336,103148,1,0
248,336,103276,1,0
392,336,103661,5,2
424,248,103917,1,0
424,248,104045,2,0,B|456:160,1,93.3333333333333
424,152,104430,2,0,B|376:144|344:72,1,93.3333333333333,2|0
344,64,104814,1,0
256,96,105071,1,0
256,96,105199,2,0,B|256:240,1,140,2|0
256,328,105840,1,0
256,328,105968,1,2
120,344,106353,5,0
40,232,106737,1,8
56,96,107122,2,0,B|152:56,1,93.3333333333333
176,48,107507,2,0,B|208:96|288:88,1,93.3333333333333,8|0
288,88,107891,1,0
384,80,108148,1,0
408,120,108276,1,8
456,200,108532,2,0,B|336:312,1,140
328,320,109045,1,8
240,288,109302,5,0
272,256,109430,2,0,B|392:144,1,140,0|8
280,136,110071,1,0
246,168,110199,1,0
176,232,110455,2,0,B|136:272,1,46.6666666666667,0|8
56,112,110968,5,8
80,88,111096,1,8
112,72,111225,1,8
144,64,111353,1,8
176,72,111481,1,8
208,88,111609,1,8
232,104,111737,1,0
456,272,111994,5,8
432,296,112122,1,8
400,312,112250,1,8
368,312,112379,1,8
336,304,112507,1,4
128,304,114045,5,4
128,80,115584,1,4
384,80,117122,1,4
256,144,118148,6,0,B|256:336,1,186.666666666667,4|4
256,331,119045,1,4
128,80,120199,5,4
384,80,120840,1,4
256,304,121737,5,4
384,80,123276,5,4
128,80,123917,1,4
256,192,124814,6,0,B|256:224,12,23.3333333333333,0|0|0|0|0|0|0|0|0|0|0|0|4
352,328,126737,6,0,B|448:328,1,93.3333333333333,2|0
478,326,127122,2,0,B|494:246|430:190,1,140,0|2
328,72,127891,1,0
224,208,128276,1,2
320,272,128532,2,0,B|376:312,1,46.6666666666667
432,216,128917,2,0,B|464:168,1,46.6666666666667,0|2
232,104,129430,5,0
160,328,129814,2,0,B|64:328,1,93.3333333333333,2|0
34,326,130199,2,0,B|18:246|82:190,1,140,0|2
184,72,130968,1,0
288,208,131353,1,2
192,272,131609,2,0,B|136:312,1,46.6666666666667
80,216,131994,2,0,B|48:168,1,46.6666666666667,2|2
56,72,132379,1,2
96,48,132507,5,0
256,104,132891,1,8
416,40,133276,1,0
488,120,133532,1,0
488,120,133661,2,0,B|496:224,1,93.3333333333333,8|0
496,248,134045,2,0,B|424:256|408:344,1,140,0|8
296,344,134686,1,0
304,296,134814,1,0
192,296,135071,2,0,B|192:240,1,46.6666666666667,0|8
192,136,135455,5,0
208,104,135584,2,0,B|248:40|336:24,1,140,0|8
320,248,136225,1,0
304,280,136353,2,0,B|264:344|176:360,1,140,0|8
72,120,137122,1,0
320,32,137507,1,8
440,264,137891,1,0
341,318,138148,1,8
341,318,138276,2,0,B|280:357|204:348,1,140,8|4
48,344,139045,5,2
48,232,139302,1,0
48,232,139430,2,0,B|88:168|184:168,1,140,0|2
168,336,140199,1,0
344,336,140584,1,2
344,224,140840,2,0,B|408:208,1,46.6666666666667
336,112,141225,1,0
288,104,141353,1,2
256,312,141737,5,0
464,344,142122,1,2
464,232,142379,1,0
464,232,142507,2,0,B|424:168|328:168,1,140,0|2
344,336,143276,1,0
168,336,143661,1,2
168,224,143917,2,0,B|104:208,1,46.6666666666667
176,112,144302,1,2
224,104,144430,1,2
336,88,144686,5,2
352,112,144814,2,0,B|392:176|384:256,1,140,0|8
208,184,145584,1,0
104,152,145840,1,0
88,176,145968,2,0,B|56:216|64:272,1,93.3333333333333,8|0
72,296,146353,2,0,B|224:336,1,140,0|8
320,352,146994,1,0
328,304,147122,1,0
440,328,147379,1,0
440,280,147507,1,8
440,184,147763,5,0
440,184,147891,2,0,B|416:112|336:96,1,140,0|8
328,208,148532,1,0
296,248,148661,1,0
240,176,148917,1,0
240,128,149045,1,8
128,152,149302,1,0
128,152,149430,2,0,B|128:296,1,140,0|8
40,224,150071,1,0
40,224,150199,1,0
48,336,150455,5,8
48,336,150584,1,8
48,336,150712,1,8
48,336,150840,1,8
48,336,150968,5,4
184,312,151225,1,0
184,312,151353,1,10
320,352,151609,1,0
320,352,151737,1,0
456,320,151994,1,0
456,320,152122,1,10
464,184,152379,5,0
424,200,152507,1,0
296,144,152763,1,0
288,184,152891,1,10
152,192,153148,1,0
160,232,153276,1,0
24,208,153532,2,0,B|40:144,1,46.6666666666667,10|10
64,24,153917,5,0
64,24,154045,1,0
200,40,154302,1,0
200,40,154430,1,10
336,24,154686,1,0
336,24,154814,1,0
464,72,155071,1,0
464,72,155199,1,10
448,208,155455,5,0
464,240,155584,1,0
328,224,155840,1,0
312,192,155968,1,10
176,232,156225,1,0
160,272,156353,1,0
48,192,156609,2,0,B|32:144,1,46.6666666666667,10|10
168,72,156994,5,0
168,112,157122,1,0
344,72,157379,1,0
344,112,157507,1,10
392,224,157763,5,0
360,248,157891,1,8
320,264,158020,1,8
280,272,158148,1,8
240,272,158276,1,8
200,264,158404,1,8
160,248,158532,1,8
128,224,158661,1,4
256,192,160071,12,4,161737
