osu file format v9

[General]
AudioFilename: Lover (BS Style).mp3
AudioLeadIn: 0
PreviewTime: 44719
Countdown: 0
SampleSet: Soft
StackLeniency: 0.7
Mode: 0
LetterboxInBreaks: 1

[Editor]
DistanceSpacing: 1
BeatDivisor: 4
GridSize: 8

[Metadata]
Title:Lover (BS Style)
Artist:ND Lee
Creator:aesopl19193
Version:Normal
Source:DJMAX
Tags:

[Difficulty]
HPDrainRate:4
CircleSize:3
OverallDifficulty:5
ApproachRate:5
SliderMultiplier:1.5
SliderTickRate:1

[Events]
//Background and Video events
Video,-400,"[BGA]_DJ_Max_Black_Square_-_Lover.avi"
0,0,"lover.jpg"
//Break Periods
//Storyboard Layer 0 (Background)
//Storyboard Layer 1 (Fail)
//Storyboard Layer 2 (Pass)
//Storyboard Layer 3 (Foreground)
//Storyboard Sound Samples
//Background Colour Transformations
3,100,0,0,0

[TimingPoints]
5015,413.793103448276,4,2,0,71,1,0
48049,-100,4,2,0,71,0,1
70704,-100,4,2,0,71,0,0

[Colours]
Combo1 : 52,162,203
Combo2 : 159,122,85
Combo3 : 173,158,71
Combo4 : 168,77,150

[HitObjects]
384,104,18256,1,4
336,248,18670,1,0
200,304,19083,1,0
104,192,19497,1,2
160,56,19911,6,0,B|280:56|280:160,1,150
272,280,20739,2,0,B|272:352|144:352,1,150,0|2
48,248,21566,5,0
48,96,21980,1,0
200,96,22394,2,0,B|280:48|352:104,1,150,2|0
488,96,23221,6,0,B|400:96,1,75
416,168,23635,2,0,B|520:168|520:168,1,75
496,240,24049,2,0,B|496:344|384:344,1,150,2|0
256,344,24877,5,0
112,344,25290,1,8
112,192,25704,2,0,B|64:112|120:48,1,150,0|8
264,56,26532,5,0
416,56,26946,1,8
416,208,27359,2,0,B|416:320|304:320,1,150,0|8
184,320,28187,6,0,B|184:232,1,75
184,168,28601,2,0,B|280:168,1,75,2|0
336,168,29015,1,0
184,168,29428,6,0,B|88:168,1,75,8|0
72,232,29842,2,0,B|72:328,1,75
144,328,30256,1,2
296,328,30670,2,0,B|376:328,1,75,0|0
408,80,31497,5,4
256,80,31911,1,12
144,80,32221,1,0
360,152,33152,6,0,B|432:208|344:312|336:312,1,150,6|8
136,256,34187,1,4
152,144,34497,1,4
168,32,34808,5,4
320,40,35221,2,0,B|320:176,1,112.5,2|8
320,344,36049,1,0
168,344,36463,6,0,B|288:344,2,112.5
120,200,37497,2,0,B|264:200,1,112.5,6|0
272,128,38118,5,4
424,128,38532,2,0,B|424:248,1,112.5,4|4
240,240,39359,1,8
88,240,39773,5,4
88,88,40187,2,0,B|192:88|192:88|184:88,4,75,8|0|2|0|4
240,88,41428,5,4
360,184,41842,1,2
240,280,42256,1,0
120,184,42670,1,8
240,280,43083,5,4
360,184,43497,1,4
240,88,43911,1,4
120,184,44325,1,4
240,280,44739,5,0
160,152,45566,1,0
304,192,46394,1,0
224,64,47221,1,0
344,96,48049,6,0,B|344:192,1,75
344,248,48463,1,8
192,248,48877,1,0
192,248,49290,1,8
88,136,49704,6,0,B|88:32,1,75
160,56,50118,1,8
232,56,50325,2,0,B|232:152,2,75
304,56,50946,1,8
392,176,51359,5,0
432,320,51773,1,8
280,320,52187,2,0,B|192:320|192:320,2,75,0|0|8
280,168,53015,6,0,B|280:104|280:88,2,75,0|0|8
280,320,53842,2,0,B|456:320,1,150,0|8
440,176,54670,5,0
352,56,55083,1,8
208,96,55497,1,0
56,96,55911,1,8
56,168,56118,1,0
56,240,56325,5,0
184,312,56739,1,8
336,312,57152,1,0
464,240,57566,1,8
304,240,57980,6,0,B|408:240|408:112,1,150,0|8
280,64,58808,2,0,B|224:16|136:32,1,150,0|8
56,152,59635,6,0,B|96:216|208:216,1,150,0|8
336,216,60463,2,0,B|440:216,2,75,0|0|8
352,64,61290,5,0
208,104,61704,1,8
88,192,62118,1,0
160,320,62532,1,8
312,304,62946,5,0
440,224,63359,2,0,B|488:152|424:80,1,150,8|0
280,80,64187,1,8
144,144,64601,6,0,B|64:208|120:296,1,150,0|8
256,288,65428,2,0,B|328:232|288:144,1,150,0|8
144,144,66256,6,0,B|64:208|120:296,1,150,0|8
256,288,67083,2,0,B|328:232|288:144,1,150,0|8
192,56,67911,5,0
104,176,68325,1,2
80,320,68739,1,0
144,288,68946,1,0
208,248,69152,1,8
360,248,69566,6,0,B|264:248,3,75,0|0|8|0
288,176,70394,2,0,B|352:176,3,37.5,2|0|8|4
256,192,71221,12,0,73703
256,192,74532,12,0,77015
112,144,77842,6,0,C|184:80|184:216|264:120|368:120,1,450,0|8
392,264,79497,6,0,C|320:328|320:192|240:288|136:288,1,450,0|8
152,96,81152,6,0,B|288:96,2,112.5
72,176,82083,1,0
128,272,82394,1,2
280,272,82808,6,0,B|360:272,3,75,0|0|8|0
352,200,83635,2,0,B|424:200,3,37.5,2|0|8|4
