osu file format v9

[General]
AudioFilename: Lover (BS Style).mp3
AudioLeadIn: 0
PreviewTime: 44719
Countdown: 0
SampleSet: Soft
StackLeniency: 0.6
Mode: 0
LetterboxInBreaks: 1

[Editor]
DistanceSpacing: 1
BeatDivisor: 4
GridSize: 8

[Metadata]
Title:Lover (BS Style)
Artist:ND Lee
Creator:aesopl19193
Version:Insane
Source:DJMAX
Tags:

[Difficulty]
HPDrainRate:7
CircleSize:4
OverallDifficulty:8
ApproachRate:8
SliderMultiplier:1.8
SliderTickRate:1

[Events]
//Background and Video events
Video,-400,"[BGA]_DJ_Max_Black_Square_-_Lover.avi"
0,0,"lover.jpg"
//Break Periods
2,44939,47279
//Storyboard Layer 0 (Background)
//Storyboard Layer 1 (Fail)
//Storyboard Layer 2 (Pass)
//Storyboard Layer 3 (Foreground)
//Storyboard Sound Samples
//Background Colour Transformations
3,100,0,0,0

[TimingPoints]
5015,413.793103448276,4,2,0,71,1,0
16772,-100,4,1,0,52,0,0
17807,-100,4,2,0,71,0,0
43063,-100,4,2,0,89,0,0
48049,-100,4,2,0,71,0,1
70704,-100,4,2,0,71,0,0

[Colours]
Combo1 : 52,162,203
Combo2 : 159,122,85
Combo3 : 173,158,71
Combo4 : 168,77,150

[HitObjects]
56,136,5014,1,0
184,96,5325,1,0
200,136,5428,1,0
288,136,5635,1,0
336,136,5739,1,0
384,136,5842,1,0
384,272,6152,6,0,B|440:272,3,45
336,272,6670,2,0,B|240:272,2,90
424,272,7290,1,0
400,312,7394,1,0
368,344,7497,1,0
232,344,7808,1,0
184,344,7911,5,2
96,344,8118,1,0
96,256,8325,2,0,B|48:208,2,45
128,224,8635,2,0,B|176:272|176:272,2,45
152,192,8946,2,0,B|112:152,2,45
264,112,9463,1,0
296,80,9566,5,0
328,48,9670,1,0
360,16,9773,1,0
368,104,9980,1,0
336,136,10083,1,0
304,168,10187,1,0
200,256,10497,1,0
168,288,10601,1,0
136,320,10704,1,0
104,352,10808,1,0
400,152,11635,5,0
376,112,11739,1,0
296,152,11946,1,0
320,112,12049,1,0
232,80,12256,1,0
184,80,12359,1,0
136,80,12463,1,0
128,216,12773,2,0,B|72:216,3,45
176,216,13290,6,0,B|272:216,2,90
88,248,13911,1,0
112,288,14014,1,0
144,320,14118,1,0
280,320,14428,1,0
328,320,14532,1,2
416,288,14739,1,0
408,200,14946,6,0,B|456:152,2,45
376,168,15256,2,0,B|352:200|352:200|352:200|344:208,2,45
344,136,15566,2,0,B|376:96,2,45
256,32,16083,1,0
224,64,16187,1,0
192,96,16290,1,0
160,128,16394,1,0
120,208,16601,5,0
168,288,16808,1,0
208,296,16911,1,0
248,304,17014,1,0
288,312,17118,1,0
384,216,17428,1,0
344,208,17532,1,0
304,200,17635,1,0
264,192,17739,1,0
440,48,18256,5,0
424,136,18463,1,0
344,184,18670,1,0
256,192,18877,1,0
256,192,19083,1,0
168,184,19290,1,0
88,136,19497,1,0
72,48,19704,1,0
160,48,19911,6,0,B|216:120,1,90
304,120,20325,2,0,B|384:40,4,90
328,208,21359,1,0
376,288,21566,6,0,B|432:288,2,45
288,288,21980,1,0
200,288,22187,1,0
112,288,22394,1,0
80,256,22497,1,0
64,216,22601,1,0
80,176,22704,1,0
112,144,22808,2,0,B|160:104|208:128,1,90
240,200,23221,5,0
280,224,23325,1,0
328,232,23428,1,0
376,224,23532,1,0
416,200,23635,1,0
376,120,23842,2,0,B|416:56|480:88,2,90
304,72,24463,1,0
232,120,24670,1,0
192,96,24773,1,0
152,72,24877,1,0
96,144,25083,5,0
136,168,25187,1,0
176,192,25290,1,8
112,256,25497,2,0,B|96:312|152:328,1,90
232,296,25911,2,0,B|240:240|184:216,1,90,0|8
272,184,26325,1,0
344,240,26532,6,0,B|392:296|456:240,1,90
440,168,26946,1,8
400,144,27049,1,0
360,120,27152,1,0
440,80,27359,2,0,B|416:24|344:48,1,90,0|0
280,40,27773,1,8
232,40,27877,1,0
184,40,27980,1,0
96,48,28187,6,0,B|96:160,1,90
184,136,28601,2,0,B|296:136,2,90,8|0|0
184,184,29118,1,0
184,232,29221,2,0,B|80:232,2,90,0|8|0
184,280,29739,1,0
184,328,29842,6,0,B|248:328,4,45,0|0|0|0|8
96,328,30463,2,0,B|96:224,1,90
96,192,30773,1,0
96,144,30877,1,0
96,56,31083,1,8
184,56,31290,1,0
272,56,31497,5,6
272,56,31601,1,0
352,168,31911,1,6
352,168,32014,1,0
408,240,32221,1,6
280,208,32532,1,0
280,256,32635,1,0
280,304,32739,2,0,B|176:304,1,90,8|0
96,312,33152,5,4
64,280,33256,1,0
96,248,33359,1,0
72,160,33566,1,8
104,128,33670,1,0
72,96,33773,1,0
152,56,33980,1,0
240,24,34187,1,4
240,72,34290,1,0
240,120,34394,1,8
240,168,34497,1,4
240,216,34601,1,0
312,264,34808,5,4
352,248,34911,1,0
384,216,35015,1,0
400,176,35118,1,0
400,128,35221,2,0,B|400:48|320:48,1,90,8|0
272,56,35635,2,0,B|176:56,1,90
120,120,36049,1,8
120,168,36152,1,0
120,216,36256,1,0
120,304,36463,6,0,B|160:352|216:304,1,90,4|0
240,296,36773,1,0
280,280,36877,2,0,B|328:240|384:296,1,90,8|0
400,304,37187,1,0
440,320,37290,1,0
440,232,37497,5,6
440,232,37601,1,0
440,144,37808,1,6
440,144,37911,1,0
440,56,38118,1,6
440,56,38221,1,0
440,56,38325,1,0
352,56,38532,1,8
264,56,38739,1,0
216,56,38842,1,0
168,56,38946,1,0
168,144,39152,6,0,B|96:144,1,45
80,144,39359,2,0,B|80:256,1,90,8|0
80,280,39670,1,0
128,280,39773,1,4
216,280,39980,6,0,B|328:280,1,90,0|8
392,280,40394,1,0
392,232,40497,1,0
392,184,40601,1,0
304,184,40808,2,0,B|304:120,4,45,4|0|8|4|0
216,184,41428,6,0,B|160:184|160:120,1,90
160,80,41739,1,0
208,80,41842,2,0,B|272:80|272:152,1,90,8|0
256,176,42152,1,0
216,184,42256,2,0,B|160:184|160:128,1,90
160,80,42566,1,0
208,80,42670,2,0,B|272:80|272:152,1,90,8|0
360,144,43083,5,4
400,168,43187,1,0
384,208,43290,1,0
328,280,43497,1,12
304,320,43601,1,0
264,304,43704,1,0
192,256,43911,1,4
144,256,44015,1,0
144,208,44118,1,0
168,120,44325,1,12
192,80,44428,1,0
224,56,44532,1,0
272,48,44635,1,0
320,56,44739,5,0
424,296,48049,6,0,B|400:328|368:328,1,45
344,336,48256,1,0
256,336,48463,1,8
168,336,48670,1,0
128,320,48773,1,0
136,280,48877,1,0
224,264,49083,1,0
256,232,49187,1,0
224,200,49290,1,8
144,160,49497,6,0,B|192:104,1,45
200,96,49704,1,0
288,96,49911,1,0
288,144,50015,1,0
288,184,50118,1,8
376,184,50325,1,0
376,232,50428,1,0
376,272,50532,1,0
288,272,50739,1,0
288,360,50946,1,8
240,360,51049,1,0
192,360,51152,1,0
112,360,51359,6,0,B|64:320|120:280,1,90
160,296,51670,1,0
200,280,51773,2,0,B|248:240|192:200,1,90,8|0
160,192,52083,1,0
112,208,52187,2,0,B|64:168|120:128,1,90,0|0
192,88,52601,1,8
280,88,52808,1,0
368,88,53015,5,0
440,144,53221,1,0
392,224,53428,1,8
400,272,53532,1,0
384,312,53635,1,0
304,280,53842,1,0
232,328,54049,1,0
152,288,54256,1,8
168,248,54359,1,0
200,216,54463,1,0
128,168,54670,5,0
160,136,54773,1,0
192,104,54877,1,0
280,96,55083,1,8
328,176,55290,1,0
416,200,55497,1,0
384,232,55601,1,0
352,264,55704,1,0
280,320,55911,2,0,B|176:320,1,90,8|0
256,192,56221,12,8,57566
360,120,57980,5,0
384,160,58083,1,0
376,200,58187,1,0
328,280,58394,2,0,B|216:280,1,90,8|0
192,200,58808,1,0
176,160,58911,1,0
208,128,59015,1,0
280,176,59221,1,8
280,176,59428,1,0
344,112,59635,6,0,B|344:48,2,45
392,184,60049,2,0,B|392:304,1,90,8|0
304,280,60463,2,0,B|304:328,2,45
216,280,60877,1,8
128,280,61083,1,0
64,216,61290,5,0
136,160,61497,1,0
208,104,61704,2,0,B|208:64|208:48,2,45,8|0|0
280,160,62118,1,0
352,104,62325,1,0
424,48,62532,2,0,B|496:48,2,45,8|0|0
424,136,62946,6,0,B|424:256,1,90
424,320,63359,1,8
336,320,63566,2,0,B|224:320,1,90
152,320,63980,1,0
104,320,64083,1,0
56,320,64187,2,0,B|56:208,1,90,8|0
56,128,64601,6,0,B|80:72|144:104,1,90,0|0
168,120,64911,1,0
208,144,65015,2,0,B|264:176|304:112,1,90,8|0
320,104,65325,1,0
360,80,65428,2,0,B|416:40|456:96,1,90,0|0
440,176,65842,1,8
440,264,66049,1,0
392,264,66152,1,0
344,264,66256,6,0,B|304:216|256:272,1,90
240,296,66566,1,0
208,328,66670,2,0,B|168:368|128:320,1,90,8|0
104,288,66980,1,0
112,240,67083,2,0,B|128:184|200:200,1,90
224,200,67394,1,0
272,200,67497,2,0,B|320:176|312:120,1,90,8|0
312,40,67911,5,0
224,40,68118,1,0
176,40,68221,1,0
128,40,68325,1,8
72,112,68532,1,0
72,200,68739,1,0
72,288,68946,1,0
120,288,69049,1,0
168,288,69152,1,8
256,288,69359,1,0
376,160,69773,5,2
296,120,69980,1,0
224,160,70187,1,0
144,208,70394,1,2
168,240,70497,1,0
208,264,70601,1,0
248,272,70704,1,4
440,160,71221,5,0
440,248,71428,1,0
440,336,71635,2,0,B|352:360|256:336,1,180
168,336,72256,1,0
80,336,72463,1,8
80,152,72877,5,0
168,152,73083,1,0
256,152,73290,2,0,B|344:120|464:160|464:160|456:160,1,180
432,200,73808,1,0
432,248,73911,1,0
432,336,74118,1,8
248,336,74532,5,0
192,264,74739,1,0
248,192,74946,2,0,B|320:104|248:24,1,180
160,32,75566,1,0
72,40,75773,1,8
256,192,75980,12,8,77428
424,80,77842,5,0
424,128,77946,1,0
424,176,78049,1,0
424,264,78256,2,0,B|232:264,1,180
152,264,78877,2,0,B|32:264,2,90,0|8|0
152,176,79497,5,0
152,128,79601,1,0
152,80,79704,1,0
240,80,79911,2,0,B|424:80,1,180
424,128,80428,1,0
424,176,80532,1,0
424,264,80739,2,0,B|480:264,2,45,8|0|0
352,312,81152,5,0
312,336,81256,1,0
272,312,81359,1,0
208,248,81566,2,0,B|128:184|32:256,1,180
104,312,82187,2,0,B|216:312,2,90,0|8|0
104,224,82808,5,0
192,192,83015,1,0
128,128,83221,1,0
216,96,83428,1,0
288,152,83635,5,8
328,176,83739,1,0
304,216,83842,1,0
344,240,83946,1,4
